#TITLE:Don't Stop;
#ARTIST:ATB;
#GENRE:Progressive Trance;
#CREDIT:B. M'Rey;
#MUSIC:Don´t Stop.ogg;
#BANNER:Don´t Stop-bn.png;
#BACKGROUND:Don´t Stop-bg.png;
#CDTITLE:./CDTITLES/Dream Dance - The Most Greatest Hits For All Time Series - Vol. 2.PNG;
#SAMPLESTART:90.691;
#SAMPLELENGTH:12.447;
#OFFSET:-0.418;
#BPMS:0=134.26,138=67.13,154=134.26,250=67.13;

//--------------- dance-single - B. M'Rey ----------------
#NOTES:
     dance-single:
     B. M'Rey:
     Beginner:
     2:
     0,0,0,0,0:
0000
0000
0000
0000
,
0000
0000
0000
0000
,
0000
0000
0000
0000
,
0000
0000
0000
0000
,
0000
0000
1000
0000
,
0002
0000
0000
0000
,
0000
0000
0000
0000
,
0203
0000
0000
0000
,
0000
0000
1300
0000
,
0001
0000
0100
0000
,
0000
0000
0010
0000
,
0001
0000
1000
0000
,
0000
0000
0100
0000
,
1000
0000
0010
0000
,
0000
0000
0001
0000
,
0100
0000
0010
0000
,
0000
0000
0001
0000
,
1000
0000
0010
0000
,
0100
0000
0010
0000
,
1000
0000
0100
0000
,
0001
0000
0100
0000
,
1000
0000
0001
0000
,
0100
0000
0010
0000
,
0100
0000
0010
0000
,
0000
0000
1000
0000
,
0001
0000
1000
0000
,
0001
0000
0100
0000
,
0010
0000
1000
0000
,
0100
0000
0001
0000
,
1000
0000
0100
0000
,
1000
0000
0010
0000
,
0100
0000
0010
0000
,
0001
0000
1001
0000
,
0000
0000
0000
0000
,
0000
0000
0002
0000
,
0000
0000
0203
0000
,
0000
0000
2300
0000
,
0000
0000
3002
0000
,
0000
0000
0013
0000
,
1000
0000
0001
0000
,
0001
0010
0100
0000
,
1000
0000
0010
0000
,
1000
0100
0010
0000
,
0001
0000
1000
0000
,
0001
0010
0100
0000
,
1000
0000
0001
0000
,
0000
0000
1000
0000
,
0010
0000
0100
0010
,
0001
0000
1000
0000
,
0010
0000
0100
1000
,
0010
0000
0001
0000
,
0100
0000
0010
0001
,
1000
0000
0010
0000
,
0100
0000
0001
0010
,
1000
0000
0100
0000
,
1000
0000
0001
0010
,
0100
0000
1000
0000
,
0010
0000
0100
0010
,
0001
0000
1000
0000
,
0001
0000
1000
0000
,
0001
0000
1000
0001
,
1000
0000
0001
0000
,
0001
0010
0200
0000
,
0000
0000
0302
0000
,
0000
0000
2003
0000
,
0000
0000
3200
0000
,
0020
0000
0330
0000
;

//--------------- dance-single - B. M'Rey ----------------
#NOTES:
     dance-single:
     B. M'Rey:
     Easy:
     3:
     0,0,0,0,0:
0000
0000
0000
0000
,
0000
0000
0000
0000
,
0000
0000
0000
0000
,
0000
0000
0000
0000
,
0000
0000
0100
0000
,
0020
0000
2030
0000
,
3200
0000
0320
0000
,
2030
0000
3020
0000
,
0032
0000
0103
0010
,
0100
1000
0010
0000
,
0001
0000
0100
1000
,
0010
0100
0010
0000
,
0001
0000
0010
0100
,
0010
1000
0100
0000
,
0010
0000
0100
1000
,
0010
0100
0002
0000
,
0203
0000
0301
0010
,
0100
1000
0100
1000
,
0001
1000
0001
0010
,
0100
1000
0010
1000
,
0001
1000
0010
0100
,
0001
0100
0010
1000
,
0100
1000
0100
0010
,
0001
0010
0100
0000
,
0100
0000
0010
1000
,
0001
0010
0001
0100
,
0001
0010
0100
1000
,
0001
0100
0001
0100
,
0001
1000
0010
1000
,
0100
0010
0001
0010
,
0001
1000
0100
1000
,
0010
1000
0001
0100
,
0010
1000
0002
0000
,
0000
0000
0000
0000
,
0000
0000
1003
1000
,
0020
0000
0130
1000
,
0200
0000
0301
0100
,
0002
0000
0103
0010
,
0001
0010
0001
1000
,
0010
0100
0010
1000
,
0001
0010
0100
1000
,
0001
0010
0100
1000
,
0001
1000
0001
0100
,
0010
0100
0010
1000
,
0001
0010
0100
0010
,
0001
1000
0200
0000
,
0000
0000
0310
0100
,
0001
0100
0010
1000
,
0001
0100
0001
1000
,
0010
1000
0010
0100
,
0001
0010
0100
1000
,
0001
1000
0010
0100
,
0010
1000
0001
0100
,
0010
0100
0010
1000
,
0001
1000
0001
1000
,
0010
0100
0001
0010
,
0100
1000
0010
0100
,
0001
0010
0100
1000
,
0001
0100
0001
0010
,
0100
0010
0001
0010
,
0100
1000
0100
1000
,
0100
0010
0001
0100
,
0010
1000
0002
0000
,
0023
0000
0032
0000
,
0023
0000
0230
0000
,
2300
0000
3200
0000
,
2000
0000
3300
0000
;

//--------------- dance-single - B. M'Rey ----------------
#NOTES:
     dance-single:
     B. M'Rey:
     Medium:
     4:
     0,0,0,0,0:
0000
0000
0000
0000
,
0000
0000
0000
0000
,
0000
0000
0000
0000
,
0000
0000
0000
0000
,
0000
0000
0001
0100
,
0010
0100
0010
0100
,
0001
1000
0001
1000
,
0001
0010
0100
0010
,
0001
0100
0001
1000
,
0001
1000
0010
1000
,
0010
0100
0010
0100
,
0001
1000
0001
1000
,
0010
0100
0001
1000
,
0010
1000
0001
1000
,
0100
0010
0001
0010
,
0100
1000
0001
0100
,
0001
0010
0100
1000
,
0010
1000
0010
0100
,
0010
0100
0001
0010
,
0001
1000
0010
1000
,
0100
0010
0100
1000
,
0100
1000
0010
1000
,
0010
0100
0010
0100
,
0001
1000
0100
0010
,
0001
0100
0010
1000
,
0010
1000
0100
1000
,
0100
0010
0100
0010
,
0001
0100
0010
1000
,
0010
1000
0001
1000
,
0001
0010
0100
0010
,
0001
0010
0100
1000
,
0100
1000
0001
0010
,
0001
0010
0100
1000
,
0010
0100
0010
1000
,
0001
0100
0010
1000
,
0001
0100
0010
0100
,
0001
1000
0001
1000
,
0001
0010
0100
1000
,
0010
0100
0010
1000
,
0010
1000
0001
1000
,
0100
0010
0001
0010
,
0001
0010
0100
1000
,
0100
0010
0100
1000
,
0010
1000
0001
0100
,
0010
0100
0010
0100
,
0001
1000
0010
0100
,
0001
1000
0010
0100
,
0001
0010
0001
0010
,
0100
0010
0100
1000
,
0010
0100
0001
1000
,
0010
0100
0001
0100
,
0001
1000
0001
0010
,
0100
0010
0001
0010
,
0100
1000
0010
1000
,
0100
0010
0001
0100
,
0001
1000
0001
1000
,
0010
0100
0010
0100
,
0010
1000
0001
1000
,
0010
1000
0001
0010
,
0001
1000
0001
1000
,
0100
0010
0100
1000
,
0001
1000
0100
1000
,
0010
0100
0010
0100
,
0001
0010
0001
0010
,
0100
0010
0001
1000
,
0100
1000
0001
0010
,
0201
0020
0330
0000
;

//--------------- dance-single - B. M'Rey ----------------
#NOTES:
     dance-single:
     B. M'Rey:
     Hard:
     7:
     0.459304,0.656941,0.087885,0.190418,0.281965,439,427,12,26,0,1,0.459304,0.656941,0.087885,0.190418,0.281965,439,427,12,26,0,1:
0000
0000
0000
0000
,
0000
0000
0000
0000
,
0000
0000
0000
0000
,
0000
0000
0000
0000
,
0000
0000
0000
0000
0000
0000
0000
0000
0010
0000
0001
0000
0010
0000
0000
0100
,
0000
0000
1000
0000
0100
0000
0000
0001
0000
0000
0010
0000
0100
0000
0000
1000
,
0000
0000
0100
0000
0010
0000
0000
0001
0000
0000
0100
0000
0010
0000
0000
1000
,
0000
0000
0100
0000
0001
0000
0000
0010
0000
0000
0100
0000
1000
0000
0000
0100
,
0000
0001
0010
0000
0100
1000
0000
0100
,
0001
0000
0010
0001
0000
0000
0100
0000
1000
0000
0100
0000
0001
0000
0000
0100
,
0000
0000
0010
0000
1000
0000
0000
0100
0000
0000
0010
0000
0000
0000
0001
0000
,
0010
0000
0100
1000
0000
0000
0100
0000
0000
0000
0001
0000
0010
0000
0000
0100
,
0000
1000
0100
0000
0010
0001
0000
0010
,
0100
0000
1000
0100
0000
0000
0001
0000
0010
0000
0100
0000
1000
0000
0000
0100
,
0000
0010
0001
0000
0010
0100
0000
1000
,
0100
0000
0001
0010
0000
0000
0100
0000
2000
0000
0000
0000
0000
0000
0000
0000
,
0001
0000
0000
3000
0001
1000
0001
1000
,
0001
0100
0010
0100
0010
0100
0001
1000
,
0001
0010
0100
0010
0100
0010
0001
1000
,
0001
1000
0001
0100
0010
0100
0010
0100
,
0001
1000
0100
1000
0010
1000
0010
0100
,
0010
0100
0001
1000
0010
1000
0010
0100
,
0010
0100
0001
0100
0001
0010
0001
0010
,
0100
0010
0100
1000
0100
1000
0000
0100
,
0001
0000
0000
0000
0100
0000
0000
0000
0001
0000
1000
0001
0000
0000
1000
0000
,
0001
0100
0000
0010
0100
0000
0100
0000
0010
0000
0100
0001
0000
0000
1000
0000
,
0001
1000
0000
1000
0001
0000
0100
0000
0010
0000
0100
0010
0000
0000
0100
0000
,
0001
1000
0000
1000
0001
0000
1000
0000
0010
0000
1000
0010
0000
0000
0100
0000
,
0010
0100
0000
0010
0001
0000
0010
0000
0100
0000
0010
0100
0000
0000
0010
0000
,
0001
0100
0000
0001
0010
0000
0100
0000
0001
0000
0010
0100
0000
0000
0010
0000
,
0100
1000
0000
1000
0100
0000
1000
0000
0010
0000
1000
0010
0000
0000
0100
0000
,
0010
0100
0000
0100
0001
0000
0100
0000
0010
0000
1000
0100
0000
0000
1000
0000
,
0010
0100
0000
0100
0010
0000
0100
0000
0020
0000
0000
0000
0000
0000
0000
0000
,
0000
0000
0100
0000
,
0130
0000
0000
0000
0000
0000
0000
0000
0000
0000
0000
0000
0000
0000
0000
0000
0001
0000
1000
0000
0000
0000
0100
0000
0001
0000
0100
0010
0000
0000
0200
0000
,
0000
0000
0000
0000
0000
0000
0000
0000
0000
0000
0000
0000
0000
0000
0000
0000
0000
0000
0310
0000
0000
0000
0010
0000
0001
0000
0100
0001
0000
0000
0200
0000
,
0000
0000
0000
0000
0000
0000
0000
0000
0000
0000
0000
0000
0000
0000
0000
0000
0000
0000
0310
0000
0000
0000
0010
0000
0001
0000
1000
0010
0000
0000
2000
0000
,
0000
0000
0000
0000
0000
0000
0000
0000
0000
0000
0000
0000
0000
0000
0000
0000
0000
0000
3010
0000
0000
0000
0010
0000
0001
0000
0010
0100
0000
0000
0020
0000
,
0000
1030
0000
1000
0001
0010
0001
0000
0001
0000
1000
0000
0000
0000
1000
0000
,
0001
0000
0100
0010
0000
0000
0100
0000
0000
0000
0100
0000
0001
0000
0010
0000
,
0001
0100
0002
0000
0013
0100
0000
1000
,
0100
0000
0010
0100
0000
0000
0020
0000
0000
0000
1030
0000
0010
0000
1000
0000
,
0001
1000
0002
0000
0013
1000
0000
1000
,
0100
0000
1000
0001
0000
0000
0100
0000
0000
0000
0100
0000
0001
0000
1000
0000
,
0010
1000
0020
0000
0130
0010
0000
0010
,
0100
0000
1000
0010
0000
0000
1000
0000
0010
0000
0100
0000
0010
0000
0100
0000
,
0001
0100
0002
0000
0013
1000
0100
1000
,
0010
1000
0010
0100
0010
0100
0001
0100
,
0001
0010
0200
0000
0301
1000
0001
1000
,
0001
0010
0100
0010
0100
0010
0001
0100
,
0010
1000
0200
0000
0310
1000
0001
0010
,
0100
0010
0100
0010
0001
0100
0001
0100
,
0010
0100
0020
0000
0130
1000
0100
1000
,
0100
0010
0100
0010
0001
0010
0001
0100
,
0001
0100
0020
0000
0130
1000
0010
1000
,
0100
1000
0100
0010
0100
0010
0001
0010
,
0001
1000
0002
0000
0103
0010
0100
0010
,
0001
0100
0001
0100
0001
1000
0010
0100
,
0010
0100
0020
0000
1031
1000
0001
1000
,
0110
0010
0100
1000
1100
1000
0001
1000
,
0011
0010
0001
0010
0110
0010
1100
1000
,
1100
1000
0101
0100
0110
0100
1010
1000
,
1010
0000
0000
0000
1000
0000
0000
0000
0200
0000
0000
0000
0000
0000
0000
0000
0301
0000
1000
0000
0000
0000
0100
0000
0001
0000
0100
0010
0000
0000
0100
0000
,
0001
0000
0000
0000
1000
0000
0000
0000
0001
0000
0000
0000
1000
0000
0000
0000
0010
0000
0100
0000
0000
0000
0010
0000
0001
0000
0100
0001
0000
0000
0100
0000
,
0001
0000
0000
0000
1000
0000
0000
0000
0100
0000
0000
0000
0010
0000
0000
0000
0100
0000
0010
0000
0000
0000
0010
0000
0001
0000
1000
0010
0000
0000
1000
0000
,
0100
0000
0000
0000
0010
0000
0000
0000
0100
0000
0000
0000
0010
0000
0000
0000
0100
0000
0010
0000
0000
0000
0010
0000
0001
0000
0010
0100
0000
0000
0020
0000
,
2000
3002
0033
0000
;
