#TITLE:Don't Be So Hard On Yourself;
#ARTIST:Jess Glynne;
#GENRE:House Pop;
#CREDIT:B. M'Rey;
#MUSIC:Don't Be So Hard On Yourself.ogg;
#BANNER:Don't be so hard on yourself-bn.png;
#BACKGROUND:Don't Be So Hard On Yourself-bg.png;
#CDTITLE:./CDTITLES/BMR Superstars.PNG;
#SAMPLESTART:96.904;
#SAMPLELENGTH:12.714;
#OFFSET:-0.500;
#BPMS:0=119.989;

//--------------- dance-single - B. M'Rey ----------------
#NOTES:
     dance-single:
     B. M'Rey:
     Beginner:
     2:
     0,0,0,0,0:
0000
0000
0000
0000
,
0000
0000
0000
0000
,
0000
0000
0000
0000
,
0000
0000
0000
0000
,
0000
1000
0000
0010
,
0000
0100
0000
0001
,
0000
1000
0000
0001
,
0000
0000
0000
0000
,
0000
0100
0010
0100
,
0000
0001
1000
0001
,
0000
0010
0100
1000
,
0000
0010
0100
0001
,
0000
0010
0100
0001
,
0000
1000
0010
0100
,
0000
0010
1000
0001
,
0000
0010
0000
0100
,
0000
0001
0001
1000
,
2000
0000
3000
0000
,
0000
0010
0010
0100
,
0200
0000
0300
0000
,
0000
0001
0001
0100
,
0200
0000
0300
0000
,
0000
1000
1000
0010
,
0020
0000
0030
0000
,
0100
0001
1000
0010
,
0100
0002
0000
0003
,
0010
0100
1000
0010
,
0100
0002
0000
0003
,
0010
0100
0010
1000
,
0001
0200
0000
0300
,
0010
1000
1000
0001
,
0002
0000
0003
0000
,
0000
0000
0200
0000
,
0000
0000
0000
0300
,
0000
0000
0001
0010
,
1000
0200
0000
0300
,
0000
0000
0010
0100
,
0001
2000
0000
3000
,
0000
0000
0010
0100
,
1000
0002
0000
0003
,
0000
0000
0100
0010
,
1000
0002
0000
0003
,
0000
0000
0100
0010
,
1000
0002
0000
0003
,
0000
0000
0010
0100
,
0000
0010
0000
0001
,
0000
1000
0000
0001
,
0000
2002
0000
0000
,
3003
1000
1000
0001
,
0002
0000
0103
0000
,
0100
0010
0010
0100
,
0200
0000
0310
0000
,
1000
0001
0001
0100
,
0200
0000
0301
0000
,
0100
1000
1000
0010
,
0020
0000
0000
0030
,
0100
0001
0010
1000
,
0010
2000
0000
3000
,
0010
0100
0010
0001
,
1000
0020
0000
0030
,
0100
0010
1000
0100
,
0001
0020
0000
0030
,
1000
0001
0001
1000
,
2000
0000
3000
0000
,
0000
0010
0100
0010
,
0100
0010
0000
0000
,
0001
1000
0001
1000
,
0001
1000
0000
0000
,
0010
1000
0010
1000
,
0010
0000
0000
0000
,
0100
0001
0100
0001
,
0200
0000
0000
0000
,
0000
0000
0000
0300
;

//--------------- dance-single - B. M'Rey ----------------
#NOTES:
     dance-single:
     B. M'Rey:
     Easy:
     5:
     0,0,0,0,0:
0000
0000
0000
0000
,
0000
0000
0000
0000
,
0000
0000
0000
0000
,
0000
0000
0000
0000
,
0000
0001
1000
0001
,
1000
0001
0100
0010
,
0000
0010
0110
0001
,
1001
0000
1000
0010
,
1000
0000
0010
0000
0100
0000
0010
0001
,
0100
0000
0001
0000
0100
0000
0001
0010
,
1000
0000
0001
0000
1000
0000
0100
1000
,
0010
0000
0001
0000
1000
0000
0001
1000
,
0010
0000
0001
0000
0100
0000
0010
0001
,
0100
0000
0001
0000
0010
0000
0001
0010
,
1000
0000
0001
0000
0010
0000
0100
0001
,
1000
0000
0100
0000
1000
0000
0100
1000
,
0010
0000
0001
0001
0100
0000
0001
0001
,
0100
0001
1000
0010
,
0100
0000
0010
0010
1000
0000
0010
0010
,
1000
0001
1000
0001
,
0100
0000
0010
0100
0100
0000
0001
0100
,
0100
0001
0010
0100
,
0010
0000
0100
0100
0010
0000
0001
1000
,
1000
0001
1000
0001
,
0010
0110
0110
0100
,
1000
0100
1000
0001
,
1000
0101
0101
0001
,
0100
0010
0100
0001
,
1000
1001
1001
0010
,
1000
0010
0100
0010
,
0100
0000
0001
0001
0100
0000
0001
0001
,
1000
0010
1000
0001
,
1000
0010
0200
0000
,
0000
0000
0301
0001
,
1000
0000
1000
0010
,
1000
0020
0000
0030
,
0100
0000
0100
0001
,
0010
0002
0000
0003
,
0010
0000
1000
0010
,
1000
0020
0000
0030
,
0010
0000
0010
0100
,
1000
0020
0000
0030
,
1000
0000
0010
0001
,
0010
0002
0000
0003
,
1000
0000
0100
0001
,
0000
0100
0000
0100
,
1000
0001
0010
0001
,
0010
0002
0000
0000
,
0000
0000
1003
1000
0010
0000
0100
0100
,
0010
0100
1000
0100
,
1000
0000
0010
0010
1000
0000
0001
0001
,
0010
0001
0010
0100
,
0010
0000
0001
0001
1000
0000
0001
0001
,
1000
0001
0010
0100
,
1000
0000
0100
0100
1000
0000
0100
0100
,
0010
0001
0010
0100
,
1000
0110
0110
0010
,
0100
0010
1000
0100
,
1000
1010
1010
0010
,
0100
0010
0100
0001
,
1000
1001
1001
0001
,
0100
0010
1000
0010
,
1000
0000
0010
0010
0100
0000
0001
0001
,
0100
0001
0100
0010
,
1000
1010
1010
0010
,
0100
0002
0000
0003
,
0100
1010
1010
0001
,
1000
0020
0000
0030
,
0010
0101
0101
0001
,
1000
0020
0000
0030
,
1000
0001
0010
0001
,
0020
0000
0030
0200
,
0000
0000
0000
0300
;

//--------------- dance-single - B. M'Rey ----------------
#NOTES:
     dance-single:
     B. M'Rey:
     Medium:
     6:
     0,0,0,0,0:
0000
0000
0000
0000
,
0000
0000
0000
0000
,
0000
0000
0000
0000
,
0000
0000
0000
0000
,
0000
0000
0010
0000
0100
0000
0001
0010
,
1000
0000
0010
0000
0100
0000
1000
0001
,
0010
1000
0001
1000
,
1001
0000
0010
0100
,
0101
0000
0001
0010
1000
0000
0001
0010
,
0100
0000
1000
0010
0100
0000
0001
0000
,
1000
0000
0001
0010
0100
0000
1000
0100
,
0001
0000
0010
0001
0100
0000
2000
0000
,
3002
0000
0013
0100
0001
0000
1000
0010
,
1000
0000
0010
0100
0001
0000
0010
0100
,
1000
0000
0001
0100
0010
0000
1000
0100
,
0010
0000
0001
0010
1000
0000
0002
0000
,
0103
0110
1001
0110
,
0101
0000
0010
0001
1000
0000
0100
0000
,
0010
1010
0110
0101
,
0110
0000
1000
0000
0001
1000
0010
0000
,
0100
0101
0110
1010
,
1001
0000
0010
0000
0100
0010
0001
0000
,
1000
1010
0101
0110
,
0101
0000
0010
0000
1000
0001
1000
0000
,
0010
0100
0001
0000
1000
0000
0010
0100
,
0001
0010
1000
0000
0100
0000
1000
0000
,
0010
0100
0010
0000
1001
0000
0010
0100
,
0001
0010
1000
0000
0100
0000
0100
0000
,
0010
0001
0010
0000
1000
0000
0001
0010
,
0100
1000
0100
0000
0010
0000
1000
0000
,
0001
1001
0110
0101
,
2020
0000
3030
0100
,
0010
0100
0002
1000
,
1000
1003
0010
0100
,
0001
0010
0000
0000
1000
0000
0010
0000
,
0100
1000
0010
0100
,
0001
0010
0000
0000
1000
0000
0100
0000
,
0010
1000
0001
0010
,
1000
0100
0000
0000
0010
0000
0100
0000
,
0001
0010
1000
0001
,
0001
0010
0000
0100
0010
0000
1000
0000
,
0100
0001
0010
0100
,
1000
0100
0000
0010
0001
0000
0010
0000
,
0100
1001
0010
0100
,
0001
0010
0000
0000
1000
0000
0001
0000
,
0000
0010
0100
0000
0000
0001
0010
1000
,
0100
0010
0001
0000
1000
0010
0100
0000
,
0002
2000
0000
0000
,
3003
1001
0101
0110
,
1010
0000
0101
0000
0010
1000
0010
0000
,
0001
0100
0101
0000
0110
0000
1010
0000
,
0101
0000
0010
0000
0100
0010
0100
0000
,
1000
0100
1001
0000
0101
0000
0110
0000
,
1010
0000
0010
0000
0001
0010
0001
0000
,
1000
1010
0110
0101
,
1001
0010
0100
0001
,
0001
1000
0010
0000
1001
0000
0010
0100
,
0001
0010
1000
0000
0010
0000
0100
0000
,
0010
0100
0001
0000
1010
0000
0010
0100
,
0010
1000
0001
0000
0010
0000
0100
0001
,
1000
0010
1010
0000
0001
0000
0010
0100
,
1000
0001
1001
0000
0010
0000
0100
0000
,
0001
1001
0110
1010
,
0101
0010
0100
1000
,
0001
0010
0001
0000
1000
0000
0010
0100
,
0001
0010
1000
0000
0010
0000
0100
0000
,
0001
0010
1000
0000
0001
0000
0010
0100
,
0010
1000
0001
0000
1000
0000
0010
0100
,
0001
0010
1000
0000
1000
0000
0010
0100
,
1000
0100
1000
0000
0010
0000
0100
0000
,
0001
0000
1000
0001
1000
0000
0001
1000
,
0002
0000
0000
2000
,
0000
0000
0000
3003
;

//--------------- dance-single - B. M'Rey ----------------
#NOTES:
     dance-single:
     B. M'Rey:
     Hard:
     7:
     0,0,0,0,0:
0000
0000
0000
0000
,
0000
0000
0000
0000
,
0000
0000
0000
0000
,
0000
0000
0000
0000
,
0000
0000
0010
1000
0100
0000
0100
0010
,
0100
0000
0001
1000
0001
1000
0010
0000
,
0010
0100
0010
1000
1001
0000
0001
1000
,
0110
0010
0010
0100
,
0100
0000
0001
0010
0001
0010
0001
1000
,
0100
1000
0100
1000
0010
0100
0010
0100
,
0010
1000
0100
1000
0100
1000
0010
0100
,
0010
0100
0010
1000
0100
0010
1100
0000
,
1100
0000
0001
0100
0001
1000
0100
1000
,
0100
1000
0001
0100
0001
1000
0001
0100
,
0010
0100
0010
0100
0001
0010
0001
1000
,
0001
0100
0010
1000
0010
0100
0101
0000
,
0101
0000
0010
1000
0001
0000
0010
1000
,
0100
0000
0100
0010
0100
0000
0010
0000
,
0010
1000
0001
0100
0001
0000
0001
1000
,
0010
0000
0010
0000
0100
0000
0100
0010
,
0100
0000
0010
1000
0010
0000
0001
0010
,
0001
0000
0001
0100
0010
0000
0010
0000
,
0001
1000
0010
1000
1010
0000
0001
0100
,
0101
0000
0001
1000
0100
0000
0100
1000
,
0001
0010
1001
0000
1100
0000
0010
1000
,
0100
0010
0002
0000
0100
0000
0103
0000
,
0100
1000
1010
0000
0110
0000
0010
0100
,
0001
0100
2010
0000
0010
0000
3100
1000
,
0010
0100
0101
0000
1001
0000
0100
0010
,
0100
0010
0200
0000
0001
0000
0301
0000
,
0001
0100
0010
1000
0010
0000
0010
0100
,
0002
0000
0010
0000
0013
1000
0010
1000
,
0100
1000
0001
0000
1000
0000
0010
0000
,
1000
0010
1000
0100
,
0010
0001
0000
0010
0100
1000
0100
0000
,
0001
0100
0001
0100
,
0100
0010
0000
1000
0001
1000
0001
0000
,
0100
0010
0001
0010
,
1000
0010
0000
0100
0001
0010
0001
0000
,
1000
0100
1000
0001
,
0010
1000
0000
0100
0010
0100
0001
0000
,
0010
1000
0100
0010
,
0100
0010
0000
0010
0001
0100
0001
0000
,
0010
0100
0010
0001
,
0001
0100
0000
1000
0010
1000
0010
0000
,
0001
1000
0001
0000
0001
0010
0100
0010
,
0100
0010
0001
0000
0100
1000
0100
0000
,
0110
0000
0010
0100
0010
1000
0002
0000
,
0000
0000
0103
0010
0100
0000
0001
0010
,
0001
0000
0010
0100
0110
0000
1001
0000
,
0010
1000
0001
1000
0001
0100
0001
0100
,
0010
0000
0010
1000
1010
0000
1100
0000
,
0100
0010
0100
0010
0001
0010
0001
1000
,
0001
0000
0100
1000
0011
0000
0011
0000
,
0001
1000
0010
1000
1001
0000
0010
0100
,
1010
0000
0010
1000
1100
0000
0101
0000
,
0010
0100
0110
0000
1001
0000
0001
1000
,
0001
0100
0020
0000
0001
0000
0031
0000
,
0001
0010
1001
0000
1010
0000
0010
1000
,
0001
0010
0002
0000
0010
0000
0013
0100
,
0010
0100
1001
0000
1001
0000
0100
1000
,
0100
0010
0200
0000
0010
0000
0310
0000
,
1100
0000
0100
0010
0001
0000
0001
0100
,
0002
0000
0100
0003
0100
0010
0001
0100
,
0010
0100
0200
0000
0302
0000
0103
0010
,
0001
1000
0020
0000
0000
0000
0030
0000
,
0100
1000
0200
0000
0320
0000
0031
0010
,
0001
1000
0200
0000
0000
0000
0300
0100
,
0010
1000
0020
0000
0032
0000
0013
1000
,
0001
1000
0020
0000
0000
0000
0031
0000
,
0101
0000
0010
1000
0010
0000
0010
0100
,
0002
0000
0000
0000
0000
0000
0000
0000
0013
0000
0000
0000
0002
0000
0000
0023
,
0000
2030
0000
0000
0000
0000
3000
0000
;
