#TITLE:Do That Thang;
#SUBTITLE:(M★A★S★H Mix);
#ARTIST:Masai;
#GENRE:Eurodance;
#CREDIT:B. M'Rey;
#MUSIC:Do That Thang (MASH Mix).ogg;
#BANNER:Do That Thang (MASH Mix)-bn.png;
#BACKGROUND:Do That Thang (MASH Mix)-bg.png;
#CDTITLE:./CDTITLES/BMR Superstars.PNG;
#SAMPLESTART:16.01;
#SAMPLELENGTH:12;
#OFFSET:-0.537;
#BPMS:0=123.930;

//--------------- dance-single - B. M'Rey ----------------
#NOTES:
     dance-single:
     B. M'Rey:
     Beginner:
     1:
     0.064292,0.072673,0,0.009185,0,49,49,0,1,0,0,0.064292,0.072673,0,0.009185,0,49,49,0,1,0,0:
0000
0000
0000
0000
,
0000
0000
0000
0000
,
0000
0000
0000
0000
,
0000
0000
0000
0000
,
0010
0000
0000
0000
,
1000
0000
0000
0000
,
0100
0000
0000
0000
,
1000
0000
0000
0000
,
0001
0000
0000
0000
,
0010
0000
0000
0000
,
0100
0000
0000
0000
,
0001
0000
0000
0000
,
0010
0000
0000
0000
,
1000
0000
0000
0000
,
0100
0000
0000
0000
,
1000
0000
0000
0000
,
0010
0000
0000
0000
,
0100
0000
0000
0000
,
0001
0000
0000
0000
,
0010
0000
0000
0000
,
0100
0000
0000
0000
,
1000
0000
0000
0000
,
0100
0000
0000
0000
,
1000
0000
0000
0000
,
0010
0000
0000
0000
,
0100
0000
0000
0000
,
0001
0000
0000
0000
,
0010
0000
0000
0000
,
0001
0000
0000
0000
,
0100
0000
0000
0000
,
0010
0000
0000
0000
,
1000
0000
0000
0000
,
0100
0000
0000
0000
,
1000
0000
0000
0000
,
0010
0000
0000
0000
,
0100
0000
0000
0000
,
0001
0000
0000
0000
,
0010
0000
0000
0000
,
0001
0000
0000
0000
,
0100
0000
0000
0000
,
0010
0000
0000
0000
,
1000
0000
0000
0000
,
0010
0000
0000
0000
,
0100
0000
0000
0000
,
0010
0000
0000
0000
,
0001
0000
0000
0000
,
1000
0000
0000
0000
,
0100
0000
0000
0000
,
1000
0000
0000
0000
,
0010
0000
0000
0000
,
0100
0000
0000
0000
,
0001
0000
0000
0000
,
0020
0000
0000
0030
;

//--------------- dance-single - B. M'Rey ----------------
#NOTES:
     dance-single:
     B. M'Rey:
     Easy:
     4:
     0.240111,0.242244,0.064292,0.1194,0,183,176,7,13,0,0,0.240111,0.242244,0.064292,0.1194,0,183,176,7,13,0,0:
0000
0000
0000
0000
,
0000
0000
0000
0000
,
0000
0000
0000
0000
,
0000
0000
0000
0000
,
0001
0001
0001
0000
,
1000
1000
1000
0000
,
0010
0010
0100
0100
,
0010
1000
0001
0100
,
0001
0001
0100
0000
,
1000
1000
0100
0000
,
0010
0001
1000
0100
,
1000
0010
0100
0001
,
2001
0001
0001
3000
,
1002
1000
1000
0003
,
0010
0001
0010
0001
,
1000
0100
1000
0100
,
0010
0010
0010
0000
,
0001
0010
0001
0010
,
0100
0100
0100
0000
,
1000
0100
1000
0100
,
1001
0100
0100
0000
,
1001
0010
0010
1000
,
0010
0100
0001
1000
,
0100
0010
0001
1000
,
0010
1000
0010
0010
,
0001
0100
0001
0001
,
1000
0100
0010
0001
,
1000
0100
0010
0001
,
0010
0010
0010
0000
,
1000
0001
1000
0001
,
0020
0100
0100
0130
,
0001
0100
0010
1000
,
0002
0103
2000
3100
,
0010
0001
1000
0100
,
2000
3100
0002
0103
,
0010
1000
0001
0100
,
0010
0010
0010
0000
,
0100
0100
0100
0000
,
0001
0010
0001
0010
,
1000
0100
1000
0100
,
0020
1030
0200
1300
,
0001
1000
0010
0000
,
0200
0301
0020
0031
,
1000
0001
0100
0100
,
0001
0001
0001
0000
,
1000
1000
1000
0000
,
0001
0010
0100
1000
,
0010
0100
0001
1000
,
0110
0000
0001
0001
,
1000
0001
0010
0100
,
1001
0000
0010
0010
,
0100
0100
0100
0100
,
2002
0000
0000
3003
;

//--------------- dance-single - B. M'Rey ----------------
#NOTES:
     dance-single:
     B. M'Rey:
     Medium:
     6:
     0.33983,0.363365,0.110215,0.312276,0,259,247,12,34,0,0,0.33983,0.363365,0.110215,0.312276,0,259,247,12,34,0,0:
0000
0000
0000
0000
,
0000
0000
0000
0000
,
0000
0000
0000
0000
,
0000
0000
0000
0000
,
0001
0000
0001
0000
,
0010
0010
0010
0010
,
1000
1000
0001
0001
,
1000
0000
0010
0000
0010
1000
0001
0100
,
0001
0000
0001
0000
0001
0000
0001
1000
,
0010
0100
0001
0100
0010
0100
0001
0000
,
1000
1000
1000
1000
,
0100
0010
0001
0010
0001
0000
0100
0000
,
0020
0000
1000
0000
1000
1000
1030
0000
,
0200
0000
0001
0000
0001
0001
0301
0000
,
1000
0100
1000
0000
0001
0100
0001
0000
,
0010
0001
1000
0100
0011
0000
1100
0000
,
0010
0001
0010
0000
0100
1000
0100
0000
,
0001
0100
0001
0010
0100
1000
0100
0000
,
1000
0100
1000
0000
0001
0100
0001
0000
,
1000
0100
0010
0100
1000
0001
0010
0000
,
0100
0100
0100
0000
1000
1000
1000
0000
,
0001
0001
0001
0100
0010
0010
0010
0000
,
1000
0000
1000
0000
0010
1000
0010
0100
,
0001
0010
0100
1000
,
0010
1000
0010
0100
0010
0100
1001
0000
,
0002
0103
2000
3100
,
0010
0001
0010
0100
0010
0001
0011
0000
,
0002
0103
2000
3100
,
0010
0000
0010
0000
0010
1000
1010
0000
,
0100
0000
0100
0000
0100
0001
0100
0010
,
2002
0000
0000
3003
,
0010
1000
0001
0100
0001
0010
0100
1000
,
0002
0103
2000
3100
,
0010
1000
0010
0000
0001
0100
0001
0000
,
2000
3100
0002
0103
,
0001
0100
0001
0000
1010
0000
0101
0000
,
2000
0010
0010
3010
,
0002
0100
0100
0103
,
0002
1003
2000
3001
,
0002
0023
0230
2300
,
3002
0103
2000
3010
,
0100
0010
0100
0001
1000
0010
1000
0000
,
2000
3010
0002
0103
,
0010
1000
0001
0100
0001
0000
1000
0000
,
0002
0100
1000
0103
,
2000
0010
0001
3010
,
0002
0013
2000
3100
,
1000
0100
0010
0001
1000
0100
0010
0001
,
0220
0000
0330
1001
,
0010
0001
1000
0100
0010
0001
1000
0100
,
2002
0000
0000
3003
,
0010
1000
0010
0100
0001
1000
0010
0100
,
2002
0000
0000
3003
;

//--------------- dance-single - B. M'Rey ----------------
#NOTES:
     dance-single:
     B. M'Rey:
     Hard:
     8:
     0.450045,0.484487,0.1194,0.275538,0.229615,343,330,13,30,0,0,0.450045,0.484487,0.1194,0.275538,0.229615,343,330,13,30,0,0:
0000
0000
0000
0000
,
0000
0000
0000
0000
,
0000
0000
0000
0000
,
0000
0000
0000
0000
,
0001
0001
0001
0000
1000
1000
1000
0000
,
0010
1000
0010
1000
0001
0100
0001
0000
,
1000
1000
1000
0000
0001
0001
0001
0000
,
0100
0001
0100
0010
1000
0010
0100
0001
,
1000
0010
1000
0010
0000
0000
0100
0001
0100
0001
0000
0000
1000
0000
0010
0000
,
0100
0001
0010
0000
0100
1000
0001
0000
,
0010
0001
0010
0001
0000
0000
1000
0100
1000
0100
0000
0000
0010
0000
0001
0000
,
0010
0001
1000
0001
1000
0000
0001
0000
,
1000
0100
1000
0100
0000
0000
0010
0001
0010
0001
0000
0000
0010
0000
0100
0000
,
0010
0001
1000
0100
0010
0100
1000
0001
,
1000
0001
1000
0001
0000
0000
0010
0100
0010
0100
0000
0000
1000
0000
0001
0000
,
0010
0100
1000
0100
0010
0100
1001
0000
,
0010
1000
0010
1000
0010
0100
0010
0100
,
0001
1000
0001
1000
0002
0000
0103
0000
,
1000
0100
1000
0100
1000
0001
0010
0001
,
0010
0000
0100
0000
1000
0100
0000
0000
0010
0000
0001
0010
0000
0000
0000
0000
,
1000
0100
1000
0100
0010
0001
0010
0001
,
0010
0100
0010
0001
1000
0010
0100
0001
,
1000
0010
1000
0100
1000
0100
0010
0001
,
0010
0001
0100
0010
1000
0100
0010
0001
,
2000
0000
3002
0000
1003
0100
0010
0000
,
0002
0103
2000
3100
,
0020
0000
0230
0000
1300
0001
0100
0000
,
0020
2030
3002
0203
,
0301
0100
0001
0100
0010
0100
0010
0000
,
1000
0010
1000
0010
0100
0001
1000
0001
,
2000
0000
0020
3030
,
1000
0100
0010
0001
1000
0100
0010
0001
,
0010
0001
0010
0001
0000
0000
1000
0100
1000
0100
0000
0000
0010
0000
0100
0000
,
1000
0001
0100
0000
0001
1000
0100
0000
,
0010
1000
0010
1000
0000
0000
0001
0100
0001
0100
0000
0000
0001
0000
1000
0000
,
0010
0100
0001
0000
1001
0000
0110
0000
,
1000
0100
1000
0100
0000
0000
0010
0001
0010
0001
0000
0000
1000
0000
0100
0000
,
1000
0001
0010
0000
0001
1000
0010
0000
,
1000
0001
1000
0001
0000
0000
0010
0100
0010
0100
0000
0000
1001
0000
0000
0000
,
0110
0011
1001
1100
,
0010
0001
0010
0001
0000
0000
0010
0100
0010
0100
0000
0000
1001
0000
0000
0000
,
0002
0103
2000
3100
,
1000
0100
1000
0100
0000
0000
0010
0100
0010
0100
0000
0000
1001
0000
0000
0000
,
2000
3100
0002
0103
,
0001
1000
0001
1000
0000
0000
0001
1000
0001
1000
0000
0000
0110
0000
0000
0000
,
0001
0010
0100
0000
1000
0100
0010
0000
,
0100
0010
0100
0010
0000
0000
0100
0010
0100
0010
0000
0000
1001
0000
0000
0000
,
0002
0023
0230
2300
,
3002
0010
0010
0013
,
0200
0000
2300
0000
3001
1000
0001
0000
,
2000
0100
0100
3100
,
0020
0032
2003
3100
,
2002
0000
0000
3003
;

//--------------- dance-single - B. M'Rey ----------------
#NOTES:
     dance-single:
     B. M'Rey:
     Challenge:
     9:
     0.62324,0.702506,0.128584,0.202061,0.642921,475,461,14,22,0,0,0.62324,0.702506,0.128584,0.202061,0.642921,475,461,14,22,0,0:
0000
0000
0000
0000
,
0000
0000
0000
0000
,
0000
0000
0000
0000
,
0000
0000
0000
0000
,
2000
0000
0000
0000
3020
0000
0000
0230
0000
0000
0302
0000
0000
0000
0000
0013
,
1000
0100
1000
0001
0010
0001
0100
0010
1000
0100
0010
0001
0010
0100
0010
0001
,
2000
0000
0000
3020
0000
0000
0230
0000
0000
0302
0000
0000
0000
0000
0000
0000
,
1003
0010
0100
0001
0010
1001
0110
0011
,
1000
0100
1000
0100
0000
0000
0001
0010
0001
0010
0000
0100
1000
0000
0010
0000
,
0100
0000
0001
0000
0010
0000
0001
0010
0100
0000
1000
0000
0010
0000
0000
0000
,
1000
0100
1000
0100
0000
0000
0010
0001
0010
0001
0000
0000
0010
0000
1000
0000
,
0100
1000
0001
0010
0001
0100
0010
1000
,
0100
0010
0100
0010
0000
0000
0001
0010
0001
0010
0000
0000
0100
0000
1000
0000
,
0010
0000
0100
0000
0001
0000
0010
0100
0001
0000
0100
0000
1000
0000
0010
0000
,
1000
0100
0010
0001
0000
0000
1000
0100
0010
0001
0000
0000
0010
0000
1000
0000
,
0100
1000
0001
0010
0001
0100
0010
1000
,
0100
0001
0100
1000
0010
0100
0010
0001
0100
1000
0010
0100
0010
0001
0010
1000
,
0100
1000
0010
0100
0010
0001
0100
1000
0100
0000
0000
0000
0110
0000
0001
0000
,
0010
0100
1000
0001
0100
0010
1000
0100
0010
0001
0100
0010
1000
0100
1000
0000
,
0010
0001
0100
0010
0001
0000
0000
0010
1000
0100
1000
0010
0000
0000
0100
0000
,
0001
0000
0010
0000
1000
0100
1000
0010
0001
0100
0010
1000
0000
0010
0100
0010
,
0001
1000
0000
0010
0100
0001
0010
1000
0100
0000
0100
0010
0000
0001
0010
0001
,
0010
0000
0100
0000
1000
0100
1000
0001
0010
0000
0010
1000
0000
0001
0010
0000
,
0010
0001
1000
0100
0010
1000
0100
0001
0010
0100
0010
0100
1000
0100
0010
0001
,
0100
0010
1000
0001
0010
0001
0100
0010
,
2000
0000
0010
0000
3002
0000
0103
0010
,
1000
0000
0100
0000
0001
0000
0010
0000
0001
0000
0100
0000
0010
0000
1000
0001
,
0100
0000
1000
0000
0010
0000
0100
0010
0001
0000
0010
0000
0001
0000
1000
0000
,
0100
0010
0001
0000
0010
0000
1000
0000
0100
0000
1000
0000
0001
0000
0010
0000
,
0100
0000
0000
0000
0110
0000
0000
0010
0001
0000
1000
0000
0010
0000
0100
0000
,
0002
0000
0403
0000
0000
0000
0301
0010
,
0110
0101
1010
0110
0101
1010
0110
0101
,
1000
0100
1000
0100
0000
0000
0001
0010
0001
0010
0000
0100
1000
0000
0010
0000
,
0100
0000
0001
0000
0010
0000
0001
0010
0100
0000
1000
0000
0010
0000
0000
0000
,
1000
0100
1000
0100
0000
0000
0010
0001
0010
0001
0000
0000
0010
0000
1000
0000
,
0100
1000
0001
0010
0001
0100
0010
1000
,
0100
0010
0100
0010
0000
0000
0001
0010
0001
0010
0000
0000
0100
0000
1000
0000
,
0010
0000
0100
0000
0001
0000
0010
0100
0001
0000
0100
0000
1000
0000
0010
0000
,
1000
0100
0010
0001
0000
0000
1000
0100
0010
0001
0000
0000
0010
0000
1000
0000
,
0100
0000
1000
0010
0001
0100
0010
0000
0001
0000
0100
0000
0010
0000
1000
0000
,
1000
0100
1000
0100
0000
0000
0001
0010
0001
0010
0000
0100
1000
0000
0010
0000
,
0100
0000
0001
0000
0010
0000
0001
0010
0100
0000
1000
0000
0010
0000
0000
0000
,
1000
0100
1000
0100
0000
0000
0010
0001
0010
0001
0000
0000
0010
0000
1000
0000
,
0100
1000
0001
0010
0001
0100
0010
1000
,
0100
0010
0100
0010
0000
0000
0001
0010
0001
0010
0000
0000
0100
0000
1000
0000
,
0010
0000
0100
0000
0001
0000
0010
0100
0001
0000
0100
0000
1000
0000
0010
0000
,
1000
0100
0010
0001
0000
0000
1000
0100
0010
0001
0000
0000
0010
0000
1000
0000
,
0100
0000
1000
0010
0001
1000
0010
0000
0001
0000
0100
0000
0010
0000
1000
0000
,
0020
0000
0000
0000
2030
0000
0000
3020
0000
0000
0230
0000
0000
0000
0301
0010
,
1000
0100
1000
0010
0001
0010
0100
0010
1000
0100
0001
0010
0200
0000
0000
0000
,
0320
0000
0000
0000
0032
0000
0000
0203
0000
0000
0320
0000
0000
0000
0000
1030
,
0100
1000
0010
0001
0100
0010
1000
0100
0010
0000
0001
0000
0100
0000
0010
0000
,
2002
0000
0000
3003
;
