#VERSION:0.83;
#TITLE:Die In A Fire;
#ARTIST:The Living Tombstone ft Elliemonty and Orko;
#GENRE:Horror EDM;
#CREDIT:B. M'Rey;
#MUSIC:Die In a Fire.ogg;
#BANNER:Die In A Fire-bn.png;
#BACKGROUND:Die In A Fire-bg.png;
#CDTITLE:./CDTITLES/FNaF.PNG;
#SAMPLESTART:54.831;
#SAMPLELENGTH:15;
#OFFSET:-0.049;
#BPMS:0=110;

//--------------- dance-single - B. M'Rey ----------------
#NOTEDATA:;
#STEPSTYPE:dance-single;
#DESCRIPTION:B. M'Rey;
#CREDIT:B. M'Rey;
#DIFFICULTY:Beginner;
#METER:3;
#RADARVALUES:0.103128,0.131824,0.020924,0.031387,0,69,67,2,3,0,0,0.103128,0.131824,0.020924,0.031387,0,69,67,2,3,0,0;
#NOTES:
0000
0000
0000
0000
,
0000
0000
0000
0000
,
1000
0000
0000
0000
,
0001
0000
0000
0000
,
0010
0000
0000
0000
,
0100
0000
0000
0000
,
0010
0000
0000
0000
,
0001
0000
0000
0000
,
1000
0000
0000
0000
,
0100
0000
0000
0000
,
0010
0000
1000
0000
,
0001
0000
0010
0000
,
1000
0000
0100
0000
,
0010
0000
0001
0000
,
0100
0000
0001
0000
,
1000
0000
0010
0000
,
0200
0000
0000
0000
,
0300
0000
0000
0000
,
1000
0000
0001
0000
,
0010
0000
0001
0000
,
0100
0000
0010
0000
,
1000
0000
0100
0000
,
1000
0000
0001
0000
,
0010
0000
0001
0000
,
0200
0000
0000
0000
,
2300
0000
0000
0000
,
3010
0000
0010
0000
,
0100
0000
0001
0000
,
0100
0000
0001
0000
,
0100
0000
1000
0000
,
0001
0000
0010
0000
,
0001
0000
0100
0000
,
0010
0000
1000
0000
,
0100
0000
1000
0000
,
0001
0000
0010
0000
,
0001
0000
0100
0000
,
0010
0000
1000
0000
,
0100
0000
1000
0000
,
0010
0000
0100
0000
,
0001
0000
0100
0000
,
0001
0000
0100
0000
,
0110
0000
0000
0000
,
1001
0000
0000
0000
;

//--------------- dance-single - B. M'Rey ----------------
#NOTEDATA:;
#STEPSTYPE:dance-single;
#DESCRIPTION:B. M'Rey;
#CREDIT:B. M'Rey;
#DIFFICULTY:Easy;
#METER:4;
#RADARVALUES:0.15245,0.197736,0.010462,0.052311,0,102,101,1,5,0,0,0.15245,0.197736,0.010462,0.052311,0,102,101,1,5,0,0;
#NOTES:
0000
0000
0000
0000
,
0000
0000
0000
0000
,
1000
0000
0000
0000
,
0001
0000
0000
0000
,
0010
0000
0001
0000
,
0100
0000
1000
0000
,
0010
0000
0000
0000
,
0001
0000
0000
0000
,
1000
0000
0001
0000
,
0100
0000
1000
0000
,
0010
0000
1000
0000
,
0001
0000
0010
0000
,
1000
0010
0100
0001
,
0010
0100
0001
1000
,
0100
0000
0001
0000
,
1000
0000
0010
0000
,
0200
0000
0000
0000
,
0300
0000
0000
0000
,
1000
1000
0001
0001
,
0010
0010
0001
0001
,
0100
0100
0010
0010
,
1000
1000
0100
0100
,
1000
1000
0001
0001
,
0010
0010
0001
0001
,
0200
0000
0000
0000
,
2300
0000
0000
0000
,
3010
0100
0010
0000
,
0100
1000
0001
0000
,
0100
0010
0001
0000
,
0100
0001
1000
0000
,
0001
0100
0010
0000
,
0001
1000
0100
0000
,
0010
0001
1000
0000
,
0100
0010
1000
0000
,
0001
1000
0010
0000
,
0001
0010
0100
0000
,
0010
0001
1000
0000
,
0100
0010
1000
0000
,
0010
1000
0100
0000
,
0001
0010
0100
0000
,
0001
0100
0100
0000
,
2002
0000
0000
0000
,
3003
0000
0000
0000
;

//--------------- dance-single - B. M'Rey ----------------
#NOTEDATA:;
#STEPSTYPE:dance-single;
#DESCRIPTION:B. M'Rey;
#CREDIT:B. M'Rey;
#DIFFICULTY:Medium;
#METER:6;
#RADARVALUES:0.240631,0.395472,0.261556,0.052311,0,161,136,25,5,0,0,0.240631,0.395472,0.261556,0.052311,0,161,136,25,5,0,0;
#NOTES:
0000
0000
0000
0000
,
0000
0000
0000
0000
,
1000
0100
0010
0001
,
0001
0010
0100
1000
,
0010
0000
0001
0000
,
0100
0000
1000
0000
,
0010
0100
1000
0010
,
0001
0100
0010
0001
,
1000
0000
0001
0000
,
0100
0000
1000
0000
,
0010
0100
1000
0010
,
0001
1000
0010
0001
,
1000
0010
0100
0001
,
0010
0100
0001
1000
,
0100
0010
0001
0100
,
1000
0001
0010
0100
,
0200
0000
0000
0000
,
0300
0000
0000
0000
,
1100
1100
0011
0011
,
0110
0110
1001
1001
,
0101
0101
1010
1010
,
1100
1100
0110
0110
,
1010
1010
0101
0101
,
0011
0011
0101
0101
,
0200
0000
0000
0000
,
2300
0000
0000
0000
,
3010
0100
0010
0001
,
0100
1000
0001
0100
,
0100
0010
0001
1000
,
0100
0001
1000
0010
,
0001
0100
0010
0001
,
0001
1000
0100
0010
,
0010
0001
1000
0100
,
0100
0010
1000
0001
,
0001
1000
0010
1000
,
0001
0010
0100
1000
,
0010
0001
1000
0010
,
0100
0010
1000
0001
,
0010
1000
0100
0010
,
0001
0010
0100
1000
,
0001
0100
0100
0010
,
2002
0000
0000
0000
,
3003
0000
0000
0000
;

//--------------- dance-single - B. M'Rey ----------------
#NOTEDATA:;
#STEPSTYPE:dance-single;
#DESCRIPTION:B. M'Rey;
#CREDIT:B. M'Rey;
#DIFFICULTY:Hard;
#METER:11;
#RADARVALUES:0.454359,0.527296,0.083698,0.031387,0.2354,304,296,8,3,0,0,0.454359,0.527296,0.083698,0.031387,0.2354,304,296,8,3,0,0;
#NOTES:
0000
0000
0000
0000
,
0000
0000
0000
0000
,
1000
0001
0100
0000
0010
0000
0001
0000
,
0001
1000
0010
0000
0100
0000
1000
0000
,
0010
0100
1000
0100
0010
0001
0010
0100
,
1000
0100
0010
0001
0010
0100
1000
0100
,
0010
0000
0100
0000
1000
0100
0010
0000
,
0001
0000
0100
0000
0010
0100
0001
0000
,
1000
0100
0010
0001
0010
0100
1000
0100
,
0010
0001
0010
0100
1000
0100
0010
0001
,
0010
1000
0100
0001
1000
0100
0010
0100
,
0001
0100
1000
0100
0010
1000
0001
0010
,
1000
0010
0100
0001
,
0010
0100
0001
1000
,
0100
1000
0010
0100
0001
0010
0100
0001
,
1000
0000
0010
0000
0001
0000
0100
0000
0010
0000
0000
0100
0000
0000
0001
0000
,
1100
0000
0011
0000
1100
0000
0011
0000
1100
0000
0011
0000
0100
0010
0100
0010
,
0100
0000
0000
0000
,
1000
0100
0000
0000
1000
0100
0000
0000
0010
0001
0000
0000
0010
0001
0000
0000
,
0100
0010
0000
0000
0010
0100
0000
0000
1000
0001
0000
0000
0001
1000
0000
0000
,
0100
0001
0000
0000
0001
0100
0000
0000
1000
0010
0000
0000
0010
1000
0000
0000
,
1000
0100
0000
0000
0100
1000
0000
0000
0100
0010
0000
0000
0010
0100
0000
0000
,
1000
0010
0000
0000
0010
1000
0000
0000
0100
0001
0000
0000
0001
0100
0000
0000
,
0010
0001
0000
0000
0001
0010
0000
0000
0001
0100
0000
0000
0100
0001
0000
0000
,
0200
0000
0000
0000
,
2300
0000
0000
0000
,
3010
0000
0001
0000
0100
0000
1000
0000
0010
0100
0010
0100
0010
0000
0001
0000
,
0100
0000
0010
0000
1000
0000
0100
0000
0001
0010
0001
0010
0001
0000
0010
0000
,
0100
0000
1000
0000
0010
0000
0100
0000
0001
1000
0001
1000
0001
0000
0010
0000
,
0100
0000
1000
0000
0001
0000
0010
0000
1000
0100
1000
0100
1000
0000
0010
0000
,
0001
0000
0001
0000
0100
0000
1000
0000
0010
0100
0010
0100
0010
0000
1000
0000
,
0001
0000
0010
0000
1000
0000
0001
0000
0100
0010
0100
0010
0100
0000
0001
0000
,
0010
0100
0001
0010
0000
1000
0100
0001
,
0000
0100
0010
0001
1000
1001
1001
0000
,
0001
0000
0010
0000
1000
0000
0100
0000
0010
0100
0010
0100
0010
0000
1000
0000
,
0001
0000
0100
0000
0010
0000
0001
0000
0100
1000
0100
1000
0100
0000
0001
0000
,
0010
0000
0100
0000
0001
0000
0010
0000
1000
0010
1000
0010
1000
0000
0001
0000
,
0100
0001
0010
0100
1000
0001
1000
0100
,
0010
0001
1000
0010
0100
0001
0010
1000
,
0001
0100
0010
0001
0100
0010
1000
0100
,
0001
0010
0100
1000
0100
0001
0010
0100
,
0002
0010
0010
0010
0010
0010
0010
0010
,
0013
0000
0000
0000
;
