#VERSION:0.83;
#TITLE:Desert Rain;
#ARTIST:Edward Maya ft Vika Jijulina;
#GENRE:Dance Pop;
#CREDIT:B. M'Rey;
#MUSIC:Desert Rain.ogg;
#BANNER:Desert Rain-bn.png;
#BACKGROUND:Desert Rain-bg.png;
#CDTITLE:./CDTITLES/Dance Mania 2011.PNG;
#SAMPLESTART:67.802;
#SAMPLELENGTH:12;
#OFFSET:-0.288;
#BPMS:0=128.012;

//--------------- dance-single - B. M'Rey ----------------
#NOTEDATA:;
#STEPSTYPE:dance-single;
#DESCRIPTION:B. M'Rey;
#CREDIT:B. M'Rey;
#DIFFICULTY:Beginner;
#METER:2;
#RADARVALUES:0.071,0.052,0,0,0;
#NOTES:
0000
0000
0000
0000
,
0000
0000
0000
0000
,
0000
0000
0000
0000
,
0000
0000
0000
0000
,
1000
0000
0000
0000
,
0010
0000
0000
0000
,
0100
0000
0000
0000
,
0001
0000
0000
0000
,
0010
0000
0000
0000
,
0001
0000
0000
0000
,
0100
0000
0000
0000
,
0010
0000
0000
0000
,
1000
0000
0000
0000
,
0100
0000
0000
0000
,
1000
0000
0000
0000
,
0010
0000
0000
0000
,
0100
0000
0000
0000
,
0001
0000
0000
0000
,
0010
0000
0000
0000
,
0001
0000
0000
0000
,
0100
0000
0000
0000
,
0010
0000
0000
0000
,
1000
0000
0000
0000
,
0100
0000
0000
0000
,
0010
0000
0000
0000
,
0001
0000
0000
0000
,
0010
0000
0000
0000
,
1000
0000
0000
0000
,
0100
0000
0000
0000
,
1000
0000
0000
0000
,
0010
0000
0000
0000
,
0100
0000
0000
0000
,
0001
0000
0000
0000
,
0010
0000
0000
0000
,
0100
0000
0000
0000
,
0010
0000
0000
0000
,
0001
0000
0000
0000
,
0010
0000
0000
0000
,
1000
0000
0000
0000
,
0100
0000
0000
0000
,
1000
0000
0000
0000
,
0010
0000
0000
0000
,
0100
0000
0000
0000
,
0010
0000
0000
0000
,
0001
0000
0000
0000
,
1000
0000
0000
0000
,
0010
0000
0000
0000
,
0100
0000
0000
0000
,
0010
0000
0000
0000
,
0001
0000
0000
0000
,
0010
0000
0000
0000
,
1000
0000
0000
0000
,
0100
0000
0000
0000
,
1000
0000
0000
0000
,
0010
0000
0000
0000
,
0100
0000
0000
0000
,
0001
0000
0000
0000
,
0010
0000
0000
0000
,
0001
0000
0000
0000
,
0100
0000
0000
0000
,
0010
0000
0000
0000
,
1000
0000
0000
0000
,
0010
0000
0000
0000
,
0100
0000
0000
0000
,
0001
0000
0000
0000
,
0010
0000
0000
0000
,
0001
0000
0000
0000
,
0100
0000
0000
0000
,
0010
0000
0000
0000
,
1000
0000
0000
0000
,
0100
0000
0000
0000
,
1000
0000
0000
0000
,
0010
0000
0000
0000
,
0100
0000
0000
0000
,
0001
0000
0000
0000
,
0010
0000
0000
0000
;

//--------------- dance-single - B. M'Rey ----------------
#NOTEDATA:;
#STEPSTYPE:dance-single;
#DESCRIPTION:B. M'Rey;
#CREDIT:B. M'Rey;
#DIFFICULTY:Easy;
#METER:4;
#RADARVALUES:0.139,0.211,0.048,0.118,0;
#NOTES:
0000
0000
0000
0000
,
0000
0000
0000
0000
,
0000
0000
0000
0000
,
0000
0000
0000
0000
,
0001
0000
0100
0000
,
0002
0003
0001
0000
,
0010
0000
1000
0000
,
0001
0000
1000
0000
,
0001
0000
1000
0000
,
0200
0300
2002
3003
,
0001
0000
0001
0000
,
1000
0000
0010
0000
,
0100
0000
0002
0003
,
1000
0000
0020
0030
,
0100
0000
0200
0300
,
0001
0000
0100
0000
,
0010
0000
1000
0000
,
0010
0000
0001
0000
,
1000
0000
0010
0000
,
1000
0000
1000
0000
,
1001
0000
1000
0000
,
1000
0000
0100
0000
,
0010
0000
1000
0000
,
1000
0000
0010
0000
,
0001
0000
0100
0000
,
0010
0000
1000
0000
,
0100
0000
0001
0000
,
0100
0000
1000
0000
,
0110
0000
1000
0000
,
0010
0000
0010
0000
,
0001
0000
1000
0000
,
0010
0000
0001
0000
,
0001
0000
1000
0000
,
0010
0000
0100
0000
,
0010
0000
0010
0000
,
0001
0000
0010
0000
,
0001
0000
0100
0000
,
1000
0000
0010
0000
,
0001
0000
0010
0000
,
0100
0000
0100
0000
,
0010
0000
1000
0000
,
0010
0000
0010
0000
,
1000
0000
0010
0000
,
1000
0000
0010
0000
,
1010
0000
1000
0000
,
0010
0000
0100
0000
,
0100
0000
0001
0000
,
1000
0000
0010
0000
,
1001
0000
0001
0000
,
0100
0000
0100
0000
,
0020
0030
0100
0000
,
0002
0000
0000
0000
,
2003
0000
0000
0000
,
0000
0000
0000
0000
,
0000
0000
0000
0000
,
3100
0000
0000
0000
,
2000
0000
0000
0000
,
0000
0000
0000
0000
,
0000
0000
0000
0000
,
3002
0000
0000
0000
,
0200
0000
0000
0000
,
0000
0000
0000
0000
,
0000
0000
0000
0000
,
0000
0000
0000
0303
2000
0000
0000
0000
,
0020
0000
0000
0000
,
0000
0000
0000
0000
,
0000
0000
0000
0000
,
3030
0000
0000
0000
,
1100
0000
0100
0000
,
1000
0000
0001
0000
,
0001
0000
0010
0000
,
0100
0000
1000
0000
,
0110
0000
0010
0000
,
0001
0000
0001
0000
,
2000
3000
0001
0000
,
0020
0000
0000
0000
,
0030
0000
0000
0000
;

//--------------- dance-single - B. M'Rey ----------------
#NOTEDATA:;
#STEPSTYPE:dance-single;
#DESCRIPTION:B. M'Rey;
#CREDIT:B. M'Rey;
#DIFFICULTY:Medium;
#METER:7;
#RADARVALUES:0.269,0.343,0.042,0.249,0;
#NOTES:
0000
0000
0000
0000
,
0000
0000
0000
0000
,
0000
0000
0000
0000
,
0000
0000
0000
0000
,
0001
0100
0100
0020
,
0032
1003
0001
0100
,
0010
1000
1000
0010
,
0100
0001
0001
1000
,
0100
0001
0001
1000
,
0002
0203
0310
2002
,
3103
0001
0001
0001
,
1000
1000
0010
0010
,
0001
0100
0100
0002
,
1003
1000
0010
0020
,
0031
0100
0100
0200
,
0310
0010
0001
0100
,
0100
0100
0010
0020
,
1030
1000
0010
0020
,
0031
0001
1000
0200
,
0310
0010
1000
0010
,
1001
0010
0001
0100
,
1000
0010
1000
1000
,
0010
0100
0010
0010
,
1000
0100
1000
0100
,
0100
0010
0001
0001
,
0100
0001
0010
0010
,
1000
0010
0100
0100
,
0001
1000
0100
0100
,
1000
0010
1000
0000
0010
0000
0010
0000
,
0001
1000
0100
0000
1000
0000
0010
0000
,
0010
0000
0001
1000
0010
0100
1000
0000
,
1000
0000
0010
0000
0010
1000
0001
0100
,
0001
1000
0010
0001
,
0001
0010
1000
0100
,
0200
0000
0000
0000
,
1000
0001
1000
0010
,
0301
0001
0100
0200
,
0310
1000
1000
0020
,
0031
0001
0010
0020
,
0031
0100
0100
0100
,
0010
0010
0100
2000
,
3001
0010
0001
0020
,
1030
1000
0010
0020
,
0031
1000
0010
0010
,
1001
1000
1000
1000
,
1000
0010
0010
0010
,
0100
0001
1000
0100
,
0002
0000
0000
0000
,
1103
0100
0001
0001
,
0001
0001
0100
1000
,
0010
0100
0001
0020
,
0032
0000
0000
0000
,
2003
0000
0000
0000
,
0000
0000
0000
0000
,
0000
0000
0000
0000
,
0002
0000
0000
0000
0000
3003
0200
0000
,
0002
0000
0000
0300
0000
0000
0000
0000
,
0000
0000
0000
0000
,
0000
0000
0000
0000
,
2000
0000
0000
0000
,
3023
0000
0000
0000
,
0230
0000
0000
0000
,
0302
0000
0000
0000
,
0000
0000
0000
0000
0000
0000
0000
0003
,
2000
0000
0000
0000
,
3020
0000
0000
0000
0000
0000
0000
0030
,
0200
0000
0000
0000
,
1000
0001
1000
0310
,
0110
0100
0100
0100
,
0100
1000
1000
1000
,
0001
0010
0100
0001
,
0020
0000
0000
0000
,
0131
0001
0010
0010
,
0010
0010
0001
0100
,
1000
0001
0010
2000
,
3020
0000
0000
0000
,
0030
0000
0000
0000
;

//--------------- dance-single - B. M'Rey ----------------
#NOTEDATA:;
#STEPSTYPE:dance-single;
#DESCRIPTION:B. M'Rey;
#CREDIT:B. M'Rey;
#DIFFICULTY:Hard;
#METER:11;
#RADARVALUES:0.463,0.48,0.152,0.312,0.01;
#NOTES:
0000
0000
0000
0000
,
0000
0000
0000
0000
,
0000
0000
0000
0000
,
0000
0000
0000
0000
,
0001
1000
0100
1000
0100
1000
0020
0000
,
0032
1003
0001
0200
,
0310
0001
1000
0100
1000
0100
0010
0000
,
0000
0000
0001
0000
0010
0000
0001
0000
1000
0000
1000
0000
0100
0001
0010
0000
,
0100
0010
0001
0010
0001
0010
2000
0000
,
3002
0203
0310
2002
,
3103
0010
0001
0010
0001
0010
0001
0000
,
1000
0100
1000
0100
0010
0001
0010
0000
,
0001
1000
0100
1000
0100
0010
0002
0000
,
1003
0100
1000
0100
0010
0100
0020
0000
,
0031
1000
0100
1000
0100
1000
0200
0000
,
0300
0000
0010
0000
0010
0000
0001
0000
1000
0000
0100
0000
1000
0001
0010
0000
,
0100
0010
0100
0001
0010
0001
0020
0000
,
1030
0100
1000
0100
0010
0100
0020
0000
,
0031
0010
0001
0100
1000
0100
0200
0000
,
0310
0001
0010
0001
1000
0100
0010
0000
,
1001
0000
0110
0000
0001
0010
0001
0000
,
1001
0000
0110
0000
1000
0100
1000
0000
,
0110
0000
0101
0000
0010
0001
0010
0000
,
1010
0000
0101
0000
1000
0100
1000
0000
,
0110
0000
0110
0000
0001
1000
0001
0000
,
0101
0000
0101
0000
0010
0001
0010
0000
,
1010
0000
1010
0000
0100
0010
0100
0000
,
0001
0000
1000
0000
0100
0010
0100
0001
,
1000
0100
1000
0100
0010
0001
0010
0001
,
0000
1000
0100
1000
0100
0010
0100
0010
,
0000
0010
0001
0001
0010
0001
1000
0100
,
1000
0100
0010
0100
0010
0100
0001
0010
,
0001
0000
1001
0000
0110
0000
0001
0010
,
0001
0000
0110
0000
1010
0000
0100
0010
,
0100
0010
0001
0010
,
2000
3002
0203
0310
,
0001
0010
0001
1000
0100
0010
0200
0000
,
0310
0001
1000
0100
1000
0100
0020
0000
,
0031
0010
0001
0100
0010
0100
0020
0000
,
0031
0000
1000
0000
0100
0000
1000
0000
0100
0000
1000
0000
0100
0001
1000
0000
,
0010
0001
0010
0001
0100
0010
2000
0000
,
3001
0100
0010
0100
0001
0100
0020
0000
,
1030
0100
1000
0100
0010
0001
0020
0000
,
0031
0100
1000
0100
0010
0001
0010
0000
,
0002
0000
0003
1000
0100
1000
0100
1000
,
0100
0000
0010
0001
0010
0001
0010
0001
,
0100
0010
0001
0100
1000
1000
0100
0010
,
0001
0000
0010
0001
1000
0100
1000
0000
,
0100
1000
1000
0100
0010
0001
0010
0001
,
0010
0001
0010
0001
1000
0100
2000
0000
,
3010
0001
0100
0010
0001
0100
0020
0000
,
0031
1000
0100
1000
0100
0010
0001
0000
,
0101
0000
1000
0000
,
0010
0000
0100
0000
,
0001
0000
1000
0000
,
2002
0000
0000
0000
0000
3103
0020
0000
,
0032
0000
0000
0003
1000
0000
0000
0000
,
0010
0000
0100
0000
,
0020
0000
0000
0000
,
0032
0000
0000
0000
,
0023
0000
0000
0000
,
0230
0000
0000
0000
0000
0000
0000
0301
,
2000
0000
0000
0000
,
3000
0000
0000
0100
0010
0001
0000
2000
,
0000
0000
0000
0000
,
3020
0000
0000
0000
0000
0000
0000
0130
,
0002
0000
0000
0000
0000
0000
0000
1003
,
0010
0100
0002
0000
2003
0000
3010
0000
,
0002
0000
0003
1000
0100
1000
0100
1000
,
0100
0000
0010
0001
0010
0001
0010
0001
,
0100
0010
0001
0100
1000
1000
0100
0010
,
0001
0000
0010
0001
1000
0100
1000
0000
,
0100
1000
1000
0100
0010
0001
0010
0001
,
0010
0001
0010
0001
1000
0100
2000
0000
,
3010
0001
0100
0010
0001
0100
0020
0000
,
0031
1000
0100
1000
0100
0010
0001
0001
,
2002
0000
0000
0000
0000
0000
0000
3003
;

//--------------- dance-single - B. M'Rey ----------------
#NOTEDATA:;
#STEPSTYPE:dance-single;
#DESCRIPTION:B. M'Rey;
#CREDIT:B. M'Rey;
#DIFFICULTY:Challenge;
#METER:12;
#RADARVALUES:0.53,0.638,0.132,0.173,0.246;
#NOTES:
0000
0000
0000
0000
,
0000
0000
0000
0000
,
0000
0000
0000
0000
,
0000
0000
0000
0000
,
1000
0100
0001
0000
0010
0000
0100
0000
1000
0000
0010
0000
0100
1000
0100
0000
,
0010
0000
0000
0100
0000
0000
0010
0000
0000
0000
0000
0000
0100
0000
0000
0001
0000
0000
0010
0000
0000
0000
0000
0000
0010
0000
0000
1000
0000
0000
0100
0000
0000
0000
0000
0000
0001
0000
0010
0000
0001
0000
0000
0000
0000
0000
0000
0000
,
0010
1000
0001
0010
0100
1000
0001
0000
,
0010
0000
1000
0000
0100
0000
1000
0000
0010
0000
0001
0000
0100
0001
0010
0000
,
1000
0000
0010
0000
0100
0000
0001
0000
0010
0000
1000
0000
0100
0010
0100
0000
,
0001
0000
0000
0010
0000
0000
0001
0000
0000
0000
0000
0000
0010
0000
0000
0100
0000
0000
0010
0000
0000
0000
0000
0000
1000
0000
0000
0100
0000
0000
1000
0000
0000
0000
0000
0000
0001
0000
0010
0000
0001
0000
0000
0000
0000
0000
0000
0000
,
0010
1000
0100
1000
0010
0100
0001
0010
,
1000
0100
1000
0000
0010
0100
0010
0000
0001
0010
0001
0000
0100
1000
0100
0000
,
0010
0000
0000
0001
0000
0000
1000
0000
0000
0000
0000
0000
0100
0000
0000
0000
0000
0000
0001
0000
0000
0000
0000
0000
0100
0000
0000
0000
0000
0000
0010
0000
0000
0000
0000
0000
0010
0000
0001
0000
0010
0000
0001
0000
0000
0000
0000
0000
,
0100
0000
0000
0010
0000
0000
1000
0000
0000
0000
0000
0000
0010
0000
0000
0001
0000
0000
0100
0000
0000
0000
0000
0000
0001
0000
0000
0100
0000
0000
0010
0000
0000
0000
0000
0000
1000
0000
0100
0000
1000
0000
0100
0000
0000
0000
0000
0000
,
0010
0000
0000
0001
0000
0000
0100
0000
0000
0010
0000
0000
1000
0000
0000
0100
0000
0000
1000
0100
1000
0100
0000
0000
,
0010
0000
0100
0000
0010
0000
1000
0000
0010
0000
0001
0000
0100
0010
0001
0000
,
0100
0000
0000
0010
0000
0000
1000
0000
0000
0001
0000
0000
0010
0000
0000
0001
0000
0000
0100
0010
0100
0010
0000
0000
,
0001
0000
0000
0010
0000
0000
0001
0000
0000
0000
0000
0000
0100
0000
0000
1000
0000
0000
0100
0000
0000
0000
0000
0000
0010
0000
0000
0100
0000
0000
0010
0000
0000
0000
0000
0000
0001
0000
0010
0000
0001
0000
0010
0000
0000
0000
0000
0000
,
0010
0000
0000
1000
0000
0000
0100
0000
0000
1000
0000
0000
0001
0000
0000
0010
0000
0000
0001
0010
0001
0010
0000
0000
,
0010
1000
0001
0010
0001
0100
0010
1000
,
0110
0000
0011
0000
1000
0010
0100
0001
,
0000
0000
0100
0000
0010
0001
1000
0100
,
0000
0000
0010
0001
0100
0010
1000
0010
,
0100
0001
0010
0001
0100
1000
0010
0100
,
0000
0000
0001
0000
0000
1000
0100
1000
,
0000
0000
0100
0000
0000
0010
0001
0100
,
0000
0000
0010
1000
0100
0001
0010
0001
,
0100
0010
1000
0100
0010
0001
0010
0100
,
0001
0000
0001
0010
0100
0000
1000
0000
0010
0000
0100
0000
0001
0000
0010
0000
,
1000
0100
1000
0010
0100
0001
0010
0100
,
1000
0000
0010
0000
0100
0000
0001
0000
0010
0000
0001
0000
0100
0000
0010
0001
,
0100
0000
0100
1000
0010
0000
0010
0001
0100
0000
0100
1000
0010
0000
0010
0000
,
0001
0010
0001
0100
1000
0010
0100
0001
,
0010
0001
0100
1000
0100
1000
0010
0100
,
0001
0010
0001
0100
0010
1000
0100
0000
,
0001
0010
0001
0000
1000
0100
1000
0000
0010
0100
0010
0000
0001
0010
0001
0000
,
1000
0000
0000
0010
0000
0000
0100
0000
0000
0000
0000
0000
0001
0000
0000
0000
0000
0000
0010
0000
0000
0000
0000
0000
0001
0000
0000
0000
0000
0000
1000
0000
0000
0000
0000
0000
1000
0000
0010
0000
1000
0000
0010
0000
0000
0000
0000
0000
,
0001
0000
0000
1000
0000
0000
0100
0000
0000
0000
0000
0000
1000
0000
0000
0010
0000
0000
0001
0000
0000
0000
0000
0000
0010
0000
0000
0001
0000
0000
1000
0000
0000
0000
0000
0000
0100
0000
0001
0000
0100
0000
0001
0000
0000
0000
0000
0000
,
1000
0000
0000
0010
0000
0000
0001
0000
0000
1000
0000
0000
0100
0000
0000
0001
0000
0000
0100
0001
0100
0001
0000
0000
,
1000
0000
0001
0000
1000
0000
0100
0000
1000
0000
0010
0000
0001
1000
0010
0000
,
0001
0000
0000
1000
0000
0000
0100
0000
0000
0010
0000
0000
1000
0000
0000
0010
0000
0000
0001
1000
0001
1000
0000
0000
,
0010
0000
0000
1000
0000
0000
0010
0000
0000
0000
0000
0000
0001
0000
0000
0100
0000
0000
0001
0000
0000
0000
0000
0000
1000
0000
0000
0001
0000
0000
1000
0000
0000
0000
0000
0000
0010
0000
1000
0000
0010
0000
1000
0000
0000
0000
0000
0000
,
1000
0000
0000
0100
0000
0000
0001
0000
0000
0100
0000
0000
0010
0000
0000
1000
0000
0000
0010
1000
0010
1000
0000
0000
,
1000
0100
0010
1000
0010
0001
1000
0100
,
1001
0000
1000
0100
1000
0000
0100
0000
,
0010
0000
0001
1000
0100
0010
0001
1000
,
0010
0000
0100
1000
0001
0010
0100
1000
,
0020
0001
1000
0130
,
0110
0000
0001
1000
0010
0000
0110
0000
,
0110
0000
0001
1000
0100
0000
0101
0000
,
0101
0000
0010
1000
0100
0000
1001
0000
,
2002
0000
0000
0000
0000
0000
0000
3003
,
0210
0000
0000
000M
0320
0230
0000
M302
,
0000
2003
0000
302M
0000
0230
0000
M302
,
0000
0000
0000
0M00
0000
0000
0000
M000
,
0403
0000
0000
000M
0320
0032
0023
M000
,
4030
0000
0000
00M0
3100
0002
0000
M023
,
0000
2030
0000
320M
0000
0302
0000
0023
,
0000
0000
0000
M000
0000
0000
0000
0000
,
0430
000M
0000
0000
0000
0304
0043
M000
,
0430
0000
0000
0000
0000
000M
0000
0000
,
0340
0000
0000
M000
0000
0030
1000
0000
,
0020
M000
0000
0000
0000
0M00
0000
0000
,
0000
M000
0000
1030
0100
100M
0000
0100
,
0002
M000
0000
0000
0000
0M00
0000
0000
,
0403
M000
0000
0000
0000
000M
0000
0340
,
0034
M000
0000
0000
0000
00M0
0000
1003
,
0100
0010
0100
0000
0001
0010
0001
0000
0010
0100
0010
0000
1000
0100
1000
0000
,
0110
0000
0100
0001
0100
0000
0001
0000
,
1000
0000
0010
0100
0001
1000
0010
0100
,
1000
0000
0001
0100
0010
1000
0001
0100
,
2000
0010
0100
3001
,
1001
0000
0010
0100
1000
0000
1001
0000
,
1001
0000
0010
0100
0001
0000
0011
0000
,
0011
0000
1000
0100
0001
0000
0110
0000
,
0220
0000
0000
0000
,
0330
0000
0000
M000
000M
000M
0000
0000
;
