#TITLE:Cyberdream;
#ARTIST:Imperio;
#GENRE:Eurodance;
#CREDIT:B. M'Rey;
#MUSIC:Cyberdream.ogg;
#BANNER:Cyberdream-bn.png;
#BACKGROUND:Cyberdream-bg.png;
#CDTITLE:./CDTITLES/BMR Superstars.PNG;
#SAMPLESTART:41.811;
#SAMPLELENGTH:12;
#OFFSET:-0.019;
#BPMS:0=154.016;

//--------------- dance-single - B. M'Rey ----------------
#NOTES:
     dance-single:
     B. M'Rey:
     Beginner:
     1:
     0,0,0,0,0:
0000
0000
0000
0000
,
0000
0000
0000
0000
,
0000
0000
0000
0000
,
0000
0000
0000
0000
,
0000
0000
0000
0000
,
0000
0000
0000
0000
,
0000
0000
0000
0000
,
0000
0000
0000
0000
,
0000
0000
0000
0000
,
0000
0000
0000
0000
,
0000
0000
0000
0200
,
0000
0000
0000
0000
,
0000
0000
0000
0000
,
0000
0000
0000
0000
,
0000
0000
0000
0000
,
0000
0000
0000
0000
,
0000
0000
0000
0000
,
0000
0000
0000
0000
,
0000
0000
0000
0000
,
0301
0000
1000
0000
,
0000
0000
0000
0000
,
0010
0000
0100
0000
,
0000
0000
0000
0000
,
0000
0001
0000
0000
0000
0010
0000
0000
,
0000
0000
0000
0000
,
0000
1001
0000
0000
,
0000
0000
0000
1000
,
0000
0001
0000
0100
,
0000
0000
0000
0000
,
0000
0000
0000
0100
0000
0000
0000
0010
,
0000
0000
0000
0000
,
0000
0000
0001
0000
,
1000
0000
0000
0000
,
0000
0000
0110
0000
,
0000
0000
0000
0000
,
0000
0000
0001
0000
,
1000
0000
0010
0000
,
0100
0000
0001
0000
,
0010
0000
0001
0000
,
1000
0100
0010
0000
,
0001
0000
0000
0001
,
0010
0100
2000
0000
,
0000
0000
0000
0000
,
3001
0000
0100
0000
,
0010
0000
0000
1000
,
0010
0001
0010
0000
,
0100
0000
0000
0001
,
0010
1000
0100
0000
,
1000
0000
0000
0001
,
0000
1000
0020
0000
,
0000
0000
0000
0000
,
1030
0001
0020
0000
,
0000
0000
0000
1030
,
0000
0001
0020
0000
,
0030
0000
0000
1000
,
0100
0001
0020
0000
,
0030
0000
0000
1000
,
0001
0010
0200
0000
,
0000
0300
0000
0000
,
1000
0001
0020
0000
,
0000
0000
0030
0001
,
0000
1000
0020
0000
,
0030
0000
0000
0100
,
1000
0001
0020
0000
,
0030
0000
0000
0001
,
1000
0010
0200
0000
,
0000
0000
0000
0000
,
0301
0000
1000
0000
,
0010
0000
0000
0100
,
1000
0000
0001
0000
,
0010
0000
0000
0001
,
0010
0000
0100
0000
,
1000
0000
0000
0010
,
0000
0100
0002
0000
,
0000
0000
0000
0000
,
0010
0010
0020
0000
,
0000
0000
0000
0000
,
0000
0000
0000
0000
,
0000
0000
0000
0000
,
0000
0000
0033
0000
;

//--------------- dance-single - B. M'Rey ----------------
#NOTES:
     dance-single:
     B. M'Rey:
     Easy:
     2:
     0,0,0,0,0:
0000
0000
0000
0000
,
0000
0000
0000
0000
,
0000
0000
0000
0000
,
0000
0000
0000
0000
,
0000
0000
0000
0000
,
0000
0000
0000
0000
,
0000
0000
0000
0000
,
0000
0000
0000
0000
,
0000
0000
0000
0000
,
0000
0000
0000
0000
,
0000
0000
0000
0000
,
0200
0000
0000
0000
,
0000
0000
0000
0000
,
0000
0000
0000
0000
,
0000
0000
0000
0000
,
0000
0000
0000
0000
,
0000
0000
0000
0000
,
0000
0000
0000
0000
,
0000
0000
0000
0000
,
0310
0000
0001
0000
,
0000
1000
0000
0010
,
0100
0000
0001
0000
,
0000
0000
0000
1000
0000
0000
0000
0001
,
0000
0010
0000
0000
0000
0100
0000
0000
,
0000
0000
1000
0000
,
0001
2000
0000
0000
,
0000
0000
0000
3010
,
0000
0100
0000
0001
,
0000
0000
0000
0000
0000
1000
0000
0100
,
0000
0010
0000
0001
0000
0000
0000
1000
,
0000
0000
0000
0000
0000
0001
0000
0010
,
0000
0100
0000
1000
0000
0000
0000
0000
,
0001
0000
0000
0100
,
0000
0010
0002
0000
,
0000
0000
0000
0000
,
0000
0000
0000
0000
1003
0000
0000
0001
,
1000
0000
0000
0010
,
0010
0000
0100
0000
0010
0000
0000
0010
,
0100
0000
0000
0001
,
0001
0000
0001
0010
1000
0000
0000
1000
,
0100
0000
0000
0010
,
0100
1000
0002
0000
,
0000
0000
0000
0000
,
1003
0000
0001
0000
0010
0000
0000
0100
,
0010
0000
0000
0001
,
1000
0000
0100
0010
0100
0000
0000
0001
,
0010
0000
0000
1000
,
0100
0000
0010
1000
0010
0000
0000
0001
,
0100
0000
0000
0001
,
0010
0100
2000
0000
,
0000
0000
3001
0000
,
0010
0001
0200
0000
,
0000
0000
0300
0001
,
0010
0000
1000
0000
0200
0000
0000
0301
,
0020
0000
0030
1000
,
0100
0000
0010
0000
0002
0000
0000
1003
,
0020
0000
0030
0001
,
0010
0100
0010
0000
,
1000
0000
0100
0000
,
1000
0100
0020
0000
,
0000
0000
0030
0001
,
0010
0001
0200
0000
,
0020
0000
0330
1000
,
0100
0001
0020
0000
,
0200
0000
0330
0001
,
0010
1000
0200
0000
,
0000
0000
0000
0000
,
0301
0000
1000
0000
0010
0000
0000
0100
,
0010
0000
0000
0001
,
0010
0000
1000
0100
1000
0000
0000
0001
,
0010
0000
0000
0100
,
0010
0000
1000
0100
1000
0000
0000
0001
,
0010
0000
0000
0100
,
0010
1000
0002
0000
,
0000
0000
0000
0000
,
1003
0100
0022
0000
,
0000
0000
0000
0000
,
0000
0000
0000
0000
,
0000
0000
0000
0000
,
0000
0000
0033
0000
;

//--------------- dance-single - B. M'Rey ----------------
#NOTES:
     dance-single:
     B. M'Rey:
     Medium:
     4:
     0,0,0,0,0:
0000
0000
0000
0000
,
0000
0000
0000
0000
,
0000
0000
0000
0000
,
0000
0000
0000
0000
,
0000
0000
0000
0000
,
0000
0000
0000
0000
,
0000
0000
0000
0000
,
0000
0000
0000
0000
,
0000
0000
0000
0000
,
0000
0000
0000
0000
,
0000
0000
0000
2000
,
0000
0000
0000
0001
,
0010
0001
0001
0000
,
0000
0000
0000
0100
,
0010
0001
0010
0001
,
0000
0000
0100
0000
,
0000
0000
0000
0000
,
0000
0000
0000
0000
,
0000
0000
0002
0000
,
3103
0000
0000
0001
0020
0000
0000
0000
,
0030
0000
1000
0000
0010
0000
0100
0001
,
0010
0000
0000
1000
0200
0000
0000
0000
,
0000
0000
0300
0001
0000
0010
0000
0100
,
1000
0100
0000
0000
0001
0020
0000
0000
,
0000
0030
0100
1000
,
0010
0002
0000
0000
,
0000
0000
0000
0103
,
0001
0000
0100
0000
0000
1000
0020
0000
,
0000
0000
0000
0030
0001
0000
0010
0000
,
0100
1000
0010
0000
0000
0001
0200
0000
,
0000
0000
0000
0000
0000
1300
0000
0010
,
0000
0100
0001
0100
0000
0000
1000
0020
,
0000
0000
0000
0000
0000
0030
0100
0000
,
0001
0010
2000
0000
,
0000
0000
0000
0000
,
0000
0000
0000
0000
3100
0000
0010
1000
,
0100
0100
0010
0001
,
0100
0000
0001
0100
0010
0000
0001
1000
,
0100
0100
0001
0010
,
0100
0000
0001
1000
0010
0000
0001
0010
,
0001
0000
0100
0000
0001
0000
0100
1000
,
0001
0000
0100
0000
0001
0100
0010
0000
,
0100
0001
0100
0010
,
0001
0100
0010
1000
0010
0000
0100
0010
,
0100
0001
1000
0010
,
0100
0000
0001
0100
0010
0000
0010
0100
,
0001
0001
0010
1000
,
0001
0000
0010
0100
0001
0000
0010
0100
,
0010
0000
0100
0000
0001
0000
0100
1000
,
0010
0000
0001
0100
0001
0000
0100
0000
,
0010
0000
0001
0000
1000
0100
1000
0000
,
0010
0001
0010
0000
0001
0000
0001
0010
,
0001
0000
0100
1000
0100
0000
0001
1000
,
0010
0000
0100
0000
0001
0000
0100
1000
,
0001
0000
0001
0000
0010
0000
0010
0100
,
0010
0000
0100
0000
0001
0000
0010
1000
,
0001
0000
0100
0000
0001
0000
0100
0010
,
0001
0000
0010
0000
0100
0000
0001
0100
,
0010
0000
0001
0010
0001
0000
0010
1000
,
0010
0100
0002
0000
,
0000
0000
0000
0000
0000
0000
1003
0001
,
0010
0100
1000
0000
0002
0000
0000
0000
,
0020
0000
0000
0000
0000
0000
1033
0100
,
0001
0010
1000
0000
0020
0000
0000
0000
,
0002
0000
0000
0000
0000
0000
0133
1000
,
0100
0010
0001
0000
2000
0000
0000
0000
,
0000
0000
0000
0000
,
3001
0000
1000
0000
0020
0000
0000
0031
,
0200
0000
0000
1300
,
0010
0000
0001
0100
0002
0000
0000
0013
,
2000
0000
0000
3100
,
0001
0000
0010
1000
0020
0000
0000
0031
,
0200
0000
0000
0301
,
1000
0100
0020
0000
,
0000
0000
0000
0000
,
0031
0100
2002
0000
,
0000
0000
0000
0000
,
0000
0000
0000
0000
,
0000
0000
0000
0000
,
0000
0000
3003
0000
;

//--------------- dance-single - B. M'Rey ----------------
#NOTES:
     dance-single:
     B. M'Rey:
     Hard:
     7:
     0,0,0,0,0:
0000
0000
0000
0000
,
0000
0000
0000
0000
,
0000
0000
0000
0000
,
0000
0000
0000
0000
,
0000
0000
0000
0000
,
0000
0000
0000
0000
,
0000
0000
0000
0000
,
0000
0000
0000
0000
,
0000
0000
0000
0000
1000
0001
1000
0001
,
1000
0001
1000
0100
0010
0001
0010
1000
,
0200
0000
0000
0302
,
0000
0000
0000
1000
,
0100
1000
1000
0000
,
0000
0000
0000
0000
0000
0000
0000
0100
,
0000
0000
1000
0000
0000
0100
0000
0000
0010
0000
0000
0000
0010
0000
0000
0000
,
1000
1000
0000
0000
0010
0000
0000
0000
0100
0000
0000
1000
1000
0000
0000
0000
,
0100
0000
0000
0000
0000
0000
0003
0001
,
1000
0001
1000
0001
1000
0001
1000
0001
,
0010
0100
2000
0000
0000
0000
0000
0000
,
3001
0000
0000
0010
0200
0000
0000
0000
,
0300
0000
0100
0000
0010
0000
0001
1000
,
0002
0000
0003
0100
0020
0000
0000
0000
,
0000
0000
0000
0031
0000
1000
0000
0010
,
0001
0020
0000
0000
0130
2000
0000
0000
,
0000
0000
3100
0010
,
0001
2002
0000
0000
,
0000
0000
0000
3013
,
1000
0000
0020
0000
0000
0130
0002
0000
,
0000
0000
0000
0000
0000
0013
0000
1000
,
0000
0010
0100
0020
0000
0000
0031
0020
,
0000
0000
0000
0000
0000
1030
0000
0001
,
0000
0010
0100
2000
0000
0000
0000
3100
,
0020
0000
0000
0031
,
0010
0100
0100
1000
,
0010
1000
0001
1000
,
0100
0000
0010
0000
0010
1000
0001
1000
,
0001
0010
0001
0010
0100
0010
0100
1000
,
0010
1000
0010
1000
0001
0100
0001
0100
,
0001
1000
0100
1000
0100
1000
0001
0100
,
0001
1000
0001
1000
0010
1000
0010
0100
,
0010
0100
0001
0010
0100
0010
0001
0010
,
0001
0100
0001
0010
0100
0010
0100
1000
,
0100
1000
0001
1000
0001
0010
0001
1000
,
0010
0000
1000
0010
1000
0000
0010
0000
0001
0000
0010
0000
0001
0000
0010
0000
,
0001
1000
0100
1000
0001
1000
0001
0100
,
0001
0100
0010
0100
0010
1000
0010
1000
,
0001
1000
0100
0010
0100
0010
0001
0010
,
0001
0100
0001
0100
0010
0100
0010
1000
,
0010
0100
0001
1000
0001
1000
0001
0010
,
0100
0010
0001
0010
0001
1000
0001
1000
,
0010
0100
0010
0100
0010
1000
0100
1000
,
0100
0000
1000
0100
1000
0000
0100
0000
0001
0000
0010
0000
0001
0000
0100
0000
,
0001
0100
0010
0100
0010
1000
0010
0100
,
0001
0000
0100
0000
0001
0000
0100
0000
0010
0001
1000
0000
0100
0000
1000
0000
,
0001
0100
1000
0000
0001
0000
0100
0000
0001
0000
0100
0000
0010
0000
0100
0000
,
0010
0000
1000
0000
0010
0000
0100
0000
0001
0010
0100
0000
0001
0000
1000
0000
,
0001
0100
1000
0000
0010
0000
0100
0000
0010
0000
1000
0000
0010
0000
1000
0000
,
0100
1000
0100
0010
0100
0010
0001
0010
,
0001
1000
0100
1000
0100
0010
0100
0010
,
0001
0000
0100
0010
0001
0000
0100
0000
0002
0000
0000
0000
0000
0000
0000
0000
,
0000
0000
0000
0000
0000
0000
1003
0001
,
0100
0010
1000
0000
0002
0000
0000
0000
,
0200
0000
0000
0000
0000
0000
1303
0010
,
0001
0100
1000
0000
0200
0000
0000
0000
,
0002
0000
0000
0000
0000
0000
0313
1000
,
0010
0100
0001
0000
2000
0000
0000
0000
,
0000
0000
0000
0000
,
3001
0000
1000
0001
1000
0000
0000
0000
0200
0000
0000
0000
0000
0000
0301
0000
,
0020
0000
0000
1030
,
0100
0000
0001
0010
0002
0000
0000
0103
,
2000
0000
0000
3010
,
0001
0000
0100
1000
0200
0000
0000
0301
,
0020
0000
0000
0031
,
1000
0010
0200
0000
,
0000
0000
0000
0000
,
0301
0010
2000
00M0
,
000M
00M0
0M00
000M
,
00M0
0M00
000M
00M0
,
0M00
00M0
000M
0M00
,
00M0
0M00
300M
0000
;
