#VERSION:0.83;
#TITLE:Crush;
#ARTIST:Paul Van Dyk ft Second Sun;
#GENRE:Progressive Trance;
#CREDIT:B. M'Rey;
#MUSIC:Crush.OGG;
#BANNER:Crush-bn.png;
#BACKGROUND:Crush-bg.png;
#CDTITLE:./CDTITLES/A State Of Trance.PNG;
#SAMPLESTART:74.3;
#SAMPLELENGTH:15;
#OFFSET:-0.058;
#BPMS:0=135;

//--------------- dance-single - B. M'Rey ----------------
#NOTEDATA:;
#STEPSTYPE:dance-single;
#DESCRIPTION:B. M'Rey;
#CREDIT:B. M'Rey;
#DIFFICULTY:Beginner;
#METER:4;
#RADARVALUES:0,0,0,0,0;
#NOTES:
0000
0000
0000
0000
,
0000
0000
0000
0000
,
0000
0000
0000
0000
0000
0100
0000
0000
,
0000
0000
0000
0000
0000
0001
0000
0000
,
0000
0000
0000
0000
0000
1000
0000
0000
,
0000
0000
0000
0001
0000
0000
0000
0000
,
0000
0000
0000
0000
0000
0100
0000
0000
,
0000
0000
0000
0000
0000
0010
0000
0000
,
0000
0000
0000
0000
0000
0001
0000
0000
,
0000
0000
0000
0000
0000
1000
0000
0000
,
0000
0000
0000
0000
0000
0001
0000
0000
,
0000
0000
0000
0000
0000
0100
0000
0000
,
0000
0000
0000
0000
0000
0010
0000
0000
,
0000
0000
0000
0000
,
0000
0000
0000
0000
0000
0001
0000
0000
,
0000
0000
0000
0000
0000
1000
0000
0000
,
0000
0000
0000
0000
0000
0010
0000
0000
,
0000
0000
0000
0000
0000
0000
0000
0200
,
0000
0000
0000
0000
,
0000
0000
0000
0000
,
0000
0000
0000
0000
,
0000
0000
0000
0000
0000
0000
0000
0302
,
0000
0000
0000
0000
,
0000
0000
0000
0000
,
0000
0000
0000
0000
,
0000
0000
0000
0000
0000
0000
0000
2003
,
0000
0000
0000
0000
,
0000
0000
0000
0000
,
0000
0000
0000
0000
,
0000
0000
0000
0000
0000
0000
0000
3200
,
0000
0000
0000
0000
,
0000
0000
0000
0000
,
0000
0000
0000
0000
,
0000
0000
0000
0301
,
0000
0000
0000
1000
,
0000
0000
0000
0010
,
0000
0000
0000
0100
,
0000
0001
0000
0010
,
0000
0000
0000
1000
,
0000
0000
0000
0001
,
0000
0000
0000
0000
,
0000
0000
1001
0010
,
0000
0100
0000
0001
,
0000
0010
0000
0001
,
0000
1000
0000
0100
,
0000
1000
0000
0010
,
0000
0001
0000
0010
,
0000
0001
0000
1000
,
0000
0010
0000
0100
,
0000
0010
1001
0001
,
0000
0010
0000
0100
,
0000
0001
0000
1000
,
0000
0010
0000
0100
,
0000
0001
0000
0010
,
0000
0001
0000
1000
,
0000
0010
0000
0100
,
0000
0001
0000
1000
,
0000
0010
0100
0001
,
0000
0000
0000
0000
0000
0000
0000
0100
,
0000
0000
0000
0000
0000
0000
0000
1000
,
0000
0000
0000
0000
0000
0000
0000
0001
,
0000
0000
0000
0000
0000
0000
0000
0010
,
0000
0000
0000
0000
0000
0000
0000
0001
,
0000
0000
0000
0000
0000
0000
0000
1000
,
0000
0000
0000
0000
0000
0000
0000
0010
,
0000
0000
0000
0110
,
0000
0000
0000
0000
,
0000
0000
0000
1000
,
0000
0001
0000
0010
,
0000
0100
0000
0001
,
0000
0010
0000
0001
,
0000
1000
0000
0100
,
0000
1000
0000
0010
,
0000
0100
0000
0001
,
0000
0010
0000
0001
,
0000
0001
0010
0100
,
0000
1000
0000
0010
,
0000
0100
0000
0001
,
0000
0010
0000
0001
,
0000
1000
0000
0010
,
0000
0100
0000
0001
,
0000
0010
0000
0001
,
0000
1000
0000
0010
,
0000
0000
0000
0001
,
0000
0001
0000
0100
,
0100
0100
0000
1000
,
0000
1000
0000
0010
,
0010
0010
0000
0100
,
0000
0100
0000
0001
,
0001
0001
0000
0010
,
0000
0010
0000
0100
,
0100
0100
0000
0010
,
0000
0010
0000
0001
,
0001
0001
0000
1000
,
0000
1000
0000
0010
,
0010
0010
0000
0100
,
0000
0100
0000
0001
,
0001
0001
0000
1000
,
0000
1000
0000
0010
,
0010
0010
0000
0100
,
0000
0001
0000
1000
,
1000
1000
0000
0010
,
0000
0100
0000
0001
,
0001
0001
0000
0010
,
0000
0100
0000
0010
,
0010
0010
0000
0001
,
0000
1000
0000
0010
,
0010
0010
0000
0001
,
0000
0000
0000
0000
0000
0000
0000
0100
,
0000
0000
0000
0000
0000
0000
0000
0010
,
0000
0000
0000
0000
0000
0000
0000
1000
,
0000
0000
0000
0000
0000
0000
0000
0001
,
0000
0000
0000
0000
0000
0000
0000
0010
,
0000
0000
0000
0000
0000
0000
0000
0100
,
0000
0000
0000
0000
0000
0000
0000
0001
,
0000
0000
0000
1001
,
0000
0000
0000
0000
,
0000
0000
0000
0000
,
0000
0000
0000
0000
,
0000
0000
0000
0100
,
0000
0000
0000
0000
,
0000
0000
0000
0000
,
0000
0000
0000
0000
,
0000
0000
0000
0010
,
0000
0000
0000
0000
,
0000
0000
0000
0000
,
0000
0000
0000
0000
,
0000
0000
0000
0001
,
0000
0000
0000
0000
,
0000
0000
0000
0000
,
0000
0000
0000
0000
,
0000
0000
0000
1000
,
0000
0010
0000
0100
,
0000
0001
0000
0010
,
0000
0001
0000
0100
,
0000
0010
0000
1000
,
0000
0100
0000
1000
,
0000
0001
0000
0010
,
0000
0100
0000
0010
,
0000
0001
0010
0100
,
0000
1000
0000
0010
,
0000
0100
0000
0001
,
0000
0010
0000
0001
,
0000
1000
0000
0100
,
0000
1000
0000
0010
,
0000
0100
0000
0001
,
0000
0010
0000
1000
,
0000
0001
0010
0100
,
0000
1000
0000
0001
,
0000
0010
0000
0100
,
0000
0001
0000
1000
,
0000
0010
0000
0100
,
0000
0001
0000
1000
,
0000
0010
0000
0100
,
0000
0001
0000
1000
,
0000
0010
0001
0010
,
0000
1000
0000
0100
,
0000
1000
0000
0001
,
0000
0010
0000
0001
,
0000
1000
0000
0010
,
0000
0100
0000
0010
,
0000
0001
0000
1000
,
0000
0010
0000
0100
,
0000
0010
0000
0101
,
0000
1010
0000
0110
,
0000
0101
0000
0110
,
0000
1010
0000
0110
,
0000
0101
0000
0011
,
0000
1100
0000
0110
,
0000
0110
0000
1001
,
0000
1001
0000
0101
,
0000
0101
0000
1010
,
0000
0101
0000
0110
,
0000
1010
0000
0110
,
0000
0101
0000
0110
,
0000
1010
0000
0101
,
0000
0110
0000
0011
,
0000
0110
0000
1010
,
0000
0110
0000
0101
,
0000
1010
0000
0100
,
0000
0000
0000
0001
,
0000
0000
0000
0010
,
0000
0000
0000
1000
,
0000
0000
0000
0100
,
0000
0000
0000
0001
,
0000
0000
0000
0010
,
0000
0000
0000
0000
,
0000
0000
0000
1000
,
0001
0000
0000
0001
,
1000
0000
0000
0010
,
0100
0000
0000
1000
,
0100
0000
0000
0001
,
0010
0000
0000
1000
,
0100
0000
0000
0001
,
0010
0000
0000
0100
,
0000
0000
0000
0001
,
0010
0001
1001
0010
,
0100
0010
0110
1000
,
0100
1000
1100
0010
,
0100
0010
0110
0001
,
0010
0001
0011
0001
,
1000
0001
1001
0001
,
1000
0001
0110
0010
,
0100
0010
0110
1000
,
0100
1000
1100
0010
,
0100
0010
0110
0001
,
0010
0001
0011
0001
,
0100
0001
0101
0010
,
1000
0010
1010
0100
,
0010
0100
0110
0001
,
1000
0001
1001
0001
,
0000
1000
0000
0010
,
0000
0100
0000
0001
,
0000
0010
0000
0001
,
0000
1000
0000
0010
,
0000
0100
0100
0100
,
0000
0001
0000
0010
,
0000
0001
0000
1000
,
0000
0100
0000
1000
,
0000
0010
0010
0010
,
0000
0001
0000
0100
,
0000
1000
0000
0010
,
0000
0100
0000
0001
,
0000
0010
0010
0010
,
0000
1000
0000
0001
,
0000
0010
0000
0001
,
0000
0100
0000
0010
,
0000
1000
0001
1000
,
0000
0010
0000
0100
,
0000
0001
0000
0010
,
0000
0001
0000
0100
,
0000
0010
0000
1000
,
0000
0100
0000
1000
,
0000
0001
0000
0010
,
0000
0001
0000
0100
,
0000
0010
0000
1000
,
0000
0001
0000
0010
,
0000
0001
0000
0100
,
0000
0010
0000
1000
,
0000
0001
0000
0010
,
0000
0001
0000
0100
,
0000
0010
0000
1000
,
0000
0001
0000
0010
,
0000
0001
0000
0200
,
0000
0000
0000
0000
,
0000
0000
0000
0000
,
0000
0000
0000
0000
,
0000
0000
0000
0320
,
0000
0000
0000
0000
,
0000
0000
0000
0000
,
0000
0000
0000
0000
,
0000
0000
0000
0032
,
0000
0000
0000
0000
,
0000
0000
0000
0000
,
0000
0000
0000
0000
,
0000
0000
0000
0000
,
0000
0000
0000
0000
,
0000
0000
0000
0000
,
0000
0000
0000
0000
,
0000
0000
0000
0000
,
0000
0000
0000
0000
,
0000
0000
0000
0000
,
0000
0000
0003
0000
;

//--------------- dance-single - B. M'Rey ----------------
#NOTEDATA:;
#STEPSTYPE:dance-single;
#DESCRIPTION:B. M'Rey;
#CREDIT:B. M'Rey;
#DIFFICULTY:Easy;
#METER:5;
#RADARVALUES:0,0,0,0,0;
#NOTES:
0000
0000
0000
0000
,
0000
0000
0000
0000
,
0000
1000
0000
0000
0000
0000
0000
0100
,
0000
0000
0000
0000
0000
0000
0000
0010
,
0000
0000
0000
0000
0000
0000
0000
1000
,
0000
0001
0000
1000
0000
0100
0000
0000
,
0000
0010
0000
0000
0000
0000
0000
0010
,
0000
0000
0000
0000
0000
0000
0000
0001
,
0000
0000
0000
0000
0000
0000
0000
1000
,
0000
0000
0000
0000
0000
0000
0000
0100
,
0000
0000
0000
0000
0000
0000
0000
0001
,
0000
0000
0000
0000
0000
0000
0000
0100
,
0000
0000
0000
0000
0000
0000
0000
1000
,
0000
0001
0000
1000
0000
0001
0000
0001
,
0000
0000
0000
0000
0000
0000
0000
0100
,
0000
0000
0000
0000
0000
0000
0000
0001
,
0000
0000
0000
0000
0000
0000
0000
0010
,
0000
0000
0000
0000
0000
0000
0000
1000
,
0000
0000
0000
0000
0000
0000
0000
0010
,
0000
0000
0000
0000
0000
0000
0000
0100
,
0000
0000
0000
0000
0000
0000
0000
0001
,
0000
0000
0000
0000
0000
0000
0000
0100
,
0000
0000
0000
0000
0000
0000
0000
1000
,
0000
0000
0000
0000
0000
0000
0000
0001
,
0000
0000
0000
0000
0000
0000
0000
0010
,
0000
0000
0000
0000
0000
0000
0000
0001
,
0000
0000
0000
0000
0000
0000
0000
0010
,
0000
0000
0000
0000
0000
0000
0000
0100
,
0000
0000
0000
0000
0000
0000
0000
1000
,
0000
0000
0000
0000
0000
0000
0000
0100
,
0000
0000
0000
0000
0000
0000
0000
0010
,
0000
0000
0000
0000
0000
0000
0000
0001
,
0000
0000
0000
0000
0000
0000
0000
0010
,
0000
0000
0000
0100
,
0001
0000
0001
0010
,
1000
0000
0000
1000
,
0010
0000
0001
1000
,
0010
0000
0000
0010
,
1000
0000
0000
0010
,
0100
0000
0000
0000
0000
0002
0000
0000
,
0000
0023
0230
0000
,
0000
0000
0310
0001
,
0010
0001
0010
0001
,
1000
0010
1000
0010
,
1000
0100
0010
0001
,
0010
0001
0010
0100
,
1000
0100
1000
0100
,
0010
0001
0010
0001
,
0010
0100
1000
0100
,
1000
0100
0010
0001
,
0010
0001
0010
0100
,
1000
0100
1000
0100
,
0010
0001
0010
0001
,
0010
0100
1000
0100
,
1000
0100
0010
0001
,
0010
0001
0010
0100
,
1000
0100
1000
0100
,
0010
0001
0010
0001
,
0000
0000
0010
0000
0000
0000
0000
0100
,
0000
0000
0100
0000
0000
0000
0000
0001
,
0000
0000
0001
0000
0000
0000
0000
0010
,
0000
0000
0010
0000
0000
0000
0000
0001
,
0000
0000
0001
0000
0000
0000
0000
0100
,
0000
0000
0100
0000
0000
0000
0000
0001
,
0000
0000
0001
0000
0000
0000
0000
1000
,
0000
0001
0000
0110
,
0000
0000
0000
0000
,
0000
0000
0000
0001
,
1000
0001
1000
0001
,
0010
0100
0010
0100
,
0010
0001
1000
0001
,
0010
0001
0010
0100
,
1000
0010
1000
0010
,
1000
0001
0010
0001
,
0010
0001
1000
0010
,
1000
0010
1000
0100
,
0010
0001
0010
0001
,
0010
0100
1000
0100
,
1000
0010
1000
0010
,
0100
0010
0100
0001
,
0100
0001
1000
0001
,
1000
0010
1000
0010
,
0100
0010
0000
1000
,
0000
0100
0010
0001
,
1000
0001
1000
0001
,
0100
0010
0100
0010
,
0100
0001
1000
0010
,
1000
0001
1000
0001
,
0100
0001
0100
0010
,
1000
0010
1000
0010
,
0100
0001
0100
0001
,
0100
0010
1000
0010
,
1000
0010
0100
0001
,
0100
0010
0100
0010
,
1000
0100
1000
0100
,
1000
0001
0010
0001
,
0010
0001
1000
0010
,
1000
0010
0100
0010
,
0100
0001
0100
0001
,
0010
0001
0100
0010
,
1000
0010
1000
0001
,
1000
0100
0010
0100
,
1000
0100
1000
0010
,
0100
0001
0100
0001
,
0100
0010
1000
0010
,
1000
0100
0010
0100
,
0010
0100
1000
0001
,
1000
0010
1000
0001
,
0000
0000
1000
0000
0000
0000
0000
0010
,
0000
0000
0010
0000
0000
0000
0000
1000
,
0000
0000
1000
0000
0000
0000
0000
0001
,
0000
0000
1000
0000
0000
0000
0000
0001
,
0000
0000
1000
0000
0000
0000
0000
0100
,
0000
0000
0010
0000
0000
0000
0000
0010
,
0000
0000
0100
0000
0000
0000
0000
0001
,
0000
0100
0000
0002
,
0000
0000
0000
0000
,
0000
0000
0000
0000
,
0000
0000
0000
0000
,
0000
0000
0000
0023
,
0000
0000
0000
0000
,
0000
0000
0000
0000
,
0000
0000
0000
0000
,
0000
0000
0000
0230
,
0000
0000
0000
0000
,
0000
0000
0000
0000
,
0000
0000
0000
0000
,
0000
0000
0000
0320
,
0000
0000
0000
0000
,
0000
0000
0000
0032
,
0000
0000
0000
0000
,
0000
0000
0000
1003
,
0000
0010
0000
0100
,
0000
0001
0000
0010
,
0000
0001
0000
1000
,
0000
0010
0000
0100
,
0000
0010
0000
1000
,
0000
0100
0000
0001
,
0000
0010
0000
0001
,
0000
0000
1000
0000
0001
1000
0001
0000
,
0000
0010
0000
0100
,
0000
0001
0000
0010
,
0000
0001
0000
1000
,
0000
0100
0000
1000
,
0000
0010
0000
0100
,
0000
0001
0000
0010
,
0000
0001
0000
1000
,
0000
0000
0010
0000
0010
0100
0010
0000
,
0000
0001
0000
1000
,
0000
0010
0000
0100
,
0000
0001
0000
0001
,
0010
0100
1000
0000
,
0000
0010
0000
0001
,
0000
0010
0000
0001
,
0000
0010
0000
0001
,
0000
0000
0010
0000
0001
0001
0001
0000
,
0000
0010
0000
0100
,
0000
1000
0000
0010
,
0000
0100
0000
1000
,
0100
0010
0001
0000
,
0000
1000
0000
0100
,
0000
1000
0000
0100
,
0000
1000
0000
0010
,
0000
0000
0100
0000
0000
0010
0100
0000
,
0000
1000
0010
0000
0000
0010
0100
0000
,
0000
0100
0010
0000
0000
0010
0100
0000
,
0000
0100
1000
0000
0000
0010
0100
0000
,
0000
0001
0100
0000
0000
1000
0001
0000
,
0000
1000
0010
0000
0000
1000
0100
0000
,
0000
0010
0100
0000
0000
1000
0010
0000
,
0000
1000
0001
0000
0000
1000
0001
0000
,
0000
1000
0010
0000
0000
0010
0100
0000
,
0000
0010
0001
0000
0000
0100
0010
0000
,
0000
1000
0010
0000
0000
0001
0100
0000
,
0000
0010
0100
0000
0000
1000
0100
0000
,
0000
0010
0001
0000
0000
1000
0001
0000
,
0000
0100
0010
0000
0000
0100
0010
0000
,
0000
0010
0001
0000
0000
1000
0010
0000
,
0000
0100
0001
0000
0000
1000
0100
0000
,
0000
0100
0001
0000
0000
0010
0002
0000
,
0000
0000
0000
0203
,
0000
0000
0000
0320
,
0000
0000
0000
0230
,
0000
0000
0000
2300
,
0000
0000
0000
3200
,
0000
0000
0302
0000
,
0000
0000
0000
0000
,
0000
0000
0000
0003
,
0100
0000
0100
0100
0100
0000
0010
0000
,
0001
0000
0100
0100
0100
0000
0001
0000
,
0100
0000
1000
1000
1000
0000
0001
0000
,
0010
0000
0100
0100
0100
0000
0010
0000
,
0001
0000
0100
0100
0100
0000
0010
0000
,
0001
0000
0100
0100
0100
0000
0001
0000
,
0010
0000
1000
1000
1000
0000
0000
0000
,
0000
0000
0110
0001
,
1000
0001
0010
0001
,
0010
0100
0010
0100
,
1000
0100
1000
0001
,
1000
0001
0100
0001
,
0100
0010
0100
0010
,
1000
0010
1000
0001
,
1000
0010
0100
0010
,
0100
0010
1000
0001
,
0100
0010
1000
0001
,
1000
0010
1000
0001
,
0100
0001
0100
0010
,
0100
0010
1000
0010
,
1000
0100
0010
0100
,
1000
0100
1000
0010
,
1000
0010
0100
0001
,
0000
0001
0000
0001
,
1000
0100
1000
0001
,
1000
0100
0010
0100
,
0010
0100
1000
0001
,
1000
0001
1000
0010
,
0100
0010
0100
0010
,
1000
0001
1000
0001
,
1000
0010
0100
0010
,
0100
0010
1000
0001
,
0100
0001
0010
0001
,
1000
0010
0100
0010
,
0100
0010
1000
0001
,
0100
0001
0100
0001
,
0010
0100
0010
0100
,
0010
0001
1000
0100
,
1000
0010
1000
0001
,
0100
0010
0100
0010
,
0100
0001
1000
0010
,
1000
0100
1000
0001
,
0010
0001
0010
0100
,
1000
0010
1000
0010
,
1000
0001
0010
0001
,
0010
0001
1000
0010
,
1000
0100
1000
0100
,
0010
0100
0010
0001
,
0010
0001
0100
0001
,
0100
0010
0100
0010
,
1000
0010
1000
0001
,
1000
0001
0100
0010
,
0100
0001
0100
0010
,
1000
0010
1000
0001
,
1000
0001
0100
0001
,
0100
0010
0100
0020
,
0000
0000
0000
0000
,
0000
0000
0000
0032
,
0000
0000
0000
0000
,
0000
2003
0000
3002
,
0000
0000
0000
0000
,
0000
0000
0000
0203
,
0000
0000
0000
0000
,
0000
0000
0000
0320
,
0000
0000
0000
0000
,
0000
0000
0000
0000
,
2030
0000
0000
0000
,
0000
0000
0000
0000
,
3020
0000
0000
0000
,
0000
0000
0000
0000
,
0032
0000
0000
0000
,
0000
0000
0000
0000
,
0203
0000
0000
0000
,
0000
0000
0000
0000
,
0000
0000
0300
0000
;

//--------------- dance-single - B. M'Rey ----------------
#NOTEDATA:;
#STEPSTYPE:dance-single;
#DESCRIPTION:B. M'Rey;
#CREDIT:B. M'Rey;
#DIFFICULTY:Medium;
#METER:10;
#RADARVALUES:0,0,0,0,0;
#NOTES:
0000
0000
0000
0000
,
0000
0000
0000
0000
0000
0000
0000
0100
,
1000
0100
0000
0010
0000
0001
0000
0010
,
0100
0010
0000
1000
0000
0100
0000
0001
,
0010
0001
0000
0100
0000
0010
0000
1000
,
0001
0010
0000
0001
0000
0010
0000
0100
,
0010
0001
0000
1000
0000
0010
0000
0100
,
0010
1000
0000
0001
0000
0010
0000
0001
,
0010
0100
0000
1000
0000
0010
0000
0100
,
0010
0100
0000
0001
0000
1000
0000
0100
,
0001
0100
0000
0010
0000
1000
0000
0010
,
0100
0010
0000
0001
0000
0100
0000
1000
,
0010
1000
0000
0100
0000
0010
0000
0001
,
1000
0010
0000
1000
0000
0010
0000
0100
,
0010
1000
0000
0001
0000
0010
0000
0100
,
0010
0001
0000
1000
0000
0010
0000
1000
,
0010
0100
0000
0001
0000
0010
0000
0100
,
0010
0100
0000
1000
0000
0001
0000
0010
,
1000
0010
0000
0100
0000
0001
0000
0100
,
0010
0100
0000
1000
0000
0010
0000
0001
,
0100
0001
0000
0010
0000
0100
0000
1000
,
0001
0100
0000
0001
0000
0100
0000
0010
,
0100
0001
0000
1000
0000
0100
0000
0010
,
0100
1000
0000
0001
0000
0100
0000
0001
,
0100
0010
0000
1000
0000
0100
0000
0010
,
0100
0010
0000
0001
0000
1000
0000
0010
,
0001
0010
0000
0100
0000
1000
0000
0100
,
0010
0100
0000
0001
0000
0010
0000
1000
,
0100
1000
0000
0010
0000
0100
0000
0001
,
1000
0100
0000
1000
0000
0100
0000
0010
,
0100
1000
0000
0001
0000
0100
0000
0010
,
0100
0001
0000
1000
0000
0100
0000
1000
,
0100
0010
0000
0001
0000
0100
0000
0010
,
0100
0010
0000
1000
0000
0001
0100
0000
,
0001
1000
0000
0100
0001
1000
0010
0000
,
1000
0001
0000
0010
0000
0001
1000
0000
,
0010
0001
0000
0100
0001
0010
1000
0000
,
0010
0001
0000
0001
0000
0100
0010
0000
,
1000
0100
0000
0001
0000
0100
0010
0000
,
0100
0001
0000
0100
0000
2000
0000
0000
,
0000
0010
0010
0100
0100
0000
0000
0000
,
0000
3002
0000
0000
0403
0300
0001
1000
,
0001
1000
0001
0010
0100
0010
0100
0010
,
0001
0100
0010
0100
0010
0100
0001
0010
,
0001
1000
0001
0100
0010
1000
0010
0100
,
0010
1000
0100
0010
0100
0010
0100
1000
,
0010
1000
0010
1000
0001
0010
0001
0010
,
0001
0100
0010
0100
0010
0100
0001
0010
,
0001
0010
0001
1000
0010
1000
0010
1000
,
0001
0100
0001
0100
0001
0010
0100
1000
,
0100
1000
0100
0010
0001
0100
0001
0100
,
0001
1000
0010
0100
0010
0100
0010
1000
,
0100
1000
0100
1000
0010
0100
0001
0100
,
0001
0100
0010
1000
0010
1000
0010
0100
,
0001
0100
0001
0100
0010
1000
0010
1000
,
0010
0100
0001
0010
0001
0010
0001
1000
,
0010
1000
0010
1000
0001
0010
0001
0010
,
0001
1000
0100
1000
0100
1000
0001
0010
,
0000
0000
0010
0000
0000
0010
0000
0010
,
0000
0000
0100
0000
0000
0001
0000
0001
,
0000
0000
0001
0000
0000
0001
0000
0001
,
0000
0000
0010
0000
0000
0001
0000
0001
,
0000
0000
0001
0000
0000
0100
0000
0100
,
0000
0000
0100
0000
0000
0100
0000
0100
,
0000
0000
0001
0000
0000
0010
0000
0010
,
0000
0000
0001
0000
0000
0010
0200
0000
,
0000
0000
0000
0000
,
0000
0000
0000
0000
0000
0000
0310
1000
,
0010
1000
0010
0100
0001
0100
0001
0100
,
0010
1000
0010
1000
0010
0100
0001
0100
,
0001
0100
0010
1000
0010
1000
0010
0100
,
0001
1000
0001
0010
0001
0010
0100
0010
,
0100
1000
0001
1000
0001
1000
0010
0100
,
0001
0100
0001
0100
0010
1000
0010
1000
,
0010
0100
0001
0100
0001
0100
0010
1000
,
0010
1000
0100
1000
0001
0100
0001
0100
,
0001
0010
0100
0010
0001
0010
0100
1000
,
0010
1000
0001
1000
0100
0010
0100
0010
,
0100
1000
0010
1000
0001
0100
0001
1000
,
0001
1000
0010
0100
0010
0100
0010
1000
,
0100
1000
0100
0010
0100
0010
0001
1000
,
0100
0010
0100
1000
0100
0010
0001
0010
,
0001
0010
0100
1000
0001
1000
0000
0000
,
0000
0100
0100
0010
0010
0000
0010
0100
,
0010
0100
0010
1000
0100
1000
0100
1000
,
0001
0010
0001
0010
0100
0010
0100
1000
,
0100
1000
0001
1000
0100
0010
0100
0010
,
0100
1000
0001
1000
0100
1000
0100
0010
,
0100
0010
0001
0010
0001
0100
0001
0010
,
0100
1000
0100
0010
0100
0010
0001
0010
,
0001
0100
0001
1000
0100
1000
0100
1000
,
0010
0100
0010
1000
0010
1000
0001
0100
,
0001
0100
0001
0010
0100
0010
0001
0010
,
0001
0100
0001
0100
0010
0100
0010
1000
,
0010
1000
0001
0100
0001
0100
0001
0010
,
0100
0010
0100
0010
0001
0100
0001
0100
,
0001
1000
0010
1000
0010
1000
0001
0100
,
0001
0100
0001
0010
0100
1000
0100
1000
,
0100
0010
0001
0010
0001
0010
0100
1000
,
0100
1000
0100
0010
0001
1000
0001
1000
,
0100
1000
0100
0010
0100
0010
0001
1000
,
0001
1000
0001
0010
0100
0010
0100
0010
,
0001
0100
0001
0100
0001
1000
0100
1000
,
0100
1000
0001
0010
0100
0010
0100
0010
,
0001
1000
0001
1000
0001
0010
0100
1000
,
0001
0010
0001
0010
0001
1000
0100
1000
,
0100
0010
0100
0010
0001
0010
0001
0100
,
0001
0100
0010
0100
0010
1000
0000
1000
,
0000
0000
1000
0000
0000
1000
0000
0010
,
0000
0000
0010
0000
0000
0100
0000
0100
,
0000
0000
1000
0000
0000
0010
0000
1000
,
0000
0000
1000
0000
0000
0001
0000
0100
,
0000
0000
1000
0000
0000
1000
0000
0010
,
0000
0000
0010
0000
0000
1000
0000
1000
,
0000
0000
0100
0000
0000
0010
0000
0010
,
0000
0000
0100
0000
0000
0100
0002
0000
,
0000
0000
0000
0000
,
0000
0000
0000
0000
,
0000
0000
0000
0000
,
0000
0000
0000
0023
,
0000
0000
0000
0000
,
0000
0000
0000
0000
,
0000
0000
0000
0000
,
0000
0000
0000
0230
,
0000
0000
0000
0000
,
0000
0000
0000
0000
,
0000
0000
0000
0000
,
0000
0000
0000
0320
,
0000
0000
0000
0000
,
0000
0000
0000
0032
,
0000
0000
0000
0000
,
0000
0000
0000
0103
,
0000
0100
0001
0000
0000
1000
0100
0000
,
0000
1000
0010
0000
0000
0010
0100
0000
,
0000
1000
0100
0000
0000
0010
0100
0000
,
0000
0100
0010
0000
0000
0010
0100
0000
,
0000
0010
0100
0000
0000
0100
0010
0000
,
0000
0010
0001
0000
0000
0100
0010
0000
,
0000
1000
0100
0000
0000
0100
0001
0000
,
0000
0100
0010
0000
0010
0010
0010
0000
,
0000
0010
0001
0000
0000
0100
0001
0000
,
0000
1000
0010
0000
0000
0100
0001
0000
,
0000
1000
0001
0000
0000
0100
0001
0000
,
0000
0100
0001
0000
0000
0100
0001
0000
,
0000
1000
0010
0000
0000
0010
0100
0000
,
0000
0100
0010
0000
0000
0010
0100
0000
,
0000
0100
0001
0000
0000
1000
0010
0000
,
0000
1000
0010
0000
0100
0100
0100
0000
,
0000
0010
0001
0000
0000
1000
0010
0000
,
0000
1000
0100
0000
0000
0100
0010
0000
,
0000
1000
0010
0000
0000
0100
0010
0000
,
0000
0010
0100
0000
0000
0100
0010
0000
,
0000
0100
0010
0000
0000
0010
0100
0000
,
0000
0100
0001
0000
0000
0010
0100
0000
,
0000
1000
0010
0000
0000
0010
0001
0000
,
0000
0010
0100
0000
0100
0100
0100
0000
,
0000
0100
0001
0000
0000
0010
0001
0000
,
0000
1000
0100
0000
0000
0010
0001
0000
,
0000
1000
0001
0000
0000
0010
0001
0000
,
0000
0010
0001
0000
0000
0010
0001
0000
,
0000
1000
0100
0000
0000
0100
0010
0000
,
0000
0010
0100
0000
0000
0100
0010
0000
,
0000
0010
0001
0000
0000
1000
0100
0000
,
0000
0000
1000
0000
0100
0000
0000
0000
0000
0000
0010
0000
0200
0000
0000
0302
,
0000
0000
2003
0000
3020
0000
0000
0032
0000
0000
0023
0000
0230
0000
0000
0302
,
0000
0000
0203
0000
0320
0000
0000
2030
0000
0000
0020
3000
0230
0000
0000
0302
,
0000
0000
0203
0000
2300
0000
0000
3200
0000
0000
0320
0000
0230
0000
0000
0320
,
0000
0000
0032
0000
0203
0000
0000
0320
0000
0000
2030
0000
3002
0000
0000
0023
,
0000
0000
2030
0000
3020
0000
0000
0032
0000
0000
2003
0000
3200
0000
0000
0302
,
0000
0000
0023
0000
0230
0000
0000
0320
0000
0000
2030
0000
3020
0000
0000
0230
,
0000
0000
2300
0000
3002
0000
0000
0023
0000
0000
2030
0000
3002
0000
0000
0203
,
0000
0000
2300
0000
3020
0000
0000
0032
0000
0000
0023
0000
0230
0000
0000
2300
,
0000
0000
3020
0000
0032
0000
0000
2003
0000
0000
3200
0000
0320
0000
0000
0032
,
0000
0000
2003
0000
3020
0000
0000
0230
0000
0000
0302
0000
0203
0000
0000
0302
,
0000
0000
0023
0000
0230
0000
0000
0320
0000
0000
2030
0000
3200
0000
0000
0302
,
0000
0000
0023
0000
0032
0000
0000
0203
0000
0000
2300
0000
3002
0000
0000
2003
,
0000
0000
3200
0000
0320
0000
0000
0032
0000
0000
0203
0000
0320
0000
0000
0032
,
0000
0000
0023
0000
0032
0000
0000
0023
0000
0000
2030
0000
3020
0000
0000
2030
,
0000
0000
3200
0000
0302
0000
0000
0023
0000
0000
2030
0000
3200
0000
0000
0320
,
0000
0000
0230
0000
0302
0000
0000
0203
0000
0000
0320
0000
0032
0000
0000
0000
,
0000
0000
1003
0200
,
0000
0000
1300
0020
,
0000
0000
1030
0200
,
0000
0000
1300
0200
,
0000
0000
1300
0200
,
0000
0000
1300
0200
,
0000
0000
0000
0000
,
0000
0000
0000
0301
,
0100
0001
0100
0000
0000
0010
0010
0000
,
0001
0100
0100
0000
0000
0010
0001
0000
,
0100
0010
0100
0000
0000
0100
0001
0000
,
0010
0001
0100
0000
0010
0001
0100
0000
,
0010
0100
0100
0000
0000
0100
0010
0000
,
0001
0100
0100
0000
0000
0001
0001
0000
,
0010
0001
0100
0000
0000
0000
0010
0000
,
1000
0000
0100
0001
0010
0000
0001
1000
,
0001
1000
0001
0100
1010
0000
0010
1000
,
0010
0100
0001
0100
0101
0000
0010
1000
,
0010
1000
0100
0010
0110
0000
0100
1000
,
0001
0010
0001
0010
1001
0000
0100
0010
,
0100
0010
0001
0010
0101
0000
0001
0100
,
0010
0100
0010
1000
1010
0000
0100
1000
,
0100
0010
0100
0010
1001
0000
0001
1000
,
0001
0100
0010
0100
0110
0000
0001
1000
,
0001
1000
0001
0010
0110
0000
0100
0010
,
0001
0100
0010
0100
0110
0000
0001
1000
,
0010
1000
0010
0100
0110
0000
0001
0100
,
0001
1000
0001
1000
1100
0000
0100
0010
,
0100
0010
0001
0010
1001
0000
0001
1000
,
0010
1000
0010
0100
0110
0000
0001
0100
,
0001
0010
0001
0010
1100
0000
0100
1000
,
0000
0100
0000
0000
0001
0000
0000
0010
0000
0000
0010
0000
0100
0000
1000
0000
,
0100
1000
0000
0010
0001
0100
0000
0100
,
0001
1000
0000
0010
0100
0010
0000
1000
,
0010
1000
0000
1000
0100
0010
0000
0010
,
0100
1000
0000
1000
0001
1000
0100
0010
,
0100
0010
0000
1000
0010
1000
0000
1000
,
0001
0100
0000
0100
0001
0010
0000
0010
,
0100
0010
0000
0100
0001
0100
0000
0010
,
0100
0010
0000
1000
0001
1000
0001
1000
,
0010
0100
0000
0100
0010
1000
0000
1000
,
0001
1000
0000
0100
0001
0100
0000
0100
,
0010
1000
0000
1000
0010
0100
0000
0100
,
0001
0100
0000
1000
0010
1000
0010
0100
,
0001
0100
0000
0100
0010
1000
0000
1000
,
0010
0100
0000
0100
0001
1000
0000
1000
,
0100
1000
0000
0010
0100
0010
0000
0010
,
0001
1000
0000
0010
0100
0010
0100
0010
,
0001
1000
0000
1000
0100
1000
0000
0010
,
0100
0010
0000
0010
0001
0100
0000
0100
,
0010
0100
0000
1000
0010
1000
0000
1000
,
0001
0010
0000
0010
0100
0010
0100
0000
,
0100
1000
0010
1000
0010
0100
0010
0000
,
0001
0100
0001
1000
0001
1000
0010
0000
,
0010
0100
0010
0100
0001
1000
0001
0000
,
0001
0010
0100
0000
0010
0000
0001
1000
,
0001
1000
0001
0000
0010
1000
0001
1000
,
0010
0100
0001
0000
0001
0100
0010
1000
,
0010
1000
0010
0000
0001
0100
0001
0100
,
0010
1000
0010
0000
0100
0000
0001
0100
,
0010
1000
0010
0000
0010
0100
0001
1000
,
0001
0010
0001
0000
0100
0010
0100
1000
,
0100
1000
0001
0000
0001
0100
0010
0100
,
0010
0100
0001
0000
0010
0000
0200
0000
,
0000
2300
0000
0000
3020
0000
0000
0230
,
0000
0302
0000
0000
,
0000
0000
0000
0000
,
0000
0000
0000
2003
,
0000
3002
0000
0000
0203
0000
0000
0320
,
0000
0230
0000
0320
,
0000
0000
0000
0000
,
0000
0000
0000
0000
0000
0030
0200
0000
,
0000
0000
0000
0000
,
0000
0000
0000
0000
,
2300
0000
0000
0000
,
0000
0000
0000
0000
,
3200
0000
0000
0000
,
0000
0000
0000
0000
,
0302
0000
0000
0000
,
0000
0000
0000
0000
,
0023
0000
0000
0000
,
0000
0000
0000
0000
,
0000
0000
0030
0000
;

//--------------- dance-single - B. M'Rey ----------------
#NOTEDATA:;
#STEPSTYPE:dance-single;
#DESCRIPTION:B. M'Rey;
#CREDIT:B. M'Rey;
#DIFFICULTY:Hard;
#METER:14;
#RADARVALUES:0,0,0,0,0;
#NOTES:
0000
0000
0000
0000
,
0000
0000
0000
0000
0000
0000
0000
0100
,
1000
0100
0000
0010
0000
0001
0000
0010
,
0100
0010
0000
1000
0000
0100
0000
0001
,
0010
0001
0000
0100
0000
0010
0000
1000
,
0001
0010
0000
0001
0000
0010
0000
0100
,
0010
0001
0000
1000
0000
0010
0000
0100
,
0010
1000
0000
0001
0000
0010
0000
0001
,
0010
0100
0000
1000
0000
0010
0000
0100
,
0010
0100
0000
0001
0000
1000
0000
0100
,
0001
0100
0000
0010
0000
1000
0000
0010
,
0100
0010
0000
0001
0000
0100
0000
1000
,
0010
1000
0000
0100
0000
0010
0000
0001
,
1000
0010
0000
1000
0000
0010
0000
0100
,
0010
1000
0000
0001
0000
0010
0000
0100
,
0010
0001
0000
1000
0000
0010
0000
1000
,
0010
0100
0000
0001
0000
0010
0000
0100
,
0010
0100
0000
1000
0000
0001
0000
0010
,
1000
0010
0000
0100
0000
0001
0000
0100
,
0010
0100
0000
1000
0000
0010
0000
0001
,
0100
0001
0000
0010
0000
0100
0000
1000
,
0001
0100
0000
0001
0000
0100
0000
0010
,
0100
0001
0000
1000
0000
0100
0000
0010
,
0100
1000
0000
0001
0000
0100
0000
0001
,
0100
0010
0000
1000
0000
0100
0000
0010
,
0100
0010
0000
0001
0000
1000
0000
0010
,
0001
0010
0000
0100
0000
1000
0000
0100
,
0010
0100
0000
0001
0000
0010
0000
1000
,
0100
1000
0000
0010
0000
0100
0000
0001
,
1000
0100
0000
1000
0000
0100
0000
0010
,
0100
1000
0000
0001
0000
0100
0000
0010
,
0100
0001
0000
1000
0000
0100
0000
1000
,
0100
0010
0000
0001
0000
0100
0000
0010
,
0100
0000
0010
0000
0000
0000
1000
0000
0000
0000
0001
0000
0100
0000
0000
0010
,
0001
0000
1000
0000
0000
0010
0100
0000
0001
0000
1000
0000
0010
0000
0000
0100
,
1000
0000
0001
0000
0000
0100
0010
0000
0000
0000
0001
0000
1000
0000
0000
0100
,
0010
0000
0001
0000
0000
1000
0100
0000
0001
0000
0010
0000
1000
0000
0000
0100
,
0010
0000
0001
1000
0000
0100
0001
0000
0000
0000
0100
0000
0010
0000
0000
0001
,
1000
0000
0100
0000
0000
0010
0001
0000
0000
0000
0100
0000
0010
0000
0000
1000
,
0100
0000
0001
0000
0000
0010
0100
0000
0000
0000
2000
0000
0000
0000
0000
0000
,
0000
0010
0010
0100
0100
0000
0000
0000
,
0000
0000
3002
0000
0000
0000
0000
0000
0403
0000
0300
0000
0001
1000
0100
1000
,
0100
0000
0001
0000
0001
0010
0001
1000
0100
0000
0100
0000
0001
0010
0001
1000
,
0001
0000
0100
0000
0100
1000
0100
1000
0010
0000
0010
0000
0010
0100
0001
0010
,
0001
0000
0001
0000
0010
0100
0010
0100
0010
0000
0001
0000
0001
1000
0100
0010
,
0001
0000
0001
0000
0001
0010
0100
0000
0100
1000
0100
0000
0001
0100
0001
0100
,
0001
0000
0100
0000
0100
0010
0100
1000
0001
0000
0001
0000
0001
1000
0010
1000
,
0010
0000
0010
0000
0001
0100
0001
1000
0001
0000
0010
0000
0010
0000
0100
0000
,
0001
0100
0001
0100
0010
0001
0010
0100
,
0001
0000
1000
0000
0010
0000
0100
0000
1001
0000
0000
0000
0001
1000
0010
1000
,
0010
0000
0001
0000
0001
0010
0001
1000
0100
0000
0100
0000
0010
0100
0010
0100
,
0010
0000
0100
0000
0100
1000
0010
0100
0010
0000
0010
0000
0100
1000
0100
1000
,
0001
0000
0001
0000
0001
1000
0100
1000
0100
0000
0010
0000
0010
0100
0010
1000
,
0100
0000
0100
0000
0001
0100
0001
0000
0001
1000
0010
0000
0010
1000
0100
0010
,
0100
0000
0100
0000
0001
1000
0001
0010
0001
0000
0100
0000
0001
1000
0001
1000
,
0001
0000
0010
0000
0010
1000
0010
0100
0001
0000
0010
0000
0100
0000
0010
0000
,
0100
0010
1000
0100
1000
0001
0010
0001
,
1000
0010
1000
0100
0010
0100
0001
0010
,
0000
1000
0000
0000
0010
0000
0000
0100
0000
0000
0010
0000
0000
0000
0010
0000
,
0000
1000
0000
0000
0100
0000
0000
0010
0000
0000
0001
0000
0000
0000
0001
0000
,
0000
0100
0000
0000
0001
0000
0000
0010
0000
0000
0001
0000
0000
0000
0001
0000
,
0000
1000
0000
0000
0010
0000
0000
0100
0000
0000
0001
0000
0000
0000
0001
0000
,
0000
1000
0000
0000
0001
0000
0000
1000
0000
0000
0100
0000
0000
0000
0100
0000
,
0000
0010
0000
0000
0100
0000
0000
0010
0000
0000
0100
0000
0000
0000
0100
0000
,
0000
1000
0000
0000
0001
0000
0000
0100
0000
0000
0010
0000
0000
0000
0010
0000
,
0000
1000
0000
0000
0001
0000
0000
0010
0000
0000
0010
0000
0100
0000
0000
0000
,
0000
0000
0000
0000
,
0000
0000
0000
0000
0000
0000
0001
0100
,
0001
0100
0000
0010
0001
0000
0010
0100
0000
0001
0010
0000
0001
0000
0010
0000
,
0001
0100
0000
0100
0001
0000
0100
0010
0000
0100
1000
0000
0100
0000
1000
0000
,
0100
1000
0000
0100
0001
0000
0100
0001
0000
1000
0100
0000
0010
0000
1000
0000
,
0001
0010
0000
1000
0001
0000
1000
0100
0000
0010
1000
0000
0010
0000
0100
0000
,
0001
1000
0000
0100
0010
0000
0100
0001
0000
0010
0100
0000
0010
0000
0100
0000
,
0001
1000
0000
1000
0010
0000
1000
0001
0000
0100
1000
0000
0100
0000
0010
0000
,
0100
1000
0000
0010
0100
0000
0010
0001
0000
0100
0010
0000
0100
0000
0010
0000
,
0100
1000
0000
1000
0100
0000
1000
0010
0000
0010
0100
0000
0010
0000
1000
0000
,
0010
0100
0000
0100
0001
0000
0100
0010
0000
0010
0100
0000
0010
0000
1000
0000
,
0100
1000
0000
1000
0100
0000
1000
0001
0000
0001
0100
0000
0010
0000
1000
0000
,
0001
0100
0000
0100
0001
0000
0010
0001
0000
0001
0010
0000
0100
0000
0010
0000
,
0001
0100
0000
0100
0010
0000
0100
0010
0000
0010
0100
0000
0001
0000
0010
0000
,
0100
1000
0000
1000
0010
0000
1000
0100
0000
0100
1000
0000
0001
0000
0010
0000
,
0100
0010
0000
0010
0100
0000
0010
0001
0000
0001
0100
0000
0010
0000
1000
0000
,
0001
1000
0000
1000
0100
0000
0010
0001
0000
0001
0010
0000
1000
0000
0000
0000
,
0000
0100
0100
0010
0010
0001
0001
0100
,
0001
0100
0000
0010
0001
0000
0010
0100
0000
0001
0010
0000
0001
0010
0001
0100
,
0001
0010
0100
1000
0100
1000
0100
0010
0001
0010
0001
0010
0001
0000
0010
0000
,
0001
0100
0000
0100
0001
0000
0100
0010
0000
0100
1000
0000
0001
1000
0001
1000
,
0001
0100
0010
0100
0010
1000
0010
1000
0100
1000
0100
0010
0100
0000
1000
0000
,
0100
1000
0000
0100
0001
0000
0100
0001
0000
1000
0100
0000
0001
1000
0001
1000
,
0001
0100
0010
1000
0010
1000
0010
0100
0001
0010
0001
0010
0100
0000
1000
0000
,
0001
0010
0000
1000
0001
0000
1000
0100
0000
0010
1000
0000
0001
1000
0001
1000
,
0010
1000
0010
0100
0010
0100
0001
0100
0001
0010
0001
0010
0001
0000
0100
0000
,
0001
1000
0000
0100
0010
0000
0100
0001
0000
0010
0100
0000
0001
1000
0001
1000
,
0001
0010
0100
0010
0001
0010
0100
1000
0001
1000
0001
1000
0010
0000
0100
0000
,
0001
1000
0000
1000
0010
0000
1000
0001
0000
0100
1000
0000
0001
1000
0001
1000
,
0001
0100
0010
0100
0010
0100
0001
0010
0100
0010
0100
0010
0100
0000
0010
0000
,
0100
1000
0000
0010
0100
0000
0010
0001
0000
0100
0010
0000
0001
1000
0001
1000
,
0001
0100
0010
0100
0010
0100
0001
0010
0001
0010
0100
0010
0100
0000
0010
0000
,
0100
1000
0000
1000
0100
0000
1000
0010
0000
0010
0100
0000
0100
1000
0100
1000
,
0100
0010
0001
0010
0001
0010
0100
1000
0001
1000
0001
1000
0010
0000
1000
0000
,
0010
0100
0000
0100
0001
0000
0100
0010
0000
0010
0100
0000
0010
1000
0010
1000
,
0100
1000
0001
0100
0001
0100
0010
0100
0001
1000
0001
1000
0010
0000
1000
0000
,
0100
1000
0000
1000
0100
0000
1000
0001
0000
0001
0100
0000
0001
1000
0001
0100
,
0001
0100
0010
0100
0010
1000
0010
1000
0001
0100
0001
1000
0010
0000
1000
0000
,
0001
0100
0000
0100
0001
0000
0010
0001
0000
0001
0010
0000
0010
1000
0001
1000
,
0100
1000
0100
0010
0100
0010
0001
0010
0001
0100
0001
0100
1000
0000
0010
0000
,
0001
0100
0000
0100
0010
0000
0100
0010
0000
0010
0100
0000
0010
1000
0010
1000
,
0010
0100
0001
0100
0010
0100
0010
1000
0010
1000
0100
1000
0001
0000
1000
0000
,
0000
0001
0000
0000
1000
0000
0000
0010
0000
0000
1000
0000
0000
0000
0010
0000
,
0000
0001
0000
0000
0010
0000
0000
1000
0000
0000
0100
0000
0000
0000
0100
0000
,
0000
0010
0000
0000
1000
0000
0000
0100
0000
0000
0010
0000
0000
0000
1000
0000
,
0000
0001
0000
0000
1000
0000
0000
0100
0000
0000
0001
0000
0000
0000
0100
0000
,
0000
0010
0000
0000
1000
0000
0000
0100
0000
0000
1000
0000
0000
0000
0010
0000
,
0000
0100
0000
0000
0010
0000
0000
0001
0000
0000
1000
0000
0000
0000
1000
0000
,
0000
0100
0000
0000
0100
0000
0000
0010
0000
0000
0010
0000
0000
0000
0010
0000
,
0000
0001
0000
0000
0100
0000
0000
0001
0000
0000
0100
0000
0002
0000
0000
0000
,
M000
00M0
M000
0M00
,
M000
0M00
00M0
M000
,
0M00
M000
0M00
00M0
,
M000
0M00
M000
0023
,
M000
000M
0M00
M000
,
0M00
000M
0M00
000M
,
M000
000M
0000
0M00
,
M000
0M00
M000
0230
,
00M0
000M
00M0
000M
,
00M0
000M
M000
000M
,
M000
000M
000M
000M
,
M000
000M
M000
0320
,
M000
0M00
M000
000M
,
M000
000M
M000
0032
,
0M00
00M0
0M00
00M0
,
0M00
0000
0000
0000
M000
0000
0000
0000
00M0
0000
0000
0000
0103
0000
0000
0010
,
0000
0000
0100
0000
0001
0000
0000
0010
0000
0000
1000
0000
0100
0000
0000
0010
,
0000
0000
1000
0000
0010
0000
0000
1000
0000
0000
0010
0000
0100
0000
0000
1000
,
0000
0000
1000
0000
0100
0000
0000
1000
0000
0000
0010
0000
0100
0000
0000
1000
,
0000
0000
0100
0000
0010
0000
0000
1000
0000
0000
0010
0000
0100
0000
0000
1000
,
0000
0000
0010
0000
0100
0000
0000
1000
0000
0000
0100
0000
0010
0000
0000
1000
,
0000
0000
0010
0000
0001
0000
0000
0100
0000
0000
0100
0000
0010
0000
0000
0100
,
0000
0000
1000
0000
0100
0000
0000
0010
0000
0000
0100
0000
0001
0000
0000
0010
,
0000
0000
0100
0000
0010
0000
0000
1000
0010
1000
0010
1000
0010
0000
0000
1000
,
0000
0000
0010
0000
0001
0000
0000
1000
0000
0000
0100
0000
0001
0000
0000
0010
,
0000
0000
1000
0000
0010
0000
0000
0100
0000
0000
0100
0000
0001
0000
0000
0100
,
0000
0000
1000
0000
0001
0000
0000
1000
0000
0000
0100
0000
0001
0000
0000
1000
,
0000
0000
0100
0000
0001
0000
0000
1000
0000
0000
0100
0000
0001
0000
0000
0010
,
0000
0000
1000
0000
0010
0000
0000
0100
0000
0000
0010
0000
0100
0000
0000
0010
,
0000
0000
0100
0000
0010
0000
0000
0100
0000
0000
0010
0000
0100
0000
0000
1000
,
0000
0000
0100
0000
0001
0000
0000
1000
0000
0000
1000
0000
0010
0000
0000
0100
,
0000
0000
1000
0000
0010
0000
0000
0001
0100
0001
0100
0001
0100
0000
0000
0100
,
0000
0000
0010
0000
0001
0000
0000
0100
0000
0000
1000
0000
0010
0000
0000
0100
,
0000
0000
1000
0000
0100
0000
0000
1000
0000
0000
0100
0000
0010
0000
0000
1000
,
0000
0000
1000
0000
0010
0000
0000
1000
0000
0000
0100
0000
0010
0000
0000
1000
,
0000
0000
0010
0000
0100
0000
0000
1000
0000
0000
0100
0000
0010
0000
0000
1000
,
0000
0000
0100
0000
0010
0000
0000
1000
0000
0000
0010
0000
0100
0000
0000
1000
,
0000
0000
0100
0000
0001
0000
0000
0010
0000
0000
0010
0000
0100
0000
0000
0010
,
0000
0000
1000
0000
0010
0000
0000
0100
0000
0000
0010
0000
0001
0000
0000
0100
,
0000
0000
0010
0000
0100
0000
0000
1000
0100
1000
0100
1000
0100
0000
0000
1000
,
0000
0000
0100
0000
0001
0000
0000
1000
0000
0000
0010
0000
0001
0000
0000
0100
,
0000
0000
1000
0000
0100
0000
0000
0010
0000
0000
0010
0000
0001
0000
0000
0010
,
0000
0000
1000
0000
0001
0000
0000
1000
0000
0000
0010
0000
0001
0000
0000
1000
,
0000
0000
0010
0000
0001
0000
0000
1000
0000
0000
0010
0000
0001
0000
0000
0100
,
0000
0000
1000
0000
0100
0000
0000
0010
0000
0000
0100
0000
0010
0000
0000
0100
,
0000
0000
0010
0000
0100
0000
0000
0010
0000
0000
0100
0000
0010
0000
0000
1000
,
0000
0000
0010
0000
0001
0000
0000
1000
0000
0000
1000
0000
0100
0000
0000
0010
,
0000
0000
1000
0000
0100
0000
0000
0001
0000
0000
0010
0001
0200
0000
0000
0302
,
0000
0000
0103
0000
0020
0000
0000
0032
0000
0000
0103
0000
0020
0000
0000
2030
,
0000
0000
3010
0000
0200
0000
0000
0320
0000
0000
0130
0000
0002
0000
0000
0203
,
0000
0000
0310
0000
0002
0000
0000
0023
0000
0000
0130
0000
0020
0000
0000
0230
,
0000
0000
0310
0000
0200
0000
0000
0302
0000
0000
1003
0000
0200
0000
0000
0302
,
0000
0000
0013
0000
0002
0000
0000
0203
0000
0000
0310
0000
0200
0000
0000
0320
,
0000
0000
1030
0000
0020
0000
0000
0230
0000
0000
0310
0000
0002
0000
0000
2003
,
0000
0000
3100
0000
0020
0000
0000
0032
0000
0000
0013
0000
0200
0000
0000
0302
,
0000
0000
0103
0000
0020
0000
0000
2030
0000
0000
3010
0000
0200
0000
0000
2300
,
0000
0000
3001
0000
0020
0000
0000
2030
0000
0000
3100
0000
0002
0000
0000
0203
,
0000
0000
1300
0000
0002
0000
0000
0023
0000
0000
1030
0000
0002
0000
0000
0203
,
0000
0000
1300
0000
0020
0000
0000
2030
0000
0000
3100
0000
0020
0000
0000
2030
,
0000
0000
3010
0000
0002
0000
0000
2003
0000
0000
3100
0000
0002
0000
0000
0023
,
0000
0000
1030
0000
0020
0000
0000
0230
0000
0000
1300
0000
0200
0000
0000
0320
,
0000
0000
1030
0000
0020
0000
0000
0230
0000
0000
0301
0000
0020
0000
0000
0032
,
0000
0000
0103
0000
0020
0000
0000
2030
0000
0000
3100
0000
2000
0000
0000
3002
,
0000
0000
0013
0000
0200
0000
0000
2300
0000
0000
3100
0000
0002
0000
0000
0000
,
M000
00M0
1003
0200
,
00M0
000M
1300
0020
,
0M00
000M
1030
0200
,
M000
00M0
1300
0200
,
00M0
000M
1300
0200
,
M000
00M0
1300
0200
,
00M0
000M
M000
00M0
,
M000
0000
0000
0000
000M
0000
0000
0000
00M0
0000
0000
0000
0301
1000
0000
1000
,
0100
0000
0001
0000
0100
0010
0000
0001
0000
1000
0010
0100
0010
0100
0000
0010
,
0001
0000
0100
0000
0100
1000
0000
0100
0000
0100
0010
0100
0001
1000
0000
1000
,
0100
0000
0010
0000
0100
0010
0000
1000
0000
1000
0100
0010
0001
0010
0000
0100
,
0010
0000
0001
0000
0100
1000
0000
1000
0010
0100
0001
0010
0100
0010
0000
0100
,
0010
0000
0100
0000
0100
0010
0000
0100
0000
0010
0100
1000
0010
0100
0000
0100
,
0001
0000
0100
0000
0100
0010
0000
1000
0000
0100
0001
0010
0001
0100
0000
1000
,
0010
0000
0001
0000
0100
1000
0000
2000
0000
0000
0000
0000
0000
0000
0000
0000
,
0000
0000
0000
0000
0000
0000
3001
0000
0010
0000
0000
0000
0001
1000
0001
1000
,
0001
0100
0010
1000
0100
0000
0100
1000
0001
0000
0000
0000
0010
0100
0001
0010
,
0100
0010
0100
0010
0001
0000
0010
1000
0001
0000
0000
0000
0010
0100
0001
1000
,
0010
1000
0010
0100
0010
0000
0001
0100
0001
0000
0000
0000
0100
0010
0001
0100
,
0001
0100
0001
1000
0010
0000
0010
0100
0010
0000
0000
0000
0100
1000
0100
0010
,
0100
0010
0001
0010
0001
0000
0010
1000
0001
0000
0000
0000
0001
1000
0100
1000
,
0100
1000
0001
0010
0001
0000
0001
1000
0010
0000
0000
0000
0010
1000
0100
1000
,
0100
1000
0001
0010
0001
0000
0001
0100
0010
0000
0000
0000
0001
1000
0001
0010
,
0001
0010
0100
0010
0100
0000
0001
1000
0100
0000
0000
0000
0100
1000
0001
1000
,
0001
1000
0010
0100
0010
0000
0010
1000
0100
0000
0000
0000
0001
0100
0001
0100
,
0001
0010
0100
0010
0100
0000
0001
1000
0001
0000
0000
0000
0100
0010
0001
1000
,
0010
1000
0100
1000
0100
0000
0100
0010
0001
0000
0000
0000
0001
0100
0010
0100
,
0010
1000
0010
1000
0001
0000
0001
0100
0001
0000
0000
0000
0010
1000
0100
1000
,
0010
0100
0010
0100
0010
0000
0001
1000
0001
0000
0000
0000
0001
0010
0001
0010
,
0100
1000
0100
1000
0100
0000
0001
0010
0001
0000
0000
0000
0010
0100
0010
0100
,
0010
1000
0001
1000
0001
0000
0010
0100
0010
0000
0000
0000
0001
0000
1000
0000
,
0000
0100
0000
0000
0001
0000
0000
0010
0000
0000
0100
0000
0001
0000
0100
0010
,
0000
0010
0001
0000
0001
0100
0001
1000
0000
0100
0010
0000
0001
0010
0001
0010
,
0000
1000
0010
0000
0010
1000
0001
0100
0000
0100
0001
0000
0100
1000
0100
1000
,
0000
0100
0010
0000
0010
1000
0100
0010
0000
1000
0001
0000
0001
0010
0100
0010
,
0000
0010
0001
0000
0001
0000
1000
0000
0100
0010
0100
0010
0001
0000
0001
0100
,
0000
0100
0010
0000
0010
0100
0010
0100
0000
0100
0001
0000
0001
0100
0010
0100
,
0000
0100
0001
0000
0001
1000
0001
0010
0000
1000
0100
0000
0100
0010
0001
0010
,
0000
0010
0100
0000
0100
0000
0010
1000
0000
0100
0001
0000
0001
0000
0010
1000
,
0000
1000
0010
0000
0001
0000
0001
0010
0001
0100
0010
1000
0010
0000
0010
1000
,
0000
0010
0100
0000
0100
0000
0010
1000
0000
1000
0001
0000
0010
0000
0010
1000
,
0000
1000
0100
0000
0100
0000
0100
0010
0000
1000
0001
0000
0001
0000
0100
0010
,
0000
0010
0001
0000
0001
0000
0001
0010
0000
0010
0100
0000
0001
0000
0001
0100
,
0000
0010
0100
0000
0100
0000
0100
1000
0001
1000
0001
0010
0001
0000
0100
0010
,
0000
1000
0100
0000
0001
0000
0001
0100
0000
1000
0100
0000
0100
0000
0001
0010
,
0000
1000
0010
0000
0010
0000
0010
1000
0000
1000
0001
0000
0010
0000
0010
0100
,
0000
0100
0001
0000
0001
0000
0010
1000
0000
0010
0100
0000
0100
0000
0010
1000
,
0000
1000
0100
0000
0001
0000
0001
1000
0001
1000
0100
1000
0001
0000
1000
0000
,
0001
1000
0010
1000
0010
0100
0010
1000
,
0100
1000
0001
1000
0001
0010
0001
0010
,
0100
0010
0001
1000
0100
1000
0100
1000
,
0001
0100
0001
0100
0001
1000
0100
1000
,
0100
1000
0001
0100
0001
0100
0001
1000
,
0100
1000
0100
0010
0100
0010
0001
0010
,
0001
0100
0001
0100
0010
0100
0010
1000
,
0001
1000
0001
1000
0100
0010
0100
0010
,
0100
1000
0001
1000
0001
1000
0100
0010
,
0001
0010
0001
0010
0100
1000
0100
1000
,
0100
0010
0001
0010
0001
0010
0100
1000
,
0100
1000
0100
0010
0001
0010
0100
0010
,
0100
1000
0100
1000
0001
1000
0001
0100
,
0001
1000
0100
1000
0100
1000
0001
0010
,
0001
0010
0001
1000
0010
1000
0010
1000
,
0100
0010
0100
0010
0100
1000
0100
0000
,
1000
0100
0010
0100
,
0010
0001
0010
0001
,
1000
0100
1000
0100
,
1000
0001
0010
0001
,
0010
0001
0100
0010
,
0100
0010
1000
0010
,
1000
0001
1000
0001
,
0010
0001
0010
0020
,
0000
0000
0000
0000
,
0000
0000
0000
0000
,
2030
0000
0000
0000
,
0000
0000
0000
0000
,
3020
0000
0000
0000
,
0000
0000
0000
0000
,
0032
0000
0000
0000
,
0000
0000
0000
0000
,
0203
0000
0000
0000
,
0000
0000
0000
0000
,
0000
0000
0300
0000
;

//--------------- dance-single - B. M'Rey ----------------
#NOTEDATA:;
#STEPSTYPE:dance-single;
#DESCRIPTION:B. M'Rey;
#CREDIT:B. M'Rey;
#DIFFICULTY:Challenge;
#METER:18;
#RADARVALUES:0,0,0,0,0;
#NOTES:
0000
0000
0000
0000
,
0000
0000
0000
0000
0000
0000
0000
0100
,
1000
0100
0000
0010
0000
0001
0000
0010
,
0100
0010
0000
1000
0000
0100
0000
0001
,
0010
0001
0000
0100
0000
0010
0000
1000
,
0001
0000
0000
0010
1000
0001
1000
0001
1000
0001
0000
0000
0000
0000
0000
0010
0000
0000
0000
0000
0000
0100
0000
0000
,
0010
0001
0000
1000
0000
0010
0000
0100
,
0010
1000
0000
0001
0000
0010
0000
0001
,
0010
0100
0000
1000
0000
0010
0000
0100
,
0010
0100
0000
0001
0000
1000
0000
0100
,
0001
0100
0000
0010
0000
1000
0000
0010
,
0100
0010
0000
0001
0000
0100
0000
1000
,
0010
1000
0000
0100
0000
0010
0000
0001
,
1000
0000
0000
0010
0001
1000
0001
1000
0001
1000
0000
0000
0000
0000
0000
0010
0000
0000
0000
0000
0000
0100
0000
0000
,
0010
1000
0000
0001
0000
0010
0000
0100
,
0010
0001
0000
1000
0000
0010
0000
1000
,
0010
0100
0000
0001
0000
0010
0000
0100
,
0010
0100
0000
1000
0000
0001
0000
0010
,
1000
0010
0000
0100
0000
0001
0000
0100
,
0010
0100
0000
1000
0000
0010
0000
0001
,
0100
0001
0000
0010
0000
0100
0000
1000
,
0001
0000
0000
0100
1000
0001
1000
0001
1000
0001
0000
0000
0000
0000
0000
0100
0000
0000
0000
0000
0000
0010
0000
0000
,
0100
0001
0000
1000
0000
0100
0000
0010
,
0100
1000
0000
0001
0000
0100
0000
0001
,
0100
0010
0000
1000
0000
0100
0000
0010
,
0100
0010
0000
0001
0000
1000
0000
0010
,
0001
0010
0000
0100
0000
1000
0000
0100
,
0010
0100
0000
0001
0000
0010
0000
1000
,
0100
1000
0000
0010
0000
0100
0000
0001
,
1000
0000
0000
0100
0001
1000
0001
1000
0001
1000
0000
0000
0000
0000
0000
0100
0000
0000
0000
0000
0000
0010
0000
0000
,
0100
1000
0000
0001
0000
0100
0000
0010
,
0100
0001
0000
1000
0000
0100
0000
1000
,
0100
0010
0000
0001
0000
0100
0000
0010
,
0100
0000
0010
0000
0000
0000
1000
0000
0000
0000
0001
0000
0100
0000
0000
0010
,
0001
0000
1000
0000
0000
0010
0100
0000
0001
0000
1000
0000
0010
0000
0000
0100
,
1000
0000
0001
0000
0000
0100
0010
0000
0000
0000
0001
0000
1000
0000
0000
0100
,
0010
0000
0001
0000
0000
1000
0100
0000
0001
0000
0010
0000
1000
0000
0000
0100
,
0010
0000
0000
0000
0000
0000
0001
0000
1000
0000
0001
0000
1000
0000
0001
0000
1000
0000
0001
0000
0000
0000
0000
0000
0000
0000
0000
0000
0000
0000
0100
0000
0000
0000
0000
0000
0010
0000
0000
0000
0000
0000
0000
0000
0000
0001
0000
0000
,
1000
0000
0100
0000
0000
0010
0001
0000
0000
0000
0100
0000
0010
0000
0000
1000
,
0100
0000
0001
0000
0000
0010
0100
0000
0000
0000
2000
0000
0000
0000
0000
0000
,
0000
0010
0010
0100
0100
0000
0000
0000
,
0000
0000
3002
0000
0000
0000
0000
0000
0403
0000
0000
0000
0301
1000
0010
1000
,
0010
1000
0001
0010
0001
0010
0100
0010
0100
1000
0100
1000
0001
1000
0001
0100
,
0001
0100
0010
0100
0001
0010
0100
0010
0100
0010
0001
0100
0001
0010
0001
1000
,
0100
1000
0100
1000
0001
0100
0001
0100
0001
1000
0100
1000
0100
1000
0010
0100
,
0010
0100
0010
1000
0001
1000
0001
0010
0100
0010
0100
0010
0001
1000
0100
1000
,
0010
1000
0001
0010
0001
0010
0100
0010
0100
1000
0100
1000
0001
1000
0001
0010
,
0001
0010
0100
1000
0100
1000
0100
0010
0001
0010
0001
0010
0100
1000
0100
1000
,
0001
1000
0001
0100
0001
1000
0100
1000
0100
1000
0001
0010
0001
0010
0001
0100
,
0010
0100
0001
0100
0001
1000
0001
1000
0010
1000
0010
0100
0010
0100
0001
0010
,
0100
0010
0100
0010
0001
1000
0001
1000
0001
0100
0010
1000
0010
1000
0010
0100
,
0001
1000
0001
1000
0001
0010
0100
0010
0100
0010
0001
1000
0100
1000
0100
1000
,
0010
0100
0010
0100
0010
1000
0001
1000
0001
0010
0001
0010
0100
0010
0100
1000
,
0010
1000
0010
1000
0001
0100
0010
0100
0001
0100
0001
1000
0001
1000
0010
1000
,
0010
0100
0010
0100
0001
0100
0001
1000
0001
1000
0100
1000
0001
0100
0001
0100
,
0001
0010
0100
1000
0100
0010
0100
1000
0001
0010
0001
0010
0001
0100
0010
1000
,
0010
1000
0010
0100
0001
0100
0001
0100
0010
1000
0010
1000
0001
1000
0100
0010
,
0100
0010
0100
1000
0001
0010
0001
1000
0100
1000
0100
1000
0100
0000
0001
0000
,
0000
1000
0000
0000
0001
0000
0000
0100
0000
0000
0100
0000
0000
0000
0001
0000
,
0000
0010
0000
0000
1000
0000
0000
0100
0000
0000
0100
0000
0000
0000
0100
0000
,
0000
0010
0000
0000
0010
0000
0000
1000
0000
0000
0001
0000
0000
0000
0010
0000
,
0000
0010
0000
0000
0001
0000
0000
0100
0000
0000
0100
0000
0000
0000
0010
0000
,
0000
0100
0000
0000
0001
0000
0000
1000
0000
0000
0001
0000
0000
0000
0010
0000
,
0000
1000
0000
0000
0001
0000
0000
1000
0000
0000
0010
0000
0000
0000
0100
0000
,
0000
0010
0000
0000
0010
0000
0000
0100
0000
0000
0001
0000
0000
0000
0100
0000
,
0000
0010
0000
0000
0010
0000
0000
0100
0000
0000
0100
0000
0020
0000
0M00
0000
,
000M
000M
0M00
M000
000M
0M00
000M
M000
,
000M
0000
000M
0000
0M00
0000
M000
0000
000M
0000
0M00
0000
0031
1000
0001
1000
,
0001
0100
0010
0100
0010
0100
0001
1000
0010
1000
0001
1000
0010
1000
0010
1000
,
0001
0100
0001
0100
0001
1000
0001
1000
0100
1000
0100
0010
0100
0010
0100
1000
,
0100
1000
0001
1000
0001
0010
0001
0010
0001
0100
0001
0100
0010
0100
0010
0100
,
0001
0010
0100
1000
0010
1000
0001
1000
0010
1000
0001
1000
0010
0100
0001
0100
,
0001
0100
0010
0100
0010
0100
0001
1000
0001
1000
0100
1000
0100
0010
0100
0010
,
0001
0010
0100
0010
0001
0010
0001
0100
0001
0100
0001
1000
0001
0100
0010
0100
,
0010
0100
0001
0100
0001
1000
0001
1000
0010
1000
0010
1000
0100
1000
0100
0010
,
0100
0010
0100
1000
0100
0010
0001
0010
0001
0010
0100
0010
0001
1000
0001
1000
,
0001
0100
0001
0010
0001
0010
0100
0010
0001
0010
0001
0010
0100
1000
0100
1000
,
0100
0010
0100
0010
0100
1000
0001
0010
0001
0010
0001
1000
0001
0100
0001
0100
,
0010
0100
0010
1000
0010
1000
0010
0100
0010
0100
0001
1000
0001
0010
0001
0010
,
0001
0100
0001
0010
0100
0010
0100
0010
0001
0010
0001
0010
0100
1000
0001
0100
,
0001
0100
0001
1000
0001
1000
0001
0010
0100
0010
0100
0010
0001
0010
0001
0010
,
0100
1000
0100
1000
0001
1000
0001
0100
0001
0100
0010
0100
0010
0100
0001
1000
,
0001
1000
0001
0010
0100
0010
0001
0010
0001
1000
0001
1000
0100
0000
0010
0000
,
0001
0000
0100
0000
0010
0000
1000
0000
0100
0000
0010
0000
0001
1000
0001
0010
,
0001
0010
0001
0010
0001
0010
0001
0010
0001
0010
0001
0100
0010
0100
0010
1000
,
0100
0010
0001
1000
0100
0010
0100
0010
0001
0010
0001
1000
0001
0010
0001
0010
,
0001
0010
0001
0010
0001
1000
0100
1000
0100
1000
0100
1000
0010
1000
0100
0010
,
0100
0010
0100
1000
0100
0010
0001
1000
0010
0100
0010
1000
0010
1000
0010
1000
,
0100
1000
0100
1000
0100
1000
0100
1000
0001
1000
0001
1000
0100
0010
0100
1000
,
0010
0100
0010
1000
0100
1000
0010
1000
0001
0010
0001
1000
0001
1000
0001
1000
,
0100
1000
0100
1000
0100
1000
0100
1000
0010
0100
0010
0100
0010
0100
0001
0010
,
0100
0010
0100
0010
0001
1000
0001
1000
0001
1000
0010
1000
0001
1000
0001
0100
,
0001
0100
0001
0100
0001
0100
0001
0100
0001
0100
0001
0100
1000
0010
0001
1000
,
0100
0010
0001
0100
0010
1000
0100
0010
0001
1000
0001
0010
0001
1000
0001
1000
,
0010
1000
0010
1000
0010
1000
0010
1000
0010
1000
0010
1000
0010
1000
0100
1000
,
0100
0010
0001
0100
0010
1000
0010
0100
0001
0010
0100
0010
0001
1000
0010
1000
,
0010
1000
0010
1000
0010
0100
0010
0100
0001
0100
0001
0010
0100
0010
0001
0100
,
0010
1000
0010
0100
0001
0100
0010
0100
0001
1000
0010
0100
0001
1000
0001
1000
,
0001
1000
0010
1000
0010
1000
0010
1000
0010
1000
0010
0100
0001
0010
0100
1000
,
0010
1000
0001
0100
0010
0100
0010
1000
0100
1000
0010
1000
0001
1000
0001
0100
,
0001
0100
0001
0100
0001
0100
0001
0100
0001
0100
0001
0010
0100
0010
0100
1000
,
0010
0100
0001
1000
0010
0100
0010
0100
0001
0100
0001
1000
0001
0100
0001
0100
,
0001
0100
0001
0100
0001
1000
0010
1000
0010
1000
0010
1000
0100
1000
0010
0100
,
0010
0100
0010
1000
0010
0100
0001
1000
0100
0010
0100
1000
0100
1000
0100
1000
,
0010
1000
0010
1000
0010
1000
0010
1000
0001
1000
0001
1000
0010
0100
0010
1000
,
0100
0010
0100
1000
0010
1000
0100
1000
0001
0100
0001
1000
0001
1000
0001
1000
,
0010
1000
0010
1000
0010
1000
0010
1000
0100
0010
0100
0010
0100
0010
0001
0100
,
0010
0100
0010
0100
0001
1000
0001
1000
0001
1000
0100
1000
0100
0000
0001
0000
,
0000
1000
0000
0000
0001
0000
0000
0100
0000
0000
0100
0000
0000
0000
0001
0000
,
0000
0010
0000
0000
1000
0000
0000
0100
0000
0000
0100
0000
0000
0000
0100
0000
,
0000
0010
0000
0000
0010
0000
0000
1000
0000
0000
0001
0000
0000
0000
0010
0000
,
0000
0010
0000
0000
0001
0000
0000
0100
0000
0000
0100
0000
0000
0000
0010
0000
,
0000
0100
0000
0000
0001
0000
0000
1000
0000
0000
0001
0000
0000
0000
0010
0000
,
0000
1000
0000
0000
0001
0000
0000
1000
0000
0000
0010
0000
0000
0000
0100
0000
,
0000
0010
0000
0000
0010
0000
0000
0100
0000
0000
0001
0000
0000
0000
0100
0000
,
0000
0010
0000
0000
0010
0000
0000
0100
0000
0000
0100
0000
0020
0000
0M00
0000
,
000M
M000
0M00
M000
000M
0M00
000M
M000
,
0M00
M000
000M
0M00
000M
M000
0M00
M000
,
000M
0M00
000M
0M00
000M
M000
000M
0M00
,
000M
M000
0M00
M000
0M00
000M
2030
0M00
,
00M0
000M
0M00
000M
0M00
00M0
000M
0M00
,
00M0
0M00
00M0
000M
0M00
000M
00M0
0M00
,
00M0
0M00
000M
0M00
000M
0M00
00M0
0M00
,
00M0
0M00
000M
0M00
00M0
0M00
3004
M000
,
00M0
0M00
M000
00M0
M000
0M00
00M0
0M00
,
M000
00M0
0M00
00M0
M000
0M00
00M0
0M00
,
00M0
M000
00M0
0M00
00M0
M000
00M0
0M00
,
00M0
M000
0M00
M000
00M0
M000
0043
M000
,
0M00
M000
000M
0M00
000M
M000
0M00
M000
,
000M
0M00
000M
0M00
000M
M000
000M
0M00
,
000M
M000
0M00
M000
000M
M000
000M
0M00
,
M000
0000
M000
0000
0M00
0000
M000
0000
000M
0000
M000
0000
0130
0000
0000
0010
,
0000
0000
0100
0000
0001
0000
0000
0010
0000
0000
1000
0000
0100
0000
0000
0010
,
0000
0000
1000
0000
0010
0000
0000
1000
0000
0000
0010
0000
0100
0000
0000
1000
,
0000
0000
1000
0000
0100
0000
0000
1000
0000
0000
0010
0000
0100
0000
0000
1000
,
0000
0000
0100
0000
0010
0000
0000
1000
0000
0000
0010
0000
0100
0000
0000
1000
,
0000
0000
0010
0000
0100
0000
0000
1000
0000
0000
0100
0000
0010
0000
0000
1000
,
0000
0000
0010
0000
0001
0000
0000
0100
0000
0000
0100
0000
0010
0000
0000
0100
,
0000
0000
1000
0000
0100
0000
0000
0010
0000
0000
0100
0000
0001
0000
0000
0010
,
0000
0000
0100
0000
0010
0000
0000
1000
0010
1000
0010
1000
0010
0000
0000
1000
,
0000
0000
0010
0000
0001
0000
0000
1000
0000
0000
0100
0000
0001
0000
0000
0010
,
0000
0000
1000
0000
0010
0000
0000
0100
0000
0000
0100
0000
0001
0000
0000
0100
,
0000
0000
1000
0000
0001
0000
0000
1000
0000
0000
0100
0000
0001
0000
0000
1000
,
0000
0000
0100
0000
0001
0000
0000
1000
0000
0000
0100
0000
0001
0000
0000
0010
,
0000
0000
1000
0000
0010
0000
0000
0100
0000
0000
0010
0000
0100
0000
0000
0010
,
0000
0000
0100
0000
0010
0000
0000
0100
0000
0000
0010
0000
0100
0000
0000
1000
,
0000
0000
0100
0000
0001
0000
0000
1000
0000
0000
1000
0000
0010
0000
0000
0100
,
0000
0000
1000
0000
0010
0000
0000
0001
0100
0001
0100
0001
0100
0000
0000
0100
,
0000
0000
0010
0000
0001
0000
0000
0100
0000
0000
1000
0000
0010
0000
0000
0100
,
0000
0000
1000
0000
0100
0000
0000
1000
0000
0000
0100
0000
0010
0000
0000
1000
,
0000
0000
1000
0000
0010
0000
0000
1000
0000
0000
0100
0000
0010
0000
0000
1000
,
0000
0000
0010
0000
0100
0000
0000
1000
0000
0000
0100
0000
0010
0000
0000
1000
,
0000
0000
0100
0000
0010
0000
0000
1000
0000
0000
0010
0000
0100
0000
0000
1000
,
0000
0000
0100
0000
0001
0000
0000
0010
0000
0000
0010
0000
0100
0000
0000
0010
,
0000
0000
1000
0000
0010
0000
0000
0100
0000
0000
0010
0000
0001
0000
0000
0100
,
0000
0000
0010
0000
0100
0000
0000
1000
0100
1000
0100
1000
0100
0000
0000
1000
,
0000
0000
0100
0000
0001
0000
0000
1000
0000
0000
0010
0000
0001
0000
0000
0100
,
0000
0000
1000
0000
0100
0000
0000
0010
0000
0000
0010
0000
0001
0000
0000
0010
,
0000
0000
1000
0000
0001
0000
0000
1000
0000
0000
0010
0000
0001
0000
0000
1000
,
0000
0000
0010
0000
0001
0000
0000
1000
0000
0000
0010
0000
0001
0000
0000
0100
,
0000
0000
1000
0000
0100
0000
0000
0010
0000
0000
0100
0000
0010
0000
0000
0100
,
0000
0000
0010
0000
0100
0000
0000
0010
0000
0000
0100
0000
0010
0000
0000
1000
,
0000
0000
0010
0000
0001
0000
0000
1000
0000
0000
1000
0000
0100
0000
0000
0010
,
0000
0000
0000
0000
1000
0000
0000
0000
0100
0000
0000
0000
0000
0000
0001
0000
0000
0000
0000
0000
0010
0000
0001
0000
M2MM
0300
0000
0000
0000
0000
M2M2
0303
,
0000
0000
0000
0000
2MM2
3003
0000
0000
2M2M
3030
0000
0000
0000
0000
M2M2
0303
0000
0000
0000
0000
MM22
0033
0000
0000
M22M
0330
0000
0000
0000
0000
MM22
0033
,
0000
0000
0000
0000
M2M2
0303
0000
0000
M22M
0330
0000
0000
0000
0000
M2M2
0303
0000
0000
0000
0000
MM22
0033
0000
0000
M22M
0330
0000
0000
0000
0000
MM22
0033
,
0000
0000
0000
0000
M2M2
0303
0000
0000
M2M2
0303
0000
0000
0000
0000
22MM
3300
0000
0000
0000
0000
M22M
0330
0000
0000
MM22
0033
0000
0000
0000
0000
M22M
0330
,
0000
0000
0000
0000
22MM
3300
0000
0000
M22M
0330
0000
0000
0000
0000
M22M
0330
0000
0000
0000
0000
2M2M
3030
0000
0000
2MM2
3003
0000
0000
0000
0000
M22M
0330
,
0000
0000
0000
0000
2M2M
3030
0000
0000
M22M
0330
0000
0000
0000
0000
MM22
0033
0000
0000
0000
0000
2MM2
3003
0000
0000
22MM
3300
0000
0000
0000
0000
2MM2
3003
,
0000
0000
0000
0000
MM22
0033
0000
0000
M22M
0330
0000
0000
0000
0000
M22M
0330
0000
0000
0000
0000
22MM
3300
0000
0000
2M2M
3030
0000
0000
0000
0000
M22M
0330
,
0000
0000
0000
0000
2M2M
3030
0000
0000
2MM2
3003
0000
0000
0000
0000
M22M
0330
0000
0000
0000
0000
2M2M
3030
0000
0000
MM22
0033
0000
0000
0000
0000
M22M
0330
,
0000
0000
0000
0000
22MM
3300
0000
0000
2M2M
3030
0000
0000
0000
0000
M2M2
0303
0000
0000
0000
0000
MM22
0033
0000
0000
M22M
0330
0000
0000
0000
0000
2M2M
3030
,
0000
0000
0000
0000
M22M
0330
0000
0000
2MM2
3003
0000
0000
0000
0000
22MM
3300
0000
0000
0000
0000
22MM
3300
0000
0000
M22M
0330
0000
0000
0000
0000
MM22
0033
,
0000
0000
0000
0000
2MM2
3003
0000
0000
2M2M
3030
0000
0000
0000
0000
M22M
0330
0000
0000
0000
0000
M22M
0330
0000
0000
M2M2
0303
0000
0000
0000
0000
2MM2
3003
,
0000
0000
0000
0000
MM22
0033
0000
0000
M2M2
0303
0000
0000
0000
0000
M22M
0330
0000
0000
0000
0000
2M2M
3030
0000
0000
M22M
0330
0000
0000
0000
0000
M2M2
0303
,
0000
0000
0000
0000
MM22
0033
0000
0000
M2M2
0303
0000
0000
0000
0000
M2M2
0303
0000
0000
0000
0000
22MM
3300
0000
0000
22MM
3300
0000
0000
0000
0000
2MM2
3003
,
0000
0000
0000
0000
M2M2
0303
0000
0000
M22M
0330
0000
0000
0000
0000
2MM2
3003
0000
0000
0000
0000
M2M2
0303
0000
0000
M22M
0330
0000
0000
0000
0000
M2M2
0303
,
0000
0000
0000
0000
MM22
0033
0000
0000
MM22
0033
0000
0000
0000
0000
M22M
0330
0000
0000
0000
0000
2M2M
3030
0000
0000
2M2M
3030
0000
0000
0000
0000
2M2M
3030
,
0000
0000
0000
0000
M22M
0330
0000
0000
M2M2
0303
0000
0000
0000
0000
M22M
0330
0000
0000
0000
0000
2M2M
3030
0000
0000
22MM
3300
0000
0000
0000
0000
2M2M
3030
,
0000
0000
0000
0000
M22M
0330
0000
0000
M2M2
0303
0000
0000
0000
0000
22MM
3300
0000
0000
0000
0000
M22M
0330
0000
0000
0200
0000
0000
0000
00M0
0000
0000
0000
,
0302
0M00
0023
0M00
0034
00M0
0203
00M0
,
0302
M000
2003
0M00
3040
0M00
0032
M000
,
0203
00M0
0302
0M00
0043
M000
0230
00M0
,
0302
M000
0203
00M0
0304
0M00
0023
M000
,
0032
00M0
0203
M000
0340
0M00
0032
00M0
,
0203
M000
0320
M000
0430
00M0
0302
M000
,
2003
00M0
3200
M000
0320
0M00
0032
0M00
,
0203
0000
M000
0000
0320
0000
M000
0000
0032
0000
0M00
0000
0103
0010
0100
1000
,
0010
0100
0010
0100
0010
0004
0000
4003
0000
0000
3100
0000
0010
1000
0001
0010
,
0001
1000
0010
1000
0001
0400
0000
4300
0000
0000
3010
0000
0010
0100
0001
0010
,
0001
0100
0010
1000
0100
0040
0000
0034
0000
0000
0103
0000
0010
1000
0010
0100
,
0010
1000
0001
0100
0001
0400
0000
0304
0000
0000
0013
0000
0001
1000
0010
0100
,
0001
0100
0001
0100
0001
0040
0000
0034
0000
0000
1003
0000
0010
0100
0001
0100
,
0010
0100
0001
0010
0001
0400
0000
4300
0000
0000
3010
0000
0010
1000
0100
0010
,
0001
0100
0010
0100
0010
4000
0000
3004
0000
0000
0013
0000
2000
0000
0000
0000
,
0000
0000
0000
0000
0000
0000
0400
0000
0000
0000
0000
0000
3310
0100
0001
0010
,
0001
0100
0010
0100
0001
1000
0010
0100
0010
1000
0001
0100
0001
0010
0100
1000
,
0010
1000
0100
1000
0010
0100
0001
1000
0010
1000
0010
1000
0100
0010
0100
0010
,
0001
0010
0100
0010
0100
1000
0001
0010
0001
1000
0001
1000
0001
1000
0001
0010
,
0100
1000
0001
1000
0100
1000
0001
0010
0100
1000
0100
0010
0100
1000
0001
0100
,
0010
1000
0001
0010
0100
1000
0001
1000
0010
0100
0010
1000
0010
0100
0001
0010
,
0100
1000
0010
0100
0001
1000
0100
0010
0001
0100
0001
0010
0001
0100
0010
0100
,
0001
0010
0001
0100
0010
0100
0010
0100
0010
1000
0100
0010
0001
0100
0010
0100
,
0010
1000
0001
0010
0001
1000
0010
0100
0001
1000
0010
0100
0010
0100
0001
0010
,
0100
0010
0100
0010
0001
0010
0100
1000
0010
0100
0010
1000
0100
0010
0001
0100
,
0010
1000
0100
1000
0100
0010
0001
0100
0001
0100
0001
0010
0001
0100
0010
1000
,
0100
0010
0001
0100
0010
0100
0001
1000
0001
0100
0010
0100
0010
0100
0010
0100
,
0001
0010
0001
0100
0010
0100
0010
0100
0010
0100
0001
0010
0100
1000
0001
0010
,
0001
0100
0010
1000
0100
0010
0001
0100
0010
1000
0001
0010
0100
1000
0001
1000
,
0100
1000
0001
0100
0010
0100
0010
1000
0001
0010
0100
1000
0010
1000
0100
1000
,
0010
1000
0100
0010
0100
1000
0010
0100
0001
1000
0010
1000
0010
0000
0200
0000
,
0000
0302
0000
0000
2003
0000
0000
3020
0000
0000
0230
0000
0301
1000
0001
1000
,
0001
1000
0001
1000
0001
0100
0001
0100
0001
0010
0001
1000
0001
1000
0001
0010
,
0001
1000
0001
0010
0001
0010
0001
0010
0001
0100
0001
1000
0010
1000
0010
1000
,
0010
1000
0100
1000
0001
1000
0001
1000
0100
1000
0100
1000
0001
1000
0001
1000
,
0010
1000
0010
1000
0010
1000
0010
1000
0001
1000
0100
0010
0100
0010
0100
0010
,
0100
0010
0001
0010
0001
0100
0001
0100
0001
0100
0001
0100
0001
0010
0001
1000
,
0001
0010
0001
1000
0001
1000
0001
1000
0001
1000
0001
0010
0001
0010
0001
0010
,
0001
0010
0100
0010
0100
0010
0100
1000
0001
1000
0001
1000
0001
1000
0001
1000
,
0010
1000
0001
1000
0001
1000
0001
1000
0001
0010
0001
0010
0001
0010
0001
0010
,
0001
0100
0001
0100
0001
0010
0100
0010
0100
0010
0100
0010
0100
0010
0001
1000
,
0001
0010
0100
0010
0100
0010
0100
0010
0100
0010
0001
0010
0001
0010
0100
0010
,
0100
0010
0100
0010
0100
0010
0001
0010
0001
0010
0100
0010
0100
0010
0100
0010
,
0100
1000
0010
1000
0010
1000
0010
1000
0100
1000
0100
1000
0100
1000
0010
1000
,
0010
1000
0001
0010
0001
0010
0001
0010
0001
0010
0001
1000
0001
1000
0001
1000
,
0001
1000
0001
0010
0100
0010
0100
0010
0100
0010
0001
0010
0001
0010
0001
0010
,
0001
0010
0100
0010
0100
0010
0100
0010
0001
0010
0001
1000
0001
0100
0010
0100
,
0010
1000
0010
1000
0010
1000
0010
1000
0010
0100
0010
0100
0010
0000
0100
1000
,
0000
1000
0100
0000
0001
0000
0001
0010
0000
1000
0001
0000
0010
0000
0100
0010
,
0000
0100
0010
0000
0010
0000
0001
0010
0000
1000
0010
0000
0001
0000
0100
1000
,
0000
1000
0100
0000
0100
0000
0010
1000
0100
0010
0100
1000
0010
0000
0100
0000
,
0001
0010
0100
0010
0001
1000
0100
1000
,
0010
1000
0100
0010
0001
0100
0001
0010
,
0001
0100
0010
0100
0010
0100
0010
1000
,
0001
0100
0010
1000
0100
1000
0100
1000
,
0001
0000
0000
0100
1000
0010
0100
0000
0000
0010
0000
0000
0001
0000
0000
0100
0000
0000
0010
0000
0000
1000
0000
0000
,
0100
0010
0001
0100
0001
0010
0100
0010
,
0001
0100
0010
1000
0100
0010
0001
1000
,
0010
0100
0001
0010
0100
1000
0010
0100
,
0001
0100
0001
0010
0100
1000
0010
0100
,
0001
0100
0001
0100
0010
1000
0100
0010
,
0001
0100
0010
1000
0100
1000
0001
1000
,
0010
0100
0001
0010
0100
1000
0010
1000
,
0100
0000
0000
0100
1000
0100
1000
0000
0000
1000
0000
0000
0010
0000
0000
0100
0000
0000
0200
0000
0000
0000
0000
0000
,
0320
0032
0203
0302
,
0023
0032
2003
3200
,
0320
0032
0203
0302
,
0203
0320
0230
0302
,
0023
0230
0320
0032
,
0203
0320
2030
3002
,
0023
0230
0320
0032
,
0203
0302
2003
3020
,
0000
0000
0000
0000
,
0000
0000
0000
0000
,
2030
0000
0000
0000
,
0000
0000
0000
0000
,
3020
0000
0000
0000
,
0000
0000
0000
0000
,
0032
0000
0000
0000
,
0000
0000
0000
0000
,
0203
0000
0000
0000
,
0000
0000
0000
0000
,
0000
0000
0300
0000
;
