#TITLE:City Of Angels;
#ARTIST:30 Seconds To Mars;
#GENRE:Cinematic Rock;
#CREDIT:B. M'Rey;
#MUSIC:City Of Angels.ogg;
#BANNER:City Of Angels-bn.png;
#BACKGROUND:City Of Angels-bg.png;
#CDTITLE:./CDTITLES/BMR Superstars.PNG;
#SAMPLESTART:52.887;
#SAMPLELENGTH:12;
#OFFSET:-0.053;
#BPMS:0=105.046;

//--------------- dance-single - B. M'Rey ----------------
#NOTES:
     dance-single:
     B. M'Rey:
     Beginner:
     1:
     0,0,0,0,0:
0000
0000
0000
0000
,
0000
0000
0000
0000
,
0000
0000
0000
0000
,
0000
0000
0000
0000
,
0010
0000
1000
0000
,
0100
0000
0000
0000
,
0001
0000
0010
0000
,
0001
0000
0000
0000
,
0100
0000
0000
0000
,
0010
0000
1000
0000
,
0001
0000
0000
0000
,
0100
0000
0000
0000
,
0010
0000
0000
0000
,
1000
0000
0000
0001
0000
0000
0000
0000
,
0100
0000
0000
0000
0010
0000
0000
1000
,
0000
0000
0000
0000
0000
0100
0000
0001
,
0000
1000
0000
0000
0000
0000
0100
0000
,
0001
0000
0010
0000
,
0200
0000
0000
0300
,
1000
0000
0000
0001
,
0100
0000
0000
0000
,
0010
0000
0000
0000
,
1000
0000
0000
0000
,
0000
0001
0000
0100
,
0200
0000
0000
0000
0000
0310
0000
0000
,
0000
1000
0000
0001
,
0020
0000
0000
0130
0000
0000
0000
1000
,
0000
0000
0000
0000
,
0001
0000
0100
0000
,
0010
0000
1000
0000
,
1000
0000
0010
0000
,
0100
0000
0001
0000
,
1001
0000
0000
0000
,
0100
0000
0000
0000
,
0010
0000
0000
0000
,
0001
0000
0000
0000
,
1000
0000
0000
0000
,
0010
0000
0000
0000
,
0100
0000
0000
0000
,
0001
0000
0000
0000
,
0110
0000
0000
0000
,
1010
0000
0000
0000
,
0100
0000
0001
0000
,
1000
0000
0000
0000
,
0001
0000
0000
0000
,
0000
0000
0000
0000
,
1000
0000
0000
0000
,
0000
0010
0000
0100
,
0020
0000
0000
0000
0000
0130
0000
0000
,
0000
1000
0000
0001
,
0200
0000
0000
0310
0000
0000
0000
1000
,
0000
0000
0000
0000
,
0001
0000
0010
0000
,
0100
0000
1000
0000
,
1000
0000
0100
0000
,
0010
0000
0001
0000
,
1100
0000
1000
0000
,
0010
0000
0100
0000
,
1001
0000
0100
0000
,
0010
0000
0001
0000
,
1001
0000
0000
0000
;

//--------------- dance-single - B. M'Rey ----------------
#NOTES:
     dance-single:
     B. M'Rey:
     Easy:
     3:
     0,0,0,0,0:
0000
0000
0000
0000
,
0000
0000
0000
0000
,
0000
0000
0000
0000
,
0000
0000
0000
0000
,
0001
0010
1000
0000
,
0100
0000
0010
0000
0000
2002
0000
3003
,
0001
0100
0010
0000
,
0001
0000
1000
0000
0000
0010
0000
0100
,
0000
0001
0000
0000
0000
0000
1000
0000
,
0010
0000
0100
0000
0000
0000
0000
0001
,
0000
2000
0000
3000
0000
0000
0000
0000
,
0010
0100
0001
1000
,
0010
0100
0000
0000
,
0001
0010
0000
0000
,
0100
0000
0000
0010
0000
0000
0000
1000
,
0000
0000
0000
0000
0000
0001
0000
0010
,
0000
0200
0000
0300
0000
0000
1000
0000
,
0010
0000
0200
0000
0000
0300
0001
0000
,
2000
0000
0000
3000
,
0010
0100
0000
0001
,
0020
0000
0000
0031
0000
0000
0000
0000
,
1001
0000
0000
0010
,
0100
0000
0000
0000
0000
0001
0000
1000
,
0000
0010
0100
0000
0001
0000
0010
1000
,
2000
0000
0000
0200
0000
0000
0000
3300
,
0000
0010
0100
0000
1000
0000
0100
0002
,
0000
0000
0000
0020
0000
0000
0033
0200
,
0000
0300
1000
0000
0100
0000
0001
1000
,
0100
0010
0100
0001
,
0010
0000
0001
0000
0100
0000
0010
0001
,
1000
0100
1000
0100
,
0010
0000
0100
0000
0001
0000
0010
1000
,
0001
0000
0100
0000
0010
0000
0001
1000
,
0000
0010
0000
0100
0000
0000
0001
2000
,
0000
0000
3010
0100
0000
0010
0000
2000
,
0000
0000
3001
0100
0000
0010
0000
0000
,
2001
0000
3020
0000
,
0230
0000
0302
0000
,
0023
0000
0032
0000
,
0203
0000
0320
0000
,
0032
0000
0000
2000
0000
0000
3013
0000
,
0200
0000
0000
0302
0000
0000
1003
0000
,
0010
0000
0000
0100
0000
0001
0000
1000
,
0010
0000
0000
0000
,
0020
0000
0000
0230
0000
0000
0000
0302
,
0000
0000
0000
0000
,
2003
0000
0000
3020
0000
0000
0000
0130
,
0000
0001
1000
0000
0010
0000
0100
0001
,
2000
0000
0000
0020
0000
0000
0000
3030
,
0000
0100
0010
0000
1000
0000
0010
0002
,
0000
0000
0000
0200
0000
0000
0303
0020
,
0000
0030
1000
0000
0010
0000
0001
1000
,
0010
0100
0010
0001
,
0100
0000
0001
0000
0010
0000
0100
0001
,
1000
0010
1000
0010
,
0100
0010
0001
0100
,
0010
0110
0110
0001
,
0011
0000
0011
0000
2002
0000
0000
3003
,
0010
0110
0110
0010
,
1010
1010
0001
0010
,
0200
0000
0000
0302
0000
0000
0000
0000
,
0023
0000
0000
2030
0000
0000
0000
0000
,
0200
0000
0000
0000
,
3300
0000
0000
0000
;

//--------------- dance-single - B. M'Rey ----------------
#NOTES:
     dance-single:
     B. M'Rey:
     Medium:
     6:
     0,0,0,0,0:
0000
0000
0000
0000
,
0000
0000
0000
0000
,
0000
0000
0000
0000
,
0000
0000
0000
0000
,
0001
0010
1000
0200
0000
0320
0000
0000
,
0031
0010
0100
0001
0000
2000
0000
0000
,
3010
0100
0010
0001
0000
1000
0000
0000
,
0010
0100
0001
0010
0000
1000
0100
1000
,
0000
0010
0000
0000
0000
0000
0100
0001
,
0010
0000
0000
1000
0000
0000
0100
0000
0000
0000
0000
0000
0001
0000
0010
0000
,
0000
0100
0000
0000
0000
0000
0010
0000
,
1000
0000
0000
0001
0000
0000
0010
0000
0000
0000
0100
0000
0000
0000
0001
0000
,
0000
0000
1001
0000
0000
0000
0000
0010
,
0100
0000
0000
1000
0000
0000
0001
0000
0000
0000
0000
0000
0000
0000
0010
0000
,
0100
0001
0000
2002
0000
3003
0010
0100
,
0000
0010
0000
1000
0000
1001
0000
0101
,
0000
0000
0220
0000
0000
0330
0000
0000
0000
0000
0000
0000
0001
0000
0010
0000
,
1000
0000
0000
0100
0000
0000
0020
0000
0000
0000
0030
0000
1000
0000
0010
0000
,
2000
0000
0000
0002
0000
3003
0010
0000
,
0100
0000
0000
0001
0000
0000
0020
0000
0000
0000
1030
0000
0100
0000
1000
0000
,
0020
0000
0000
0230
0000
0000
0000
0000
,
2302
0000
0000
3003
0000
0000
0001
0010
,
0100
0000
0100
0000
0000
0010
0000
1000
,
0000
0001
0010
0001
0010
0100
1000
0100
,
2000
0000
0000
0020
0000
3130
0000
0001
,
0000
0010
0001
0010
0100
0010
1000
0200
,
0000
0000
0000
0020
0000
0331
0000
0010
,
1000
0100
1000
0000
0010
0100
0001
0000
,
0010
0100
1000
0000
0100
0010
1000
0002
,
0000
0023
0000
0230
0000
0301
0010
0002
,
0000
0000
1003
0200
0000
0320
0000
0230
,
0000
0000
0301
0010
0000
1000
0100
2000
,
0000
3020
0000
0230
0000
0301
0010
0002
,
0000
2003
0000
3020
0000
0030
0010
0200
,
0000
0000
0301
0020
0000
2030
0000
3020
,
0000
0000
0130
0010
0001
0000
1000
0000
,
0020
0000
0230
0000
,
0302
0000
2003
0000
,
3020
0000
0230
0000
,
0320
0000
0032
0000
,
0013
0100
0001
0000
0010
0000
1000
0000
,
0010
0100
0001
0010
0000
0000
1000
0000
,
0001
0100
0010
0000
0101
0000
1010
0000
,
0010
0100
0001
1000
0000
0200
0000
0000
,
2300
0000
0000
3020
0000
0000
0130
0002
,
0000
1000
0000
1003
0000
0010
1000
0010
,
2000
0000
0000
3020
0000
0000
1030
0200
,
0000
0301
0010
0001
0010
1000
0100
1000
,
0002
0000
0013
0100
0002
0000
0013
0100
,
1000
0100
1000
0010
0100
0001
0010
1000
,
0200
0000
0310
0002
0000
0000
0013
0100
,
0000
0001
0010
0000
1000
0100
1000
0010
,
0100
0001
0000
0010
0000
1000
0100
0010
,
0000
1000
0000
0001
0000
0010
0100
0002
,
0000
0003
1000
0010
0000
0100
0000
0020
,
0000
1030
0100
1000
0000
0010
1000
0001
,
0001
0000
0101
0000
1010
0000
0010
0110
,
0000
0101
0000
0010
2000
0000
0100
0000
,
3010
0000
0101
0000
1010
0000
0010
0110
,
0000
0110
0000
0001
1000
0011
1100
0011
,
2002
0000
0000
0000
0000
3003
0220
0000
0000
0000
0000
0000
0000
0000
0000
0330
,
0202
0000
0000
0000
0000
0303
2020
0000
0000
0000
0000
0000
0000
0000
0000
0000
,
0000
0000
0000
0000
,
3030
0000
0000
0000
;

//--------------- dance-single - B. M'Rey ----------------
#NOTES:
     dance-single:
     B. M'Rey:
     Hard:
     7:
     0,0,0,0,0:
0000
0000
0000
0000
,
0000
0000
0000
0000
,
0000
0000
0000
0000
,
0000
0000
0000
0000
,
0001
1000
0100
1000
0000
0001
0000
0100
,
0010
0000
1000
0000
0001
0000
0010
0000
0000
0000
0001
1000
0001
1000
0001
1000
,
0001
0010
0100
0001
0000
0010
0000
1000
,
0001
0010
0001
0100
0000
0001
1000
0010
,
0000
0200
0000
0300
0000
0000
0001
0010
,
1000
0000
0000
0001
0000
0000
0200
0000
0000
0000
0300
0000
0001
0000
1000
0000
,
0000
0200
0000
0300
0000
0000
0000
0001
,
0010
0000
0000
1000
0000
0000
0100
0000
0000
0000
0001
0000
0010
0000
0200
0000
,
0000
0000
0301
0000
0000
0000
0000
0001
,
1000
0000
0000
0010
0000
0000
0200
0000
0300
0000
0000
0000
0000
0000
0001
0000
,
0010
1000
0000
0002
0000
0000
0103
2000
,
3000
0010
0100
0000
0000
0101
0000
1010
,
0000
0220
0000
0330
0000
0000
0001
0010
,
0002
0000
0000
0203
0000
0000
2300
0000
0000
0000
0000
0000
0000
0000
3400
0000
,
0000
0000
0310
0000
,
0001
0000
0000
0010
0000
0000
1000
0000
0000
0000
0100
0000
0010
0000
1000
0000
,
0002
0000
0000
0103
0000
0000
0000
0000
,
1001
0000
0000
0000
0000
0000
0100
0010
,
0000
0000
0000
0000
0000
0001
0000
0001
,
1000
0010
0100
0001
0010
1000
0100
0001
,
0040
0000
0000
0130
0000
0001
0010
1000
,
0001
0010
0001
0100
0010
1000
0100
0001
,
0020
0000
0000
0130
0001
0010
1000
0001
,
0001
0000
1000
0000
0001
0000
0010
0000
0100
0000
0001
1000
0001
1000
0001
0000
,
0010
0100
0010
0001
0100
1000
0010
0100
,
0001
0010
1000
0200
0000
0310
0001
0020
,
0000
0000
0130
1000
0000
0001
0100
0020
,
0000
0000
0000
0000
0130
0000
1000
0000
0000
0000
0001
1000
0001
1000
0001
1000
,
0001
0100
0010
0001
0100
1000
0010
0100
,
0001
0010
1000
0200
0000
0300
0001
0020
,
0000
0000
0130
1000
0000
0001
0100
0020
,
0000
0000
0130
1000
0000
0100
0000
0001
,
0020
0M00
0000
0000
0230
000M
0000
0000
,
0302
M000
0000
0000
2003
00M0
0000
0000
,
3020
0M00
0000
0000
0230
000M
0000
0000
,
0302
00M0
0000
0000
0023
0000
0000
0000
,
0031
1000
0001
1000
0001
0000
0010
0000
0100
0000
0010
0000
0100
0000
0010
0000
,
0001
1000
0001
1000
0001
0000
0010
0000
0100
0000
0000
0000
0001
0000
0000
0000
,
0001
1000
0001
1000
0001
0000
0000
0000
0100
0000
0010
0000
0010
0000
0100
0000
,
0001
1000
0001
1000
0002
0000
0000
0000
0023
0000
0000
0000
0000
0000
0000
0000
,
0230
0000
0000
0320
0000
0000
0032
4003
,
0000
0000
0000
0000
0000
0000
3001
0000
0000
0000
0010
0100
0010
0100
0010
0000
,
0020
0000
0000
0230
0000
0000
0302
2003
,
3010
0000
0001
0000
0100
0000
0001
0000
0010
0000
1000
0001
1000
0001
1000
0001
,
0040
0000
0000
0130
0000
0001
0010
1000
,
0001
0010
0001
0100
0010
1000
0100
0001
,
0020
0000
0000
0130
0001
0010
1000
0001
,
0001
1000
0001
1000
0001
0000
0010
0000
0100
0000
0001
0000
0100
0000
1000
0000
,
0010
0100
0010
0001
0100
1000
0010
0100
,
0001
0010
1000
0200
0000
0300
0001
0020
,
0000
0000
0130
1000
0000
0001
0100
0020
,
0000
0000
0000
0000
0130
0000
1000
0000
0000
0000
0001
1000
0001
1000
0001
1000
,
0010
0000
0110
0000
0011
0000
0100
0001
,
0010
1000
0000
0000
2002
0000
0000
0000
,
3013
0000
0110
0000
1100
0000
0100
0001
,
1000
0010
0000
0000
1001
1001
1001
1001
,
2002
0000
0000
0020
0000
0000
0000
3033
,
0200
0000
0000
0002
0000
0000
0000
0000
,
2000
0000
0000
0000
,
3303
0000
0000
0000
;

//--------------- dance-single - B. M'Rey ----------------
#NOTES:
     dance-single:
     B. M'Rey:
     Challenge:
     9:
     0,0,0,0,0:
0000
0000
0000
0000
,
0000
0000
0000
0000
,
0000
0000
0000
0000
,
0000
0000
0000
0000
,
2000
0000
0000
0000
0000
0000
0000
0000
3200
0000
0000
0000
0000
0000
0000
0000
0302
0000
0000
0000
0000
0000
0000
0000
0023
0000
0000
0000
0000
0000
0000
0000
0000
0000
0000
0000
0000
0000
0000
0030
0040
0000
0000
0000
0000
0000
0000
0000
0000
0000
0000
0000
0000
0000
0000
0000
0230
0000
0000
0000
0000
0000
0000
0000
,
2300
0000
3020
0000
0230
0000
0302
0000
0000
0000
1003
0100
0010
0001
0010
0100
,
2000
3200
0302
0023
0000
4030
0000
3002
,
0023
0230
0302
0023
0000
2030
0000
3002
,
0103
0010
0100
0010
0100
0000
0000
0000
0000
0000
1100
0000
0000
0000
0011
0000
,
1000
0100
0010
0001
0010
0000
0000
0000
0000
0000
0000
0000
0110
0000
0000
0000
,
1000
0100
1000
0100
1000
0000
0000
0000
0000
0000
0011
0000
0000
0000
1100
0000
,
0010
0100
0010
0100
0010
0000
0000
0000
0000
0000
0011
0000
0000
0000
0000
0000
,
0010
0100
0010
0100
0010
0000
0000
0000
0000
0000
1100
0000
0000
0000
0101
0000
,
1000
0100
1000
0100
1000
0000
0000
0000
0000
0000
0110
0000
0000
0000
0000
0000
,
0001
0010
0001
0010
0001
0000
0000
0000
0000
0000
1100
0000
0000
0000
1001
0000
,
0010
0100
0010
0100
0010
0000
0000
0000
0000
0000
1100
0000
0000
0000
0110
0000
,
0100
0010
0100
0010
0100
0000
0001
0000
0010
0000
1100
0000
0100
0000
0011
0000
,
1000
0100
0010
0001
0010
0000
0100
0000
1000
0000
0001
0100
0010
0001
0010
0100
,
1000
0100
1000
0100
1000
0000
0100
0000
1000
0000
0011
0000
0001
0000
1100
0000
,
0010
0100
0010
0100
0010
0000
1000
0000
0100
0000
0010
0100
0001
0100
1000
0001
,
0010
0100
0010
0100
0010
0000
0100
0000
0001
0000
1100
0000
0010
0000
0101
0000
,
1000
0100
1000
0100
1000
0000
0100
0000
0001
0000
0100
0010
1000
0001
0100
0010
,
0001
0010
0001
0010
0001
0000
0010
0000
0001
0000
1100
0000
0010
0000
1001
0000
,
0010
0100
0010
0100
0010
0000
0001
0000
0010
0000
1000
0100
0010
0001
0010
0100
,
1000
0100
0001
0010
0001
0100
1000
0010
,
0100
0000
0001
0000
0010
0000
0100
0000
0010
0000
0100
1000
0100
1000
0100
1000
,
0100
0010
0100
0001
0100
0010
1000
0100
,
1000
0000
0010
0000
0001
0000
0100
0000
0010
0000
0100
0010
1000
0001
0100
1000
,
0010
0001
0010
0100
0010
0100
1000
0100
,
1000
0000
0010
0000
0100
0000
0001
0000
0010
0000
0100
0001
1000
0100
0010
0001
,
0100
0010
0001
0100
0010
0001
0100
1000
,
0010
0000
0100
0000
0001
0000
0100
0000
1000
0000
0100
0010
0100
0010
0100
0010
,
0200
03M0
0002
M003
0200
030M
0020
0M30
,
2000
300M
0200
03M0
0002
M003
0020
003M
,
0200
03M0
2000
300M
0020
M030
0200
03M0
,
2000
3M00
0002
M003
0020
003M
0200
03M0
,
0002
0000
0000
1003
0100
0000
0000
0010
,
0001
0000
0000
0100
0010
0000
0000
1000
,
0100
0000
0000
0001
0010
0000
0000
0100
,
0010
0000
0000
1000
0100
0000
0000
0000
,
1000
0100
1000
0100
1000
0000
0000
0000
0010
0000
0110
0000
0010
0000
0011
0000
,
0100
0010
0100
0010
0100
0000
0000
0000
0010
0000
0000
0000
0010
0000
0000
0000
,
1000
0001
1000
0001
1000
0000
0000
0000
0010
0000
0110
0000
0001
0000
1001
0000
,
0100
0010
0001
0010
0100
0000
0000
0000
0000
0000
0000
0000
0000
0000
0000
0000
,
0001
0100
1000
0100
0010
0001
0010
0100
1000
0100
1000
0100
1000
0001
0100
0010
,
0001
0100
1000
0010
0001
0010
0100
1000
0100
1000
0010
0001
0100
0010
0001
0100
,
0010
1000
0100
0010
0001
0010
0100
0010
0001
0100
1000
0100
0010
0001
0010
1000
,
0010
0100
0010
0100
0010
0000
0001
0000
0010
0000
1000
0100
0010
0001
0010
0100
,
1000
0100
0001
0010
0001
0100
1000
0010
,
0100
0000
0001
0000
0010
0000
0100
0000
0010
0000
0100
1000
0100
1000
0100
1000
,
0100
0010
0100
0001
0100
0010
1000
0100
,
1000
0000
0010
0000
0001
0000
0100
0000
0010
0000
0100
0010
1000
0001
0100
1000
,
0010
0001
0010
0100
0010
0100
1000
0100
,
1000
0000
0010
0000
0100
0000
0001
0000
0010
0000
0100
0001
1000
0100
0010
0001
,
0100
0010
0001
0100
0010
0001
0100
1000
,
0010
0000
0100
0000
0001
0000
0100
0000
1000
0000
0100
0010
0100
0010
0100
0010
,
0001
0100
1000
0100
0010
0001
0010
0100
1000
0100
1000
0100
1000
0001
0100
0010
,
0001
0100
1000
0010
0001
0010
0100
1000
0100
1000
0010
0001
0100
0010
0001
0100
,
0010
1000
0100
0010
0001
0010
0100
0010
0001
0100
1000
0100
0010
0001
0010
1000
,
0010
0100
0010
0100
0010
0000
0001
0000
0010
0000
1100
0000
0110
0000
0110
0000
,
2000
3200
0302
0023
0000
2030
0000
3200
,
0302
0023
0230
2300
0000
000M
0000
0000
,
0200
0000
0000
0000
,
3300
0000
0000
0000
;
