#VERSION:0.83;
#TITLE:Cheri, Cheri, Lady;
#ARTIST:Modern Talking;
#GENRE:Euro Disco;
#CREDIT:B. M'Rey;
#MUSIC:Cheri, Cheri Lady.ogg;
#BANNER:Cheri, Cheri Lady-bn.png;
#BACKGROUND:Cheri, Cheri Lady-bg.png;
#CDTITLE:./CDTITLES/Dancemania Super Classics 4.PNG;
#SAMPLESTART:43.831;
#SAMPLELENGTH:15;
#OFFSET:-0.463;
#BPMS:0=114.116;

//--------------- dance-single - B. M'Rey ----------------
#NOTEDATA:;
#STEPSTYPE:dance-single;
#DESCRIPTION:B. M'Rey;
#CREDIT:B. M'Rey;
#DIFFICULTY:Beginner;
#METER:2;
#RADARVALUES:0.124246,0.138485,0.006795,0,0.431465,128,127,1,0,0,0,0.124246,0.138485,0.006795,0,0.431465,128,127,1,0,0,0;
#NOTES:
0000
0000
0000
0000
,
0000
0000
0000
0000
,
0000
0000
0000
0000
,
0000
0000
0000
0000
,
0000
0000
0000
0000
,
0000
1000
0000
0000
,
0000
0001
0000
0000
,
0000
0010
0000
0000
,
0000
0100
0000
0000
,
0000
1000
0000
0010
,
0000
1000
0000
0010
,
0000
0001
0000
0100
,
0000
0010
0000
0000
,
0000
0001
0000
0010
,
0000
0001
0000
1000
,
0000
0100
0000
0001
,
0000
1000
0000
0000
,
0000
1000
0000
0000
,
0000
0100
0000
0000
,
0000
0010
0000
0000
,
0000
0000
0000
0001
,
0000
0100
0000
0010
,
0000
1000
0000
0100
,
0000
0010
0000
1000
,
0000
0010
0000
1000
,
0000
0010
0000
0001
,
0000
0100
0000
0010
,
0000
0100
0000
0001
,
0000
0010
0000
0001
,
0000
1000
0000
0100
,
0000
0001
0000
1000
,
0000
0100
0000
1000
,
0000
0100
0000
1000
,
0000
0010
0000
0100
,
0000
0010
0000
1000
,
0000
0100
0000
1000
,
0000
0001
0000
0010
,
0000
1000
0000
0000
,
0000
0010
0000
0000
,
0000
0001
0000
0000
,
0000
0100
0000
0000
,
0000
0001
0000
0000
,
0000
0100
0000
0000
,
0000
0001
0000
0000
,
0000
1000
0000
0000
,
0000
0010
0000
0000
,
0000
1000
0000
0000
,
0000
0010
0000
0001
,
0000
0100
0000
0010
,
0000
1000
0000
0100
,
0000
1000
0000
0001
,
0000
0010
0000
1000
,
0000
0001
0000
0010
,
0000
0001
0000
0010
,
0000
0001
0000
0100
,
0000
0000
0000
0001
,
0000
1000
0000
0100
,
0000
0001
0000
0100
,
0000
0010
0000
1000
,
0000
0100
0000
0010
,
0000
1000
0000
0010
,
0000
1000
0000
0010
,
0000
0001
0000
0100
,
0000
0000
0000
1000
,
0000
0000
0000
0000
,
0000
0010
0000
0000
,
0000
0100
0000
0000
;

//--------------- dance-single - B. M'Rey ----------------
#NOTEDATA:;
#STEPSTYPE:dance-single;
#DESCRIPTION:B. M'Rey;
#CREDIT:B. M'Rey;
#DIFFICULTY:Easy;
#METER:4;
#RADARVALUES:0,0,0,0,0;
#NOTES:
0000
0000
0000
0000
,
0000
0000
0000
0000
,
0000
0000
0000
0000
,
0000
0000
0000
0000
,
0000
0000
0000
0000
,
0000
0010
0000
0001
,
0000
0010
0000
1000
,
0000
0100
0000
0001
,
0000
0100
0000
0000
,
0001
0100
0000
0100
,
0010
1000
0000
0100
,
0000
0010
0000
0001
,
0000
1100
0000
0000
,
0001
0010
0000
1000
,
0100
0010
0000
1000
,
0000
0010
0000
1000
,
0001
0010
0000
0000
,
0010
2000
0000
0000
,
3001
0010
0000
0000
,
0100
0020
0000
0000
,
0000
0030
0000
0100
,
0000
0100
0000
0010
,
0100
0010
0000
0010
,
0100
1000
0000
1000
,
0010
0000
0000
0100
,
0010
1000
0000
0100
,
0001
0100
0000
1000
,
0001
1000
0000
0100
,
0010
0100
0000
0100
,
0010
1000
0000
1000
,
0001
1000
0000
0010
,
0001
0010
0000
1000
,
0000
0001
0000
1000
,
0001
0100
0000
0010
,
0000
0100
0000
1000
,
0000
0100
0000
1000
,
0010
0100
0000
1000
,
0000
0001
0000
0000
,
0000
0100
0000
0000
,
0000
1000
0000
0000
,
0000
0010
0000
0100
,
0000
1000
0000
0001
,
0000
1000
0000
0100
,
0000
0010
0000
0000
,
0000
0010
0000
1000
,
0000
0010
0000
0001
,
0000
0010
0000
0000
,
0100
0010
0000
0100
,
0010
1000
0000
1000
,
0001
1000
0000
0010
,
0001
0010
0000
1000
,
0000
0001
0000
1000
,
0001
0100
0000
0010
,
0000
0100
0000
1000
,
0000
0100
0000
1000
,
0010
0000
0000
0100
,
0010
1000
0000
1000
,
0001
1000
0000
0010
,
0001
0010
0000
1000
,
0000
0001
0000
1000
,
0001
0100
0000
0010
,
0000
0100
0000
1000
,
0000
0100
0000
1000
,
0010
0000
0000
0010
,
0000
0010
0000
1000
,
0000
1000
0000
0010
,
0000
0100
0000
0001
;

//--------------- dance-single - B. M'Rey ----------------
#NOTEDATA:;
#STEPSTYPE:dance-single;
#DESCRIPTION:B. M'Rey;
#CREDIT:B. M'Rey;
#DIFFICULTY:Medium;
#METER:6;
#RADARVALUES:0.225197,0.27697,0.1291,0.197047,0.723638,232,213,19,29,0,1,0.225197,0.27697,0.1291,0.197047,0.723638,232,213,19,29,0,1;
#NOTES:
0000
0000
0000
0000
,
0000
0000
0000
0000
,
0000
0000
0000
0000
,
0000
0000
0000
0000
,
0000
0000
0000
0000
,
0000
0002
0000
0203
,
0000
0320
0000
2030
,
0000
3002
0000
0000
,
0203
0000
0000
0000
,
0301
0010
1000
0010
,
0100
0001
0010
0001
,
0100
1000
0010
0100
,
0010
0002
0000
0000
,
1003
0010
1000
0100
,
0100
1000
0010
0100
,
0001
0010
0100
0010
,
0001
2000
0000
3010
,
0100
0002
0000
0000
,
1003
0020
0000
0031
,
0010
0200
0000
0000
,
0000
0000
0000
0320
,
0000
0130
1000
0001
,
0010
0001
0100
0010
,
1000
0100
1000
0001
,
0010
0200
0010
0320
,
0000
0031
0010
0001
,
1000
0100
1000
0010
,
0100
0001
0010
0001
,
0100
0010
1001
1001
,
1001
0020
0000
0031
,
0010
0100
0001
1000
,
0100
0010
1000
0001
,
0010
1000
0101
0101
,
0101
0010
1000
0010
,
0100
0001
0010
0001
,
0100
1000
0010
0100
,
0001
0010
0001
0100
,
0010
1000
0010
0100
,
0001
1000
0010
0100
,
0001
0010
1000
0010
,
0001
0002
0000
0203
,
0000
0320
0000
2030
,
0000
3002
0000
0000
,
0203
0000
0000
0000
,
0300
0002
0000
0203
,
0000
0320
0000
2030
,
0000
3002
0000
0000
,
0203
0000
1301
1001
,
1001
0020
0000
0031
,
0010
0100
0001
1000
,
0100
0010
1000
0001
,
0010
1000
0101
0101
,
0101
0010
1000
0010
,
0100
0001
0010
0001
,
0100
1000
0010
0100
,
0001
0010
1001
1001
,
1001
0020
0000
0031
,
0010
0100
0001
1000
,
0100
0010
1000
0001
,
0010
1000
0101
0101
,
0101
0010
1000
0010
,
0100
0001
0010
0001
,
0100
1000
0010
0100
,
0001
0010
0001
0100
,
0010
1000
0010
0100
,
0001
1000
0010
0100
,
0001
0000
0010
0000
1000
0000
0010
0010
,
0010
0010
1000
0001
,
0010
0110
0000
0000
;

//--------------- dance-single - B. M'Rey ----------------
#NOTEDATA:;
#STEPSTYPE:dance-single;
#DESCRIPTION:B. M'Rey;
#CREDIT:B. M'Rey;
#DIFFICULTY:Hard;
#METER:9;
#RADARVALUES:0.339736,0.395262,0.149484,0.36012,1.087156,350,328,22,53,0,4,0.339736,0.395262,0.149484,0.36012,1.087156,350,328,22,53,0,4;
#NOTES:
0000
0000
0000
0000
,
0000
0000
0000
0000
,
0000
0000
0000
0000
,
0000
0000
0000
0000
,
0000
0000
0000
0000
,
0000
0200
2300
3002
,
0013
1000
0002
0000
0203
0000
2300
0000
,
3001
0010
2000
0000
3002
0000
0203
0000
,
0301
1000
0001
0000
1000
0000
0001
0000
,
1000
0001
0010
0000
0001
0100
1000
0000
,
0001
0010
1000
0000
0100
1000
0001
0000
,
0010
1000
0001
0000
0010
1000
0000
0000
,
1000
0100
0020
0000
0000
0030
0000
0000
,
0010
1000
0100
0000
0100
0010
1000
0000
,
0001
1000
0100
0000
1000
1000
1000
0000
,
0010
0000
1000
0001
0000
0000
0000
0000
1000
0000
0010
1000
0000
0000
0000
0000
,
0100
0010
2000
0000
3000
0000
0000
1000
,
0010
0100
1000
0000
1001
0000
1010
0000
,
0100
0000
1000
0000
0020
0000
0000
0000
0000
0000
0000
0000
0000
0030
1000
0000
,
0100
0000
0001
2000
0000
0000
0000
0000
0000
0000
0000
0000
0000
0000
0000
0000
,
0000
0000
3000
0000
0000
0000
1000
0100
,
1000
0000
0100
0000
1000
0000
0000
0010
0000
0000
0000
0000
1000
0000
0010
0000
,
0100
0000
1000
0000
0001
0000
0000
0010
0000
0000
0000
0000
1000
0000
0100
0000
,
0001
0000
0100
0000
1000
0000
0000
0001
0000
0000
0000
0000
0010
0000
0100
0000
,
1000
0002
0000
0000
0000
0003
0010
0001
,
0010
0000
0001
0000
0010
0000
0000
1000
0000
0000
0000
0000
0010
0000
1000
0000
,
0001
0000
0100
0000
0000
0000
0000
0010
0000
0000
0000
0000
1000
0000
0010
0000
,
0100
0000
0001
0000
0100
0000
0000
1000
0000
0000
0000
0000
1000
0000
0010
0000
,
0001
1000
0000
0000
0000
0000
1010
0000
,
1001
0000
0020
0000
1030
0000
1000
0001
,
0010
1000
0020
0000
1030
0000
1000
0001
,
0010
1000
0200
0000
1300
0000
0001
0010
,
1000
0010
0000
0000
0000
0000
1000
0010
,
1000
0010
2000
0000
3001
0000
0001
0010
,
1000
0010
0001
0000
1000
0000
0001
0010
,
1000
0100
0001
0000
0100
0000
0010
1000
,
0010
0001
1000
0000
0100
0000
0200
0000
,
0000
0302
0000
0000
,
0000
0023
0000
0000
,
0000
2030
0000
0000
,
0000
3200
2300
3002
,
0013
1000
0002
0000
0203
0000
2300
0000
,
3001
0010
2000
0000
3002
0000
0203
0000
,
0301
1000
0001
0000
1000
0000
0001
0000
,
1000
0010
0200
0000
2300
0000
3002
0000
,
0013
1000
0002
0000
0203
0000
2300
0000
,
3001
0010
2000
0000
3002
0000
0203
0000
,
0301
1000
0001
0000
1000
0000
1010
0000
,
1001
0000
0020
0000
1030
0000
1000
0001
,
0010
1000
0020
0000
1030
0000
1000
0001
,
0010
1000
0200
0000
1300
0000
0001
0010
,
1000
0010
0000
0000
0000
0000
1000
0010
,
1000
0010
2000
0000
3001
0000
0001
0010
,
1000
0010
0001
0000
1000
0000
0001
0010
,
1000
0100
0001
0000
0100
0000
0010
1000
,
0020
0000
0000
0000
0000
0030
1010
0000
,
1001
0000
0020
0000
1030
0000
1000
0001
,
0010
1000
0020
0000
1030
0000
1000
0001
,
0010
1000
0200
0000
1300
0000
0001
0010
,
1000
0010
0000
0000
0000
0000
1000
0010
,
1000
0010
2000
0000
3001
0000
0001
0010
,
1000
0010
0001
0000
1000
0000
0001
0010
,
1000
0100
0001
0000
0100
0000
0010
1000
,
0200
0000
0000
1301
,
0110
0101
0000
1010
,
0000
0101
0000
0110
,
0101
0011
0000
1100
,
0000
0110
0000
0011
,
1100
0011
0000
0000
;

//--------------- dance-single - B. M'Rey ----------------
#NOTEDATA:;
#STEPSTYPE:dance-single;
#DESCRIPTION:B. M'Rey;
#CREDIT:B. M'Rey;
#DIFFICULTY:Challenge;
#METER:11;
#RADARVALUES:0.479513,0.511983,0.1291,0.169868,1.307984,494,475,19,25,0,0,0.479513,0.511983,0.1291,0.169868,1.307984,494,475,19,25,0,0;
#NOTES:
0000
0000
0000
0000
,
0000
0000
0000
0000
,
0000
0000
0000
0000
,
0000
0000
0000
0000
,
0000
0000
0000
0000
,
0000
0000
0000
0000
1000
0000
1000
0000
0010
0000
0010
0000
0100
0000
0100
0010
,
0000
0001
0010
0000
0100
0000
0100
0000
1000
0000
1000
0000
0010
0000
0010
0100
,
0000
0010
0001
0000
0010
0000
0010
0000
0100
0000
0100
0000
1000
0000
1000
0100
,
0000
0001
0010
0000
0100
1000
0100
0000
0010
0001
0010
0000
0100
0000
0000
0000
,
0010
0000
0100
0000
0001
0000
0010
0000
0100
1000
0000
0010
0000
0000
0000
0000
,
0100
0000
0001
0000
0010
0000
0100
0000
1000
0000
0010
0100
0000
0000
0000
0000
,
0001
0000
0010
0000
0100
0000
1000
0000
0001
0100
0010
0000
0000
0000
0100
0000
,
0010
0000
1000
0000
0001
0000
0000
0000
0100
0000
0001
0000
0010
1000
0100
0000
,
0001
0000
0010
0000
1000
0000
0000
0000
1000
0000
0001
0100
0010
0000
0000
0000
,
0100
0010
1000
0000
0110
0011
1010
0100
,
0001
0000
0010
0100
0000
0000
1000
0000
0010
0000
0001
0010
0000
0000
0100
0000
,
1000
0000
0001
0000
0020
0000
0000
0000
1030
0000
0100
0000
0010
0100
0010
0000
,
0001
1000
0010
0000
0110
0000
0011
0000
,
1000
0000
0010
0000
0002
0000
0000
0000
0000
0000
0000
0000
0000
0003
0010
0000
,
0100
0000
1000
0200
0000
0000
0000
0000
0000
0000
0000
0000
0000
0000
0302
0000
,
0203
0000
0320
0000
2000
0030
0000
0000
0000
3000
0000
0000
0110
0000
0011
0000
,
1100
0000
0110
0000
0011
0000
0000
0100
0000
0000
0000
0000
0010
0000
0001
0000
,
1000
0000
0010
0000
0100
0000
0000
0001
0000
0000
0000
0000
0010
0000
1000
0000
,
0100
0000
1000
0000
0010
0000
0000
0100
0000
0000
0000
0000
0001
0000
1000
0000
,
0010
0000
0100
0002
0000
0000
0000
0000
0000
0003
0000
0000
0110
0000
0101
0000
,
1010
0000
0110
0000
1001
0000
0000
0010
0000
0000
0000
0000
0001
0000
0010
0000
,
0100
0000
1000
0020
0000
0000
0000
0031
0000
0000
0000
0000
0010
0000
0001
0000
,
1000
0000
0100
0000
1000
0000
0000
0100
0000
0000
0001
0000
0010
0000
0001
0000
,
0100
0000
0010
0001
0000
0000
0000
0000
1000
0000
0000
0000
0010
0000
0001
0000
,
0100
0000
0010
0000
0002
0000
0000
4003
0000
0000
0000
0000
3010
0000
0100
0000
,
0001
0000
0010
0000
0002
0000
0000
4003
0000
0000
0000
0000
3010
0000
0100
0000
,
0001
0000
0010
0000
2000
0000
0000
3400
0000
0000
0300
0000
0100
0000
0001
0000
,
0010
0000
0001
0200
0000
0000
0000
0000
0000
0300
0000
0000
0010
0000
0001
0000
,
0010
0000
0001
0000
0020
0000
0000
4030
0000
0000
0000
3010
0100
0000
0001
0000
,
0010
0000
0001
0000
0100
0000
1000
0010
0000
0000
0000
0000
0100
0000
0001
0000
,
0010
0000
1000
0000
0100
0000
1000
0100
0000
0000
0100
0000
0001
0000
0010
0000
,
0001
0000
0100
0001
0000
0000
1000
0000
0010
0000
0000
0000
0110
0000
0001
0000
,
0010
0000
1000
0000
0110
0000
1000
0000
0001
0000
0010
0000
1000
0000
0100
0010
,
0000
0010
0000
0000
1001
0000
0100
0000
0010
0000
1000
0000
0100
0000
0010
0100
,
0000
0001
0000
0000
0110
0000
1000
0000
0100
0000
0001
0000
0010
0000
0001
0010
,
0000
0100
0000
0000
1000
0000
1000
0000
0010
0000
0010
0000
0100
0000
0100
0010
,
0000
0001
0010
0000
0100
0000
0100
0000
1000
0000
1000
0000
0010
0000
0010
0100
,
0000
0010
0001
0000
0010
0000
0010
0000
0100
0000
0100
0000
1000
0000
1000
0100
,
0000
0001
0010
0000
0100
1000
0100
0000
0010
0001
0010
0000
0100
0000
1000
0000
,
0010
0000
0001
0000
1000
0000
1000
0000
0010
0000
0010
0000
0100
0000
0100
0010
,
0000
0001
0010
0000
0100
0000
0100
0000
1000
0000
1000
0000
0010
0000
0010
0100
,
0000
0010
0001
0000
0010
0000
0010
0000
0100
0000
0100
0000
1000
0000
1000
0100
,
0000
0001
0010
0000
0100
1000
0100
0000
0010
0001
0010
0000
0010
0000
0001
0000
,
0100
0000
0010
0000
0002
0000
0000
4003
0000
0000
0000
0000
3010
0000
0100
0000
,
0001
0000
0010
0000
0002
0000
0000
4003
0000
0000
0000
0000
3010
0000
0100
0000
,
0001
0000
0010
0000
2000
0000
0000
3400
0000
0000
0300
0000
0100
0000
0001
0000
,
0010
0000
0001
0200
0000
0000
0000
0000
0000
0300
0000
0000
0010
0000
0001
0000
,
0010
0000
0001
0000
0020
0000
0000
4030
0000
0000
0000
3010
0100
0000
0001
0000
,
0010
0000
0001
0000
0100
0000
1000
0010
0000
0000
0000
0000
0100
0000
0001
0000
,
0010
0000
1000
0000
0100
0000
1000
0100
0000
0000
0100
0000
0001
0000
0010
0000
,
0002
0000
0000
0000
0000
0000
0013
0001
,
0100
0000
0010
0000
0002
0000
0000
4003
0000
0000
0000
0000
3010
0000
0100
0000
,
0001
0000
0010
0000
0002
0000
0000
4003
0000
0000
0000
0000
3010
0000
0100
0000
,
0001
0000
0010
0000
2000
0000
0000
3400
0000
0000
0300
0000
0100
0000
0001
0000
,
0010
0000
0001
0200
0000
0000
0000
0000
0000
0300
0000
0000
0010
0000
0001
0000
,
0010
0000
0001
0000
0020
0000
0000
4030
0000
0000
0000
3010
0100
0000
0001
0000
,
0010
0000
0001
0000
0100
0000
1000
0010
0000
0000
0000
0000
0100
0000
0001
0000
,
0010
0000
1000
0000
0100
0000
1000
0100
0000
0000
0100
0000
0001
0000
0010
0000
,
0002
0000
0000
0000
0000
0000
0000
0000
0000
0000
0000
0000
0013
0001
0010
0000
,
1000
0100
1000
0000
0010
0000
0000
0000
0001
0000
0010
0000
1000
0000
0100
0010
,
0000
1000
0000
0001
0010
0000
0100
0000
0100
0000
0001
0000
0010
0100
0010
0000
,
0010
0001
0010
0000
0100
0000
0000
0000
0010
0000
0001
0000
0100
0000
0010
0001
,
0000
0100
0000
0010
0001
0000
0010
0000
1000
0000
0100
0000
0010
0001
0010
0000
,
0100
1000
0100
0000
0200
0000
0000
0000
0000
0000
0000
0000
0000
0300
0000
0000
;
