#VERSION:0.83;
#TITLE:Candyman (Lollipop);
#ARTIST:Aqua;
#GENRE:Eurodance;
#CREDIT:B. M'Rey;
#MUSIC:Candyman (Lollipop).ogg;
#BANNER:Candyman (Lollipop)-bn.png;
#BACKGROUND:Candyman (Lollipop)-bg.png;
#CDTITLE:./CDTITLES/BMR Superstars.PNG;
#SAMPLESTART:62.387;
#SAMPLELENGTH:15;
#OFFSET:-0.282;
#BPMS:0=139;

//--------------- dance-single - B. M'Rey ----------------
#NOTEDATA:;
#STEPSTYPE:dance-single;
#DESCRIPTION:B. M'Rey;
#CREDIT:B. M'Rey;
#DIFFICULTY:Beginner;
#METER:4;
#RADARVALUES:0.076725,0.111393,0.019892,0.039783,0,54,52,2,4,0,0,0.076725,0.111393,0.019892,0.039783,0,54,52,2,4,0,0;
#NOTES:
0000
0000
0000
0000
,
0000
0000
0000
0000
,
0000
0000
0000
0000
,
0000
0000
0000
0000
,
0000
0100
0000
0000
,
0000
0001
0000
0000
,
0000
0010
0000
0000
,
0000
0010
0000
0000
,
0000
0100
0000
0000
,
0000
0001
0000
0000
,
0000
0010
0000
0000
,
0110
0000
0000
0000
,
0100
0000
0100
0000
,
1000
0000
0010
0000
,
0010
0000
0001
0000
,
1000
0000
1000
0000
,
1000
0000
1000
0000
,
0100
0000
0100
0000
,
0001
0000
0001
0000
,
0001
0000
0010
0000
,
1000
0000
1000
0000
,
0001
0000
0100
0000
,
0001
0000
1000
0000
,
0100
0000
0010
0000
,
1000
0000
0100
0000
,
0001
0000
1000
0000
,
0001
0000
1000
0000
,
1000
0000
0010
0000
,
0001
0000
1000
0000
,
1000
0000
1000
0000
,
0100
0000
0001
0000
,
0010
0000
0010
0000
,
0001
0000
1000
0000
,
0001
0000
1000
0000
,
0001
0000
1000
0000
,
1001
0000
0000
0000
,
0001
0000
0100
0000
,
0001
0000
0010
0000
,
1000
0000
0010
0000
,
0001
0000
0100
0000
,
0010
0000
0100
0000
,
0001
0000
0010
0000
,
0001
0000
0100
0000
,
0010
0000
0100
0000
,
0001
0000
0001
0000
,
0010
0000
0100
0000
,
0100
0000
1000
0000
,
1000
0000
0001
0000
,
0001
0000
0010
0000
,
0010
0000
0010
0000
,
0010
0000
0100
0000
,
0010
0000
0010
0000
,
0002
0000
0023
0000
,
0230
0000
2300
0000
,
3002
0000
0203
0000
,
0320
0000
0032
0000
,
0003
0000
0000
0000
;

//--------------- dance-single - B. M'Rey ----------------
#NOTEDATA:;
#STEPSTYPE:dance-single;
#DESCRIPTION:B. M'Rey;
#CREDIT:B. M'Rey;
#DIFFICULTY:Easy;
#METER:6;
#RADARVALUES:0.147766,0.167089,0.019892,0.079566,0,104,102,2,8,0,0,0.147766,0.167089,0.019892,0.079566,0,104,102,2,8,0,0;
#NOTES:
0000
0000
0000
0000
,
0000
0000
0000
0000
,
0000
0000
0000
0000
,
0000
0000
0000
0000
,
0000
0100
0000
1000
,
0000
0001
0000
0001
,
0000
0010
0000
0001
,
0000
0010
0000
0010
,
0000
0100
0000
1000
,
0000
0001
0000
0001
,
0000
0010
0000
0010
,
0110
0000
0000
0000
,
0010
1000
0010
1000
,
0010
0100
0001
0100
,
0010
1000
0100
0010
,
0001
0010
0001
0100
,
0010
1000
0100
1000
,
0100
1000
0001
0010
,
0001
1000
0010
0100
,
0010
0100
0010
1000
,
0100
1000
0010
0100
,
0010
0100
0001
0100
,
0000
0010
0001
0010
,
0100
0010
0100
1000
,
0000
1000
0100
1000
,
0001
0100
0001
0010
,
0000
1000
0010
0100
,
0001
1000
0100
0000
,
0001
0010
0100
1000
,
0010
0100
0010
1000
,
0100
0010
0001
1000
,
0100
0010
0001
0100
,
0001
0010
0001
0100
,
0010
0100
0001
0010
,
0100
0010
0100
1000
,
0010
0000
0000
0000
,
0001
1000
0100
0000
,
0010
0100
0010
0100
,
0010
1000
0001
0000
,
0001
0010
0001
0000
,
0010
1000
0100
0000
,
0100
0010
0100
1000
,
0010
0100
0001
1000
,
0001
0000
0001
0010
,
0100
0000
0010
0000
,
0010
1000
0001
0100
,
0000
1000
0000
0001
,
0000
0010
0100
1000
,
0000
0100
0000
1000
,
0001
0010
0100
0010
,
0000
1000
0000
0010
,
0000
1000
0001
0100
,
0002
0000
0023
0000
,
0230
0000
2300
0000
,
3002
0000
0203
0000
,
0320
0000
0032
0000
,
1003
0000
0000
0000
;

//--------------- dance-single - B. M'Rey ----------------
#NOTEDATA:;
#STEPSTYPE:dance-single;
#DESCRIPTION:B. M'Rey;
#CREDIT:B. M'Rey;
#DIFFICULTY:Medium;
#METER:8;
#RADARVALUES:0.275641,0.278482,0.029837,0.069621,0,194,191,3,7,0,0,0.275641,0.278482,0.029837,0.069621,0,194,191,3,7,0,0;
#NOTES:
0000
0000
0000
0000
,
0000
0000
0000
0000
,
0000
0000
0000
0000
,
0000
0000
0000
0000
,
0000
0100
0001
1000
,
0010
1000
0001
0000
0001
0100
0001
0000
,
0000
0010
1000
0001
,
0100
1000
0010
0000
0010
0001
0010
0000
,
0001
0100
0010
1000
,
0001
0100
0001
0000
0010
1000
0001
0000
,
0100
0010
1000
0010
,
0110
0000
0000
0000
,
0100
0100
0100
1000
,
1000
0000
1000
0000
0010
0000
0010
0100
,
0010
0001
0001
0001
,
1000
1000
1000
1000
,
1000
1000
1000
0100
,
0100
0000
0100
0000
0100
0000
0001
0010
,
0001
1000
0001
0010
,
0001
1000
0010
0001
,
1000
0100
1000
0010
,
0001
0000
1000
0000
0100
0010
0100
0000
,
0001
0010
1000
0001
,
0100
0000
1000
0000
0010
0100
0001
0000
,
1000
0010
0100
1000
,
0001
0000
0010
0000
1000
0100
0010
0000
,
0001
0100
1000
1000
,
1000
0000
0100
0000
0010
1000
0001
0000
,
0001
0000
0001
0100
1000
0000
1000
0100
,
1000
0000
1000
0000
1000
0001
0100
0000
,
0100
0000
0100
0010
0001
0000
0001
1000
,
0010
0000
0010
0000
0010
0100
0001
0000
,
0001
0000
0001
0100
1000
0000
0001
0100
,
0001
0000
1000
0100
1000
0000
1000
0100
,
0000
0001
0100
0000
1000
0000
1000
0001
,
1000
0000
0000
0000
,
0001
1000
0100
0010
,
0001
0100
0001
0000
0010
0100
0010
0000
,
1000
0000
0001
0000
0010
0000
0100
0010
,
0001
0000
1000
0010
0100
0000
0010
0000
,
0010
0000
0001
0000
0100
0000
0010
1000
,
0001
0000
0001
0100
0010
0000
1000
0000
,
0001
0000
1000
0000
0100
0000
0010
0001
,
0010
0000
0100
1000
,
0001
0001
0001
0010
,
0010
0100
0010
0100
0010
0000
0100
0000
,
0100
1000
1000
1000
,
1000
0000
0001
0010
0001
0010
0001
0010
,
0001
0001
0010
0010
,
0010
0100
0010
0100
0010
0100
0010
0000
,
0010
0100
0100
0100
,
0010
0000
0010
0100
0010
0100
0010
0000
,
0002
0000
0023
0000
,
0230
0000
2300
0000
,
3002
0000
0203
0000
,
0320
0000
0000
0030
,
1001
0000
0000
0000
;

//--------------- dance-single - B. M'Rey ----------------
#NOTEDATA:;
#STEPSTYPE:dance-single;
#DESCRIPTION:B. M'Rey;
#CREDIT:B. M'Rey;
#DIFFICULTY:Hard;
#METER:12;
#RADARVALUES:0.54844,0.612661,0.079566,0,0.174051,386,378,8,0,0,0,0.54844,0.612661,0.079566,0,0.174051,386,378,8,0,0,0;
#NOTES:
0000
0000
0000
0000
,
0000
0000
0000
0000
,
0000
0000
0000
0000
,
0000
0000
0000
0000
,
0000
1000
0100
0010
,
0001
0010
0100
0010
0100
0010
0100
0000
,
0000
0001
0010
0100
,
1000
1000
0001
1000
0001
1000
0001
0000
,
0100
1000
0001
0010
,
0100
1000
0100
0010
0001
0010
0100
0000
,
1000
0001
0010
0001
,
1001
0000
0000
0000
,
1000
0100
1000
0100
1000
0100
0010
0100
,
0010
0000
0100
0000
0010
0000
0100
0000
0001
0000
0100
0000
0001
0100
0001
0100
,
0001
0010
0100
0010
0100
0010
0100
0000
,
0010
0100
0010
0100
0010
0100
0010
0100
,
0010
0001
0010
0001
0010
0001
1000
0001
,
1000
0000
0001
0000
1000
0000
0001
0000
1000
0000
0001
0000
0100
0001
0100
0001
,
0100
0001
0010
1000
0100
0010
0001
0000
,
0100
1000
0010
0100
0001
0010
0100
1000
,
0010
0000
0000
0100
1000
0000
0000
0001
0010
0000
0000
0000
0001
0000
0000
0010
,
0100
0000
0000
1000
0010
0000
0000
0100
1000
0000
0001
0000
1000
0000
0000
0000
,
0100
0000
0000
0010
0001
0000
0000
0100
0010
0000
0000
0010
0100
0000
0000
0100
,
1000
0000
0000
0001
0010
0000
0000
0010
0001
0000
1000
0000
0100
0000
0000
0000
,
0010
0000
0000
0010
0001
0000
0000
0100
1000
0000
0000
0001
0010
0000
0000
1000
,
0100
0000
0000
0010
0001
0000
0000
0100
0010
0000
1000
0000
0001
0000
0000
0000
,
0100
0000
0000
0100
1000
0000
0000
0100
0010
0000
0000
0001
0010
0000
0000
0100
,
0010
0000
0000
0100
1000
0000
0000
0010
0001
0000
0010
0000
0100
0000
1000
0000
,
0100
1000
0100
1000
0010
0100
0010
0100
,
0010
0001
0010
0001
0010
0001
1000
0001
,
1000
0001
1000
0010
0100
0010
0100
0010
,
0001
0010
0001
0010
0001
0010
0100
0010
,
0100
1000
0100
0001
0010
0001
0100
0010
,
0100
1000
0010
0100
0010
0001
0010
0001
,
0100
0010
1000
0100
0010
0100
0010
0001
,
0110
0000
1100
1100
0110
0110
1001
0000
,
1000
0000
0100
0000
0001
0000
0010
0100
,
1000
0100
1000
0001
0010
0100
0010
0001
,
0100
0000
1000
0000
0010
0000
0001
0100
,
1000
0000
0100
0000
0100
0000
0010
0000
0001
0000
0100
0000
0010
0100
0010
0100
,
0010
0000
1000
0000
0001
0000
0010
0100
,
1000
0100
1000
0001
0010
0001
0100
0010
,
1000
0000
0100
0000
0001
0000
0010
0100
,
0010
0000
0000
1000
0001
0010
0100
0000
,
1000
0100
1000
0100
1000
0100
0010
0100
,
0010
0000
0100
0000
0001
0000
0010
0000
0001
0000
0010
0000
0001
0010
0001
0010
,
0001
0010
0100
0010
0100
0010
0100
1000
,
0100
1000
0100
1000
0100
1000
0100
0010
,
0100
0010
0100
0001
0010
0001
0010
0001
,
0010
0000
0100
0000
0010
0000
0100
0000
0010
0000
0100
0000
0010
0100
0010
0100
,
0010
1000
0001
1000
0001
1000
0010
0100
,
0010
0100
0010
0100
0010
0100
0010
0100
,
1000
0100
1000
0100
1000
0100
0010
0100
,
0010
0000
0100
0000
0001
0000
0010
0000
0001
0000
0010
0000
0001
0010
0001
0010
,
0001
0010
0100
0010
0100
0010
0100
1000
,
0100
1000
0100
1000
0100
1000
0100
0010
,
0110
0000
0000
0000
;
