#TITLE:Brother Louie '98;
#SUBTITLE:[New Version];
#ARTIST:Modern Talking;
#GENRE:Eurodance;
#CREDIT:B. M'Rey;
#MUSIC:Brother Louie '98 [New Version].ogg;
#BANNER:Brother Louie '98 [New Version]-bn.png;
#BACKGROUND:Brother Louie '98 [New Version]-bg.png;
#CDTITLE:./CDTITLES/BMR Superstars.PNG;
#SAMPLESTART:41.811;
#SAMPLELENGTH:12;
#OFFSET:-0.085;
#BPMS:0=118.31;
#BGCHANGES:22.000=Brother Louie '98 [New Version]-bg.png=1.000=0=0=1====1^1^1^0.5=,
23.000=In The Groove/712_JumpBack.mpg=1.000=0=0=1,
39.000=In The Groove/VOL1-25-NTSC.mpg=1.000=0=0=1===FadeCenterHorizontal==,
71.000=In The Groove/VOL1-16-NTSC.mpg=1.000=0=0=1===FadeUp==,
103.000=In The Groove/EV01439N.mpg=1.000=0=0=1,
119.000=In The Groove/VOL1-26-NTSC.mpg=1.000=1=0=1===CrossFade==,
135.000=In The Groove/673_JumpBack.mpg=1.000=0=0=1,
151.000=In The Groove/VOL1-41-NTSC.mpg=1.000=1=0=1===CrossFade==,
167.000=In The Groove/712_JumpBack.mpg=1.000=0=0=1,
182.917=In The Groove/VOL1-10-NTSC.mpg=1.000=1=0=1===CrossFade==,
199.000=In The Groove/673_JumpBack.mpg=1.000=0=0=1,
215.000=In The Groove/VOL1-41-NTSC.mpg=1.000=1=0=1===CrossFade==,
231.000=In The Groove/VOL1-25-NTSC.mpg=1.000=0=0=1,
247.000=In The Groove/VOL1-16-NTSC.mpg=1.000=0=0=1===FadeLeft==,
261.000=In The Groove/VOL1-16-NTSC.mpg=1.000=0=0=1=SongBgWithMovieViz===0^0^1^1=,
261.500=In The Groove/VOL1-16-NTSC.mpg=1.000=0=0=1=SongBgWithMovieViz===0^1^0^1=,
262.000=Brother Louie '98 [New Version]-bg.png=1.000=0=0=1,;
#BGCHANGES2:23.000=flash=1.000=0=0=1,
103.000=flash=1.000=0=0=1,
135.000=flash=1.000=0=0=1,
167.000=flash=1.000=0=0=1,
199.000=flash=1.000=0=0=1,
231.000=flash=1.000=0=0=1,
261.000=flash=2.000=0=0=1====0^0^1^1=,
261.500=flash=2.000=0=0=1====0^1^1^1=,
262.000=flash=1.000=0=0=1;

//--------------- dance-single - B. M'Rey ----------------
#NOTES:
     dance-single:
     B. M'Rey:
     Beginner:
     1:
     0.065,0.049,0,0,0:
0000
0000
0000
0000
,
0000
0000
0000
0000
,
0000
0000
0000
0000
,
0000
0000
0000
0000
,
0000
0000
0000
0000
,
0000
0000
0000
1000
,
0000
0000
0000
0001
,
0000
0000
0000
1000
,
0000
0000
0000
0010
,
0000
0000
0000
0001
,
0000
0000
0000
1000
,
0000
0000
0000
0100
,
0000
0000
0000
0010
,
0000
0000
0000
1000
,
0000
0000
0000
0001
,
0000
0000
0000
0010
,
0000
0000
0000
0100
,
0000
0000
0000
0001
,
0000
0000
0000
0010
,
0000
0000
0000
1000
,
0000
0000
0000
0010
,
0000
0000
0000
0001
,
0000
0000
0000
0010
,
0000
0000
0000
0001
,
0000
0000
0000
0100
,
0000
0000
0000
0010
,
0000
0000
0000
1000
,
0000
0000
0000
0001
,
0000
0000
0000
0100
,
0000
0000
0000
0010
,
0000
0000
0000
1000
,
0000
0000
0000
0001
,
0000
0000
0000
0010
,
0000
0000
0000
1000
,
0000
0000
0000
0001
,
0000
0000
0000
0010
,
0000
0000
0000
0100
,
0000
0000
0000
0001
,
0000
0000
0000
1000
,
0000
0000
0000
0010
,
0000
0000
0000
0001
,
0000
0000
0000
1000
,
0000
0000
0000
0010
,
0000
0000
0000
0100
,
0000
0000
0000
0001
,
0000
0000
0000
0010
,
0000
0000
0000
0001
,
0000
0000
0000
0100
,
0000
0000
0000
0010
,
0000
0000
0000
1000
,
0000
0000
0000
0100
,
0000
0000
0000
1000
,
0000
0000
0000
0001
,
0000
0000
0000
0010
,
0000
0000
0000
0100
,
0000
0000
0000
0010
,
0000
0000
0000
0001
,
0000
0000
0000
1000
,
0000
0000
0000
0001
,
0000
0000
0000
1000
,
0000
0000
0000
0001
,
0000
0000
0000
0010
,
0000
0000
0000
0001
,
0000
0000
0000
0100
,
0000
0000
0000
0010
,
0000
0000
0001
0000
;

//--------------- dance-single - B. M'Rey ----------------
#NOTES:
     dance-single:
     B. M'Rey:
     Easy:
     2:
     0.132,0.123,0,0.008,0:
0000
0000
0000
0000
,
0000
0000
0000
0000
,
0000
0000
0000
0000
,
0000
0000
0000
0000
,
0000
0000
0000
0000
,
0000
0000
0000
1000
,
0000
0100
0000
0001
,
0001
0001
0000
1000
,
0000
0100
0000
0010
,
0010
0010
0000
0001
,
0000
0100
0000
1000
,
0000
0010
0000
0100
,
0000
0001
0000
0010
,
0000
0010
0000
1000
,
0000
0100
0000
0001
,
0000
1000
0000
0010
,
0000
0001
0000
0100
,
0000
0010
0000
0001
,
0000
1000
0000
0010
,
0000
0001
0000
1000
,
0000
0100
0000
0010
,
0000
1000
0000
0001
,
0000
0100
0000
0010
,
0000
0001
0000
0001
,
0000
0100
0000
0100
,
0000
0001
0000
0010
,
0000
0100
0000
1000
,
0000
0010
0000
0001
,
0000
1000
0000
0100
,
0000
0001
0000
0010
,
0000
0100
0000
1000
,
0000
0010
0000
0001
,
0000
1000
0000
0010
,
0000
0001
0000
1000
,
0000
0100
0000
0001
,
0000
0010
0000
0010
,
0000
1000
0000
0100
,
0000
0010
0000
0001
,
0000
0100
0000
1000
,
0000
0001
0000
0010
,
0000
1000
0000
0001
,
0000
0100
0000
1000
,
0000
0010
0000
0010
,
0000
0001
0000
0100
,
0000
1000
0000
0001
,
0000
0100
0000
0010
,
0000
1000
0000
0001
,
0000
0010
0000
0100
,
0000
0001
0000
0010
,
0000
0100
0000
1000
,
0000
0001
0000
0100
,
0000
0010
0000
1000
,
0000
0100
0000
0001
,
0000
1000
0000
0010
,
0000
0001
0000
0100
,
0000
1000
0000
0010
,
0000
0100
0000
0001
,
0000
0001
0000
1000
,
0000
1000
0000
0001
,
0000
0010
0000
1000
,
0000
0001
0000
0001
,
0000
0100
0000
0010
,
0000
1000
0000
0001
,
0000
0001
0000
0100
,
0000
0100
0000
0010
,
0000
0002
0003
0000
;

//--------------- dance-single - B. M'Rey ----------------
#NOTES:
     dance-single:
     B. M'Rey:
     Medium:
     4:
     0.224,0.197,0,0.008,0:
0000
0000
0000
0000
,
0000
0000
0000
0000
,
0000
0000
0000
0000
,
0000
0000
0000
0000
,
0000
0000
0000
0000
,
0000
0000
0000
1000
,
0000
0100
0000
0001
,
0001
0001
0100
1000
,
0000
0100
0000
0010
,
0010
0010
0100
0001
,
0000
0100
0010
1000
,
0100
0010
0001
0100
,
0000
0001
1000
0010
,
0100
0010
0001
1000
,
0000
0100
0010
0001
,
0100
1000
0000
0010
,
0000
0001
0000
0100
,
0000
0010
0000
0001
,
0000
1000
0100
0010
,
0001
0001
0010
1000
,
0000
0100
0001
0010
,
0100
1000
1000
0001
,
0000
0100
1000
0010
,
0010
0001
1000
0001
,
0000
0100
0000
0100
,
0000
0001
0000
0010
,
1000
0100
0001
1000
,
0100
0010
1000
0001
,
0010
1000
0001
0100
,
0010
0001
1000
0010
,
0100
0100
0001
1000
,
0010
0010
1000
0001
,
0100
1000
0010
0010
,
1000
0001
0100
1000
,
1000
0100
0001
0001
,
0010
0010
0001
0010
,
0100
1000
0010
0100
,
0001
0010
1000
0001
,
0100
0100
0001
1000
,
0010
0001
1000
0010
,
0100
1000
0001
0001
,
0010
0100
0001
1000
,
0000
0100
0000
0001
,
0001
0001
0100
1000
,
0000
0100
0000
0010
,
0010
0010
0100
0001
,
0000
0100
0010
1000
,
0100
0010
0001
0100
,
0000
0001
1000
0010
,
0100
0010
0100
1000
,
1000
0100
0001
0001
,
0010
0010
0001
0010
,
0100
1000
0010
0100
,
0001
0010
1000
0001
,
0100
0100
0001
1000
,
0010
0001
1000
0010
,
0100
1000
0001
0001
,
0010
0100
0001
1000
,
0000
0100
0000
0001
,
0001
0001
0100
1000
,
0000
0100
0000
0010
,
0010
0010
0100
0001
,
0000
0100
0010
1000
,
0100
0010
0001
0100
,
0000
0001
1000
0010
,
0100
0002
0003
0000
;

//--------------- dance-single - B. M'Rey ----------------
#NOTES:
     dance-single:
     B. M'Rey:
     Hard:
     6:
     0.432,0.443,0.068,0.12,0.098:
0000
0000
0000
0000
,
0000
0000
0000
0000
,
0000
0000
0000
0000
,
0000
0000
0000
0000
,
0000
0000
0000
0000
,
0000
0000
0000
1000
,
0001
1000
0100
0000
0010
1000
0001
1000
,
0001
0000
0001
0010
0100
1000
0100
0000
,
0001
0010
0100
0000
1000
0001
0010
0100
,
0010
0100
0010
1000
0100
0000
0001
0000
,
0000
0000
0100
0010
0001
0010
2000
0000
,
3200
0320
0032
0103
,
0000
0000
0001
1000
0100
0001
0020
0000
,
2030
3020
0032
1003
,
0000
0000
0100
0010
0100
1000
0001
0000
,
0100
0010
0000
1000
0000
0100
0010
0000
,
0001
0001
0100
0100
,
1000
0000
0010
1001
1001
0000
0004
0000
,
0003
0000
1000
0100
0001
0010
0200
0000
,
2300
3002
0023
1030
,
0000
0000
0100
0001
1000
0100
0020
0000
,
0032
2003
3020
0031
,
0000
0000
0100
1000
0001
0100
0010
0000
,
1000
0100
0000
0001
0000
0010
0000
0000
,
0100
0010
0100
0000
0010
0100
0010
1001
,
1001
1001
1001
0010
0100
0001
0010
0000
,
1000
0000
0010
0000
0100
0000
0000
0000
0001
0000
0010
0000
1000
0100
1000
0100
,
1000
0000
0010
0100
0001
1000
0001
0000
,
0100
0000
0010
0000
1000
0000
0000
0000
0001
0000
1000
0000
0100
0010
0100
0010
,
0100
0010
0001
0010
0100
1000
0010
0000
,
0001
0000
0010
0000
0100
0000
0000
0000
1000
0000
0010
0000
1000
0100
1000
0100
,
1000
0100
0010
0001
0010
0100
0001
0000
,
0010
0000
0100
0000
1000
0000
0000
0000
0100
0000
0001
0000
1000
0001
1000
0001
,
1000
0000
0010
0000
0001
0000
0000
0000
0100
0000
0010
0000
1000
0100
1000
0100
,
1000
0000
0000
0000
0100
0000
0000
0000
0001
0000
0010
0000
0001
0010
0001
0010
,
0001
0000
0010
0000
0100
0000
0010
1000
,
0001
0010
1000
0000
0100
0000
0100
0001
,
1000
0000
0100
0000
0010
0000
0000
0000
1000
0000
0000
0000
0001
0010
0001
0010
,
0001
0000
0000
0000
0100
0000
0010
0000
0000
0000
0000
0000
1000
0100
1000
0100
,
1000
0010
0001
0000
0100
0000
0010
0001
,
0100
0000
0010
0000
1000
0000
0000
0000
0100
0000
0000
0010
0000
0000
0001
0000
,
0010
0100
1000
1000
,
0001
1000
0100
0000
0010
1000
0001
1000
,
0001
0000
0001
0010
0100
1000
0100
0000
,
0001
0010
0100
0000
1000
0001
0010
0100
,
0010
0100
0010
1000
0100
0000
1000
0000
,
0001
1000
0100
0000
0010
1000
0001
1000
,
0001
0000
0001
0010
0100
1000
0100
0000
,
0001
0010
0100
0000
1000
0001
0010
0100
,
0010
0000
0100
0000
0010
0000
1000
0000
0100
0000
0010
0000
1000
0100
1000
0100
,
1000
0000
0000
0000
0100
0000
0000
0000
0001
0000
0010
0000
0001
0010
0001
0010
,
0001
0000
0010
0000
0100
0000
0010
1000
,
0001
0010
1000
0000
0100
0000
0100
0001
,
1000
0000
0100
0000
0010
0000
0000
0000
1000
0000
0000
0000
0001
0010
0001
0010
,
0001
0000
0000
0000
0100
0000
0010
0000
0000
0000
0000
0000
1000
0100
1000
0100
,
1000
0010
0001
0000
0100
0000
0010
0001
,
0100
0000
0010
0000
1000
0000
0000
0000
0100
0000
0000
0010
0000
0000
0001
0000
,
0010
0100
1000
1000
,
0001
1000
0100
0000
0010
1000
0001
1000
,
0001
0000
0001
0010
0100
1000
0100
0000
,
0001
0010
0100
0000
1000
0001
0010
0100
,
0010
0100
0010
1000
0100
0000
1000
0000
,
0001
1000
0100
0000
0010
1000
0001
1000
,
0001
0000
0001
0010
0100
1000
0100
0000
,
0001
0010
0100
0000
1000
0001
0010
0100
,
0010
0100
0110
0110
0110
0000
0000
0000
;
