#TITLE:Brighter;
#ARTIST:The Two Friends Ft Jeff Sontag and I am Lightyear;
#GENRE:EDM;
#CREDIT:B. M'Rey;
#MUSIC:Brighter.ogg;
#BANNER:Brighter-bn.png;
#BACKGROUND:Brighter-bg.png;
#CDTITLE:./CDTITLES/NoCopyrightSounds.PNG;
#SAMPLESTART:99.262;
#SAMPLELENGTH:12;
#OFFSET:-0.454;
#BPMS:0=128;

//--------------- dance-single - B. M'Rey ----------------
#NOTES:
     dance-single:
     B. M'Rey:
     Beginner:
     1:
     0.11727,0.154167,0.013348,0.006674,0,123,121,2,1,0,0,0.11727,0.154167,0.013348,0.006674,0,123,121,2,1,0,0:
0000
0000
0000
0000
,
0000
0000
0000
0000
,
0000
0000
0000
0000
,
0000
0000
0000
0000
,
0000
0000
0000
1000
,
0000
0000
0000
0010
,
0000
0000
0000
0001
,
0000
0000
0000
0100
,
0000
0000
0000
0010
,
0000
0000
0000
1000
,
0000
0000
0000
0001
,
0000
0000
0000
0100
,
0000
0000
0000
0001
,
0000
0000
0000
0010
,
0000
0000
0000
1000
,
0000
0000
0000
0100
,
0000
0000
0000
0001
,
0000
0000
0000
0000
,
0000
0000
0000
0000
,
0000
0000
0000
0000
,
0000
0000
0000
0001
,
0000
0100
0000
1000
,
0000
0000
0000
0100
,
0000
0000
0000
1000
,
0000
0010
0000
1000
,
0000
0000
0000
1000
,
0000
0010
0000
0000
,
0000
0000
1000
0000
,
0010
0000
0001
1000
,
0000
0100
0000
0001
,
0000
0010
0000
1000
,
0000
0001
0000
0010
,
0000
0010
0000
1000
,
0000
0100
0000
0010
,
0000
0010
0000
0001
,
0000
0100
0000
1000
,
0000
0001
0000
0001
,
0000
0000
0000
1000
,
0000
0000
0000
0100
,
0000
1000
0000
0001
,
0000
0100
0000
0001
,
0000
0000
0000
0100
,
0000
0000
0000
0001
,
0000
1000
0000
0001
,
0000
1000
0000
0001
,
0000
0000
0000
0100
,
0000
0000
0000
1000
,
0000
0000
0000
0001
,
0000
0000
0000
0100
,
0000
1000
0000
0100
,
0000
0010
0000
0001
,
0000
1000
0000
0020
,
0000
0000
0030
1000
,
0000
0000
0000
0000
,
0010
0000
0000
0000
,
0100
0000
0000
0001
,
0000
0000
0000
0100
,
0000
0000
0000
0010
,
0000
0000
0000
1000
,
0000
0000
0000
0001
,
0000
0000
0000
0010
,
0000
0001
0000
0100
,
0000
0001
0000
1000
,
0000
0010
0000
0100
,
0000
0001
0000
0010
,
0000
0001
0000
0100
,
0000
0010
0000
0001
,
0000
0100
0000
0100
,
0000
0000
0000
1000
,
0000
0000
0000
0100
,
0000
0000
0000
0010
,
0000
0000
0000
0001
,
0000
0000
0000
1000
,
0000
0000
0000
0010
,
0000
0000
0000
0100
,
0000
0000
0000
0001
,
0000
0000
0000
1001
;

//--------------- dance-single - B. M'Rey ----------------
#NOTES:
     dance-single:
     B. M'Rey:
     Easy:
     3:
     0.216424,0.359722,0.106782,0.013348,0,227,211,16,2,0,0,0.216424,0.359722,0.106782,0.013348,0,227,211,16,2,0,0:
0000
0000
0000
0000
,
0000
0000
0000
0000
,
0000
0000
0000
0000
,
0000
0000
0000
0000
,
0000
0000
0000
1000
,
0000
0010
0010
0010
,
0000
0001
0001
0001
,
0000
0100
0100
0100
,
0000
0010
0010
0010
,
0000
1000
1000
1000
,
0000
0001
0001
0001
,
0000
0100
0100
0100
,
0000
0001
0001
0001
,
0000
0010
0010
0010
,
0000
1000
1000
1000
,
0000
0100
0100
0100
,
0000
0001
0001
0001
,
0000
0000
0000
0100
,
0000
0000
0000
0010
,
0000
0000
0000
1000
,
0000
0000
0000
0001
,
0010
0100
0001
1000
,
0000
0000
0000
0100
,
0010
0000
0000
1000
,
0001
0010
0000
1000
,
0001
0000
0000
1000
,
0001
0010
0100
0000
,
0000
0000
1000
0001
,
0010
0100
0001
1000
,
0001
0100
0000
0001
,
1000
0010
0000
1000
,
0100
0001
0000
0010
,
0100
0010
0000
1000
,
0001
0100
0000
0010
,
1000
0010
0000
0001
,
0010
0100
0000
1000
,
0001
0010
0100
0001
,
0010
0100
0000
1000
,
0001
1000
0000
0100
,
0010
1000
0000
0001
,
0010
0100
0000
0001
,
1000
0010
0000
0100
,
0010
0100
0000
0001
,
0010
0001
0000
1000
,
0100
1000
0000
1001
,
0001
0011
0010
0110
,
0010
0110
0100
1100
,
1000
1001
1000
1100
,
0100
0110
0010
0011
,
0000
1010
0000
0110
,
0000
0101
0000
1010
,
0000
1001
0000
0220
,
0000
0000
0000
0000
0000
0330
0001
0000
,
1000
0010
0100
0001
,
1000
0010
0100
0010
,
0001
0010
1000
0010
,
0100
0001
0010
1000
,
0100
1000
0010
0100
,
0001
0010
0100
0001
,
0100
0010
1000
0100
,
0010
0001
0000
0010
,
1000
0100
0001
0010
,
1000
0010
0001
0100
,
0010
1000
0010
0100
,
0001
0010
1000
0001
,
0010
0001
0100
0010
,
0001
1000
0010
0100
,
0001
0010
1000
0100
,
0000
0001
0000
1000
,
0000
0010
0000
0100
,
0000
0001
0000
0010
,
0000
0001
0000
0100
,
0000
0010
0000
1000
,
0000
0001
0000
0010
,
0000
0001
0000
0100
,
0000
0010
0000
0001
,
0000
0100
0000
1001
;

//--------------- dance-single - B. M'Rey ----------------
#NOTES:
     dance-single:
     B. M'Rey:
     Medium:
     6:
     0.367063,0.474512,0.220238,0.046717,0.016685,385,352,33,7,0,0,0.367063,0.474512,0.220238,0.046717,0.016685,385,352,33,7,0,0:
0000
0000
0000
0000
,
0000
0000
0000
0000
,
0000
0000
0000
0000
,
0000
0000
0000
0000
,
0000
0000
0000
1000
,
0001
0000
0001
1000
0001
1000
0010
0000
,
0100
0000
0001
0010
0001
0010
0100
0000
,
1000
0000
0001
1000
0001
1000
0010
0000
,
0100
0000
0010
0100
0010
0100
0010
0000
,
0001
0000
1000
0001
1000
0001
1000
0000
,
0100
0000
0010
1000
0010
1000
0100
0000
,
0001
0000
0001
0010
0001
0010
0001
0000
,
1000
0000
0010
0100
0010
0100
0010
0000
,
0001
0000
0010
0100
0010
0100
0010
0000
,
1000
0000
0001
0010
0001
0010
0001
0000
,
0100
0000
0010
1000
0010
1000
0010
0000
,
0100
0000
0001
0010
0001
0010
0002
0000
,
0000
0000
0000
2003
,
0000
0000
0000
3020
,
0000
0000
0000
0230
,
0000
0000
0000
0301
,
1000
0000
0001
0010
0100
1000
0100
0000
,
0010
0000
0001
1000
,
0000
0000
0000
0000
0000
0100
0001
1000
,
0010
0100
0000
0000
0000
0001
0000
1000
,
0000
0000
0000
0000
0000
0001
0010
1000
,
0000
0100
0000
0001
1000
0010
0000
0000
,
0000
0000
0100
1000
,
0001
0010
0100
1000
,
0001
1000
0001
1000
,
0001
1000
0001
1000
,
0010
0100
0010
0100
,
0010
0100
0010
0100
,
0001
1000
0001
1000
,
0001
1000
0001
1000
,
0001
1000
0001
1000
,
0010
0100
0001
1000
,
0100
0000
0001
0000
0000
0010
0000
0100
,
0000
1000
0001
1000
0001
1000
0001
0000
,
0010
0100
1000
0100
,
0001
0000
0100
0001
0010
1000
0100
0000
,
0001
0000
1000
0000
0000
0001
0000
1000
,
0000
0010
0001
1000
0010
0100
0001
0000
,
0100
0010
1000
0001
,
0100
0000
0010
0001
1000
0100
0011
0000
,
0011
1100
1100
1001
,
1001
0101
0101
1010
,
1010
0110
0110
0101
,
0101
0000
1010
0000
1010
0000
1000
0001
,
0000
0100
0000
0000
0010
0000
1000
0000
0000
0001
0000
0000
0010
0000
1000
0000
,
0000
0100
0000
0000
0010
0000
1000
0000
0000
0001
0000
0000
0100
0000
0010
0000
,
0000
1000
0000
0000
0001
0000
1000
0000
0001
0000
1000
0000
0002
0000
0000
0000
,
0000
0000
0000
0000
0000
0000
1003
0100
,
0001
0000
1000
0001
1000
0001
0000
0010
,
0100
0000
0010
1000
0010
1000
0000
0100
,
0010
0000
0001
1000
0001
1000
0000
0010
,
0100
0000
0001
0010
0000
0010
0100
1000
,
0001
0000
0010
0100
0010
0100
0000
1000
,
0001
0000
0010
0100
0010
0100
0000
0001
,
1000
0000
0010
0100
0010
0100
0001
0000
,
1000
0000
0010
0000
0100
0000
0001
1000
,
0001
1000
0001
1000
0001
1000
0001
0100
,
0001
0100
0001
0100
0001
0100
0001
0010
,
0001
0010
0001
0010
0001
0010
0001
1000
,
0001
0100
0001
0010
0001
0100
0001
1000
,
0001
1000
0001
1000
0001
1000
0001
0100
,
0001
0100
0001
0100
0001
0100
0001
0010
,
0001
0010
0001
0010
0001
0010
0001
0000
,
0000
0010
0100
1001
,
0001
1010
0001
0110
,
0010
1001
0010
0110
,
0001
1010
0100
0011
,
1000
0110
0001
1010
,
0100
0101
0010
1001
,
0010
0110
0001
0011
,
0010
1010
0100
1001
,
0010
0101
0010
2002
,
0000
0000
0000
0000
,
0000
0000
0000
3003
;

//--------------- dance-single - B. M'Rey ----------------
#NOTES:
     dance-single:
     B. M'Rey:
     Hard:
     7:
     0.398526,0.448151,0.160173,0.547258,0.016685,418,394,24,82,0,8,0.398526,0.448151,0.160173,0.547258,0.016685,418,394,24,82,0,8:
0000
0000
0000
0000
,
0000
0000
0000
0000
,
0000
0000
0000
0000
,
0000
0000
0000
0000
,
0000
0000
0000
0000
0000
0000
1000
0001
,
1000
0000
0010
0001
0010
0001
0000
0010
,
1000
0000
0010
0100
0010
0100
0000
0001
,
0010
0000
0100
1000
0100
1000
0000
0010
,
0001
0000
0001
1000
0001
1000
0000
0100
,
0010
0000
0010
0100
0010
0100
0000
0001
,
0010
0000
0001
0010
0001
0010
0000
1000
,
0100
0000
0100
1000
0100
1000
0000
0010
,
0100
0000
0001
0010
0001
0010
0000
0010
,
0100
0000
0010
0100
0010
0100
0000
1000
,
0001
0000
0001
1000
0001
1000
0010
0000
,
0100
0000
0001
1000
0001
1000
0000
0001
,
1000
0000
0001
1000
0001
1000
0000
0001
,
0010
0000
0100
1000
0100
1000
0000
0100
,
0010
0000
0001
0010
0001
0010
0000
0010
,
0100
0000
1000
0100
1000
0100
0000
0002
,
0000
0000
0000
1003
,
0100
0000
0001
0010
0100
1000
0000
0200
,
0000
0000
0000
0300
0000
0010
0000
0002
,
0000
0000
0000
0003
0000
0010
1000
0100
,
0001
0020
0000
0000
0000
0130
0000
2000
,
0000
0000
0000
3000
0000
0100
0001
0010
,
0000
1000
0000
0010
0100
0000
0000
0001
,
0000
0000
0001
1000
,
0100
0001
0000
0010
1000
0100
0001
0000
,
2000
3002
2003
3002
,
0013
0100
0010
0100
0000
0010
1000
0000
,
0020
0230
0320
0230
,
0301
1000
0001
1000
0001
1000
0001
0000
,
2000
3002
2003
3002
,
0013
0100
0010
0100
0010
0100
0020
0000
,
1000
0000
0001
0000
1030
0100
0001
0000
,
0010
0100
1000
0000
0001
0010
0100
0000
,
1100
0110
0011
1010
,
0101
1010
0110
1001
,
0002
2003
3020
0230
,
0302
0023
2030
3001
,
0011
0110
1001
0110
,
1100
0101
0110
1010
,
0200
0302
0023
2030
,
3020
0230
0302
0203
,
1310
0020
0131
0200
,
1310
2000
3110
0200
,
0311
0200
1310
0002
,
0113
0000
2000
0000
3110
0000
0001
1000
,
0000
0100
0000
0000
0010
0000
0001
0000
0000
0100
0000
0000
0010
0000
1000
0000
,
0000
0100
0000
0000
0001
0000
0010
0000
0000
0100
0000
0000
1000
0000
0100
0000
,
0000
0001
0000
0000
1000
0000
0100
0000
1000
0000
0100
0000
2000
0000
0000
0000
,
0000
0000
0000
0000
0000
0000
3001
0010
,
0001
0010
0100
0010
0100
1000
0100
1000
,
0010
0100
0010
0100
0001
0010
0001
0100
,
0010
0100
1000
0100
1000
0001
0100
0001
,
1000
0010
0100
0001
0010
1000
0010
0100
,
0001
0010
0100
0001
1000
0010
0100
0001
,
0010
1000
0010
1000
0010
0100
0001
0100
,
0001
0100
0010
1000
0010
0100
0010
0000
,
0001
0000
0010
0000
1000
0000
0100
0001
,
0010
1000
0010
0100
0001
0010
1000
0010
,
0100
0010
0001
0010
1000
0010
0100
0010
,
0001
1000
0010
0100
1000
0001
0010
0100
,
0001
1000
0010
0100
0001
1000
0010
0100
,
0001
0010
0100
1000
0001
0010
0001
0100
,
0010
1000
0010
0100
0001
0010
0100
1000
,
0010
0100
0001
0010
0100
0001
1000
0000
,
0001
0010
0100
2000
,
3002
0000
0023
0230
0320
0230
0000
2300
,
0000
0000
3002
0023
0032
0023
0000
0230
,
0000
0000
2300
3200
2300
3200
0000
0302
,
0000
0000
0023
0230
0320
0000
2030
0000
,
3002
0000
0023
0230
0320
0230
0000
2300
,
0000
3002
0023
0230
2300
3020
0000
0230
,
0000
0302
0023
0032
0023
2030
0000
3200
,
0000
0302
0000
2000
,
0000
0000
0000
0000
,
0000
0000
0000
3003
;
