#TITLE:Breaking Free;
#ARTIST:Skyla;
#GENRE:Uplifting Trance;
#CREDIT:B. M'Rey;
#MUSIC:Breaking Free.ogg;
#BANNER:Breaking Free-bn.png;
#BACKGROUND:Breaking Free-bg.png;
#CDTITLE:./CDTITLES/CLUBLAND 15.PNG;
#SAMPLESTART:42.511;
#SAMPLELENGTH:12;
#OFFSET:-1.460;
#BPMS:0=145.010;

//--------------- dance-single - B. M'Rey ----------------
#NOTES:
     dance-single:
     B. M'Rey:
     Beginner:
     1:
     0.166193,0.296518,0.072709,0.063621,0,128,120,8,7,0,0,0.166193,0.296518,0.072709,0.063621,0,128,120,8,7,0,0:
0000
0000
0000
0000
,
0000
0000
0000
0000
,
0000
0000
0000
0000
,
0000
0000
0000
0000
,
0000
0000
0000
0000
,
0001
0000
0000
0000
,
0000
0000
0000
0000
,
0100
0000
0000
0000
,
0001
0000
0000
0000
,
0100
0000
0000
0000
,
0000
0000
0000
0000
,
0010
0000
0000
0000
,
0000
0000
0000
0000
,
0100
0000
0001
0000
,
0100
0000
0000
0000
,
0100
0000
0010
0000
,
0001
0000
0001
0000
,
0010
0000
0100
0000
,
0010
0000
0001
0000
,
0011
0000
0000
0000
,
0000
0000
0000
0000
,
0100
0000
0000
1000
0000
0000
0000
0000
,
0100
0000
0000
0010
0000
0000
0000
0000
,
0001
0000
0000
1000
0000
0000
0000
0000
,
0020
0000
0000
0000
,
0031
1000
0001
0000
,
0002
0000
0013
0000
,
0010
0000
0001
0000
,
0001
0000
0001
0000
,
0100
0010
0100
0000
,
0200
0000
0301
0000
,
0001
0000
0001
0000
,
0010
0000
0000
0000
,
0010
0100
0001
0000
,
0200
0000
0310
0000
,
0001
0000
0001
0000
,
0001
0000
0100
0000
,
0100
1000
0100
0000
,
0002
0000
0013
0000
,
0100
0000
0100
0000
,
0100
0000
0000
0000
,
0020
0000
0000
0000
,
0031
0000
0000
0000
,
0010
0000
0000
0000
,
0001
0000
0000
0000
,
0100
0000
0000
0000
,
0010
0000
0000
0000
,
0010
0000
0000
0000
,
0001
0000
0000
0000
,
0100
0000
0000
0000
,
0100
0000
0000
0010
0000
0000
0000
0000
,
0001
0000
0000
1000
0000
0000
0000
0000
,
0010
0000
0000
1000
0000
0000
0000
0000
,
0010
0000
0000
0001
0000
0000
0000
0000
,
0001
0000
0000
0100
0000
0000
0000
0000
,
0010
0000
0000
0100
0000
0000
0000
0000
,
0010
0000
0000
1000
0000
0000
0000
0000
,
0002
0000
0000
0000
,
1003
0000
0000
0000
,
0010
0000
0000
0000
,
0100
0000
0000
0000
,
0001
0000
0000
0000
,
0001
0000
0000
0000
,
0100
0000
0000
0000
,
0100
0000
0000
0000
;

//--------------- dance-single - B. M'Rey ----------------
#NOTES:
     dance-single:
     B. M'Rey:
     Easy:
     3:
     0.255781,0.355822,0,0.063621,0,197,197,0,7,0,0,0.255781,0.355822,0,0.063621,0,197,197,0,7,0,0:
0000
0000
0000
0000
,
0000
0000
0000
0000
,
0000
0000
0000
0000
,
0000
0000
0000
0000
,
0000
0000
0000
0000
,
0001
1000
0001
1000
,
0010
0000
0000
0000
,
0000
1000
0001
1000
,
0001
0000
0010
0000
,
0010
0100
0010
0100
,
0001
0000
0000
0000
,
0000
1000
0000
1000
,
0000
0000
0000
0000
,
0000
1000
0001
1000
,
0001
0000
0000
0000
,
0000
0100
0000
1000
,
0010
1000
0100
1000
,
0000
0000
0010
0000
0100
0000
0000
0001
,
0000
0010
0000
0001
0000
0000
1000
0000
,
1001
0000
0000
0000
,
0000
0000
0000
0000
,
0010
0000
0000
1000
0000
0000
0100
0000
,
0001
0000
0000
0010
0000
0000
0000
0000
,
0010
0000
0000
0100
0000
0001
0000
0200
,
0000
0000
0000
0000
,
0301
1000
0010
0000
,
0020
0000
0000
0130
0000
0000
0000
0000
,
0100
0010
0100
0000
,
0001
1000
0001
0000
,
0010
0100
0010
0000
,
0020
0000
0000
1030
0000
0000
0010
0000
,
0100
0000
0000
1000
,
0001
0000
0010
0000
,
0010
0100
0010
0000
,
0002
0000
0000
1003
0000
0000
0000
0000
,
0001
0010
0100
0000
,
0100
1000
0100
0000
,
0001
0010
0001
0000
,
0200
0000
0000
1300
0000
0000
1000
0000
,
0100
0000
0000
0010
,
0001
0000
0000
0000
,
2002
0000
0000
0000
0000
0000
0000
3003
,
0001
0000
0001
0000
,
0001
0100
0000
0100
,
0010
0000
0001
0000
,
0001
1000
0001
0100
,
0010
0000
0010
0000
,
0001
0010
0000
0010
,
0001
0000
0100
0000
,
0100
0000
0000
0000
,
0010
0100
0010
0000
,
0001
1000
0001
0000
,
0010
0100
0001
0000
,
0001
0100
0010
0000
,
0100
1000
0100
0000
,
0001
0010
0100
0000
,
0100
0010
0001
0000
,
0001
0000
0000
0000
,
0002
0000
0000
0013
0000
0000
0000
0000
,
0020
0000
0000
0130
0000
0000
0000
0000
,
0100
0010
0100
0000
,
0001
1000
0001
0000
,
0020
0000
0000
0130
0000
0000
0000
0000
,
0020
0000
0000
1030
0000
0000
0000
0000
,
0110
0000
0000
0000
;

//--------------- dance-single - B. M'Rey ----------------
#NOTES:
     dance-single:
     B. M'Rey:
     Medium:
     6:
     0,0,0,0,0:
0000
0000
0000
0000
,
0000
0000
0000
0000
,
0000
0000
0000
0000
,
0000
0000
0000
0000
,
0000
0000
0000
0000
,
1000
0001
1000
0001
,
0010
0000
0000
0001
0000
0000
0000
0000
,
0000
0001
0100
0001
,
0100
0001
1000
0100
,
0000
0100
0010
0100
,
1000
0000
0000
0010
0000
0000
0001
0000
,
1000
0000
0001
0010
0000
0001
0010
0100
,
0010
0100
0010
0001
,
1000
0001
1000
0001
,
0010
0000
0010
0000
,
0010
0100
1000
0100
,
1000
0001
1000
0001
,
0000
0001
0100
0010
,
0100
0010
0100
0001
,
1001
0000
0000
0000
,
1000
0000
0100
0000
,
0010
0001
0010
0001
0000
0100
1000
0000
,
1000
0001
1000
0001
0000
0001
0100
0000
,
1000
0010
0100
0010
0100
0001
0100
0001
,
0020
0000
0000
0000
,
0130
0000
0010
0000
0010
0100
1000
0000
,
1000
0000
0010
0000
0010
0001
0100
0000
,
0100
0010
0100
0000
1000
0010
1000
0000
,
1000
0100
0010
0000
0010
0001
0010
0000
,
0100
0000
0010
0000
0010
0001
0010
0000
,
1000
0000
0100
0000
0100
0001
0100
0001
,
0000
1000
0000
0100
0010
0000
0100
0010
,
1000
0010
0100
0000
1000
0000
1000
0000
,
0010
0000
0010
0000
0010
0001
1000
0000
,
1000
0000
0010
0000
0010
0100
0010
0000
,
0100
0001
0100
0000
0010
0100
1000
0000
,
1000
0100
0010
0000
0010
0001
0010
0000
,
1000
0000
1000
0000
1000
0100
0010
0000
,
0010
0000
1000
0000
1000
0010
1000
0010
,
0000
0010
0000
0001
0000
0001
1000
0001
,
1000
0010
1000
0000
0100
0000
0100
0000
,
0002
0000
0000
0000
,
1003
0000
0100
0001
0000
0001
1000
0010
,
1000
0000
0100
0010
0000
0001
1000
0001
,
0100
0000
0010
0100
0000
0010
1000
0010
,
1000
0010
0010
1000
,
1000
0000
1000
0100
0000
0001
0010
0000
,
0010
0000
1000
0100
0000
0010
1000
0100
,
0010
0000
0010
0001
0000
0100
1000
0000
,
2000
0000
0000
0000
,
3100
0001
0100
0000
0100
0010
1000
0000
,
1000
0001
1000
0000
0010
0100
0010
0000
,
1000
0001
0010
0000
0010
0100
0010
0000
,
1000
0001
0010
0000
0010
0100
0010
0000
,
0100
0001
0100
0000
1000
0100
1000
0000
,
1000
0001
0010
0000
0010
0100
0010
0000
,
0100
0001
0100
0000
1000
0100
1000
0000
,
1000
0100
0100
0100
,
0001
1000
0010
0000
,
0020
0000
0000
0130
0000
0000
0000
0000
,
0100
0010
0100
0000
,
0001
1000
0001
0000
,
0010
0100
0010
0000
,
0020
0000
0000
1030
0000
0000
0010
0000
,
0100
0000
0000
0000
;

//--------------- dance-single - B. M'Rey ----------------
#NOTES:
     dance-single:
     B. M'Rey:
     Hard:
     8:
     0.455732,0.562845,0,0.190862,0.045443,351,351,0,21,0,0,0.455732,0.562845,0,0.190862,0.045443,351,351,0,21,0,0:
0000
0000
0000
0000
,
0000
0000
0000
0000
,
0000
0000
0000
0000
,
0000
0000
0000
0000
,
0000
0000
0000
0000
,
0010
0000
0010
0100
0001
0000
0010
2000
,
0000
3001
0000
0000
,
0000
0000
0010
0100
0001
0000
0001
0000
,
0100
1000
0100
1000
0000
0010
0001
0000
,
0000
1000
0100
0010
0001
0000
0001
0200
,
0000
0310
0000
0000
,
0000
0000
0010
1000
0000
0100
0001
0010
,
0000
0100
0010
1000
0100
0010
0001
0100
,
0001
0000
0100
0010
0100
0000
0001
1000
,
0000
1000
0000
0010
0100
0000
0010
0000
,
0001
0000
0100
0010
0001
0000
0001
0000
,
0100
0010
0001
1000
0000
0010
0001
0000
,
0000
1000
0010
1000
0100
0000
0001
0100
,
0000
1000
0000
1000
0000
1000
0010
0100
,
0001
0000
0000
0000
,
0001
0010
0100
1000
0010
0100
0001
0010
,
0001
0000
0001
1000
0000
0100
0010
0000
,
0010
0100
0001
1000
0000
1000
0001
0100
,
0010
0000
0010
1000
0000
1000
0000
1000
,
0001
0100
0010
0200
0000
0000
0000
1300
,
0010
1000
0010
0100
0000
0010
0100
0000
,
0010
1000
0100
0010
0000
0010
0100
0000
,
0001
0100
0010
0100
0001
0010
0100
0010
,
0100
1000
0001
0100
0000
1000
0000
0100
,
0001
0100
0001
0010
0000
1000
0100
0000
,
0001
1000
0010
0100
0000
0010
0100
0010
,
0000
0010
0000
0100
0001
1000
0010
1000
,
0001
0010
0001
0100
0010
0100
0010
0100
,
0001
0010
0001
0010
0000
0010
0001
0000
,
0010
0100
0010
0100
0000
1000
0001
0000
,
0010
0100
0010
0100
0000
1000
0000
0100
,
0010
0100
0001
1000
0000
0010
0000
0010
,
0001
0100
0001
0010
0000
0100
0010
0000
,
0001
1000
0100
1000
0000
0100
0010
1000
,
0000
0010
0000
1000
0000
1000
0001
0010
,
0100
1000
0000
0010
0001
1000
0001
0010
,
2002
0000
0000
0000
,
3103
0000
0100
0010
0000
1000
0001
1000
,
0001
0000
0010
0100
0000
0010
0100
1000
,
0010
0000
0010
1000
0000
1000
0010
1000
,
0010
0000
0000
0000
0001
0000
0100
0000
0000
0010
1000
0000
0100
0000
1000
0000
,
0010
0000
0010
0100
0000
0100
0001
0100
,
0010
0000
0001
1000
0000
0100
0010
0100
,
0001
0000
0100
0010
0000
0010
0001
0100
,
0020
0000
0000
1030
0010
1000
0100
0010
,
0100
0000
1000
0000
0010
0000
1000
0000
0001
0010
0000
0010
0001
0000
1000
0000
,
0100
0000
0010
0000
0001
0000
1000
0000
0100
1000
0000
1000
0010
0000
0100
0000
,
0001
0000
0100
0000
0001
0000
0100
0000
0001
1000
0000
0100
1000
0000
0001
0000
,
0100
0000
0010
0000
0001
0000
1000
0000
0001
0010
0000
0001
1000
0000
0001
0000
,
0100
0000
1000
0000
0010
0000
1000
0000
0100
0010
0000
0100
0010
0000
0100
0000
,
0001
0000
1000
0000
0001
0000
1000
0000
0001
0010
0000
0100
0010
0000
0100
0000
,
0001
0000
0100
0000
0001
0000
1000
0000
0001
1000
0000
0010
1000
0000
0100
0000
,
0001
0010
0100
1000
0100
1000
0001
0100
,
0020
0000
0000
0130
0000
0010
0100
0000
,
0002
0000
0000
1003
0000
0010
0001
0000
,
0010
1000
0001
1000
0000
1000
0000
0200
,
0000
1300
0100
1000
0000
1000
0000
0010
,
0200
0000
0000
1300
0000
0100
0010
0000
,
0020
0000
0000
1030
0000
1000
0100
0010
,
0001
0000
0000
0000
;

//--------------- dance-single - B. M'Rey ----------------
#NOTES:
     dance-single:
     B. M'Rey:
     Challenge:
     10:
     0.671264,1.096066,0.009089,0.372636,0.645296,517,516,1,41,9,2,0.671264,1.096066,0.009089,0.372636,0.645296,517,516,1,41,9,2:
0000
0000
0000
0000
,
0000
0000
0000
0000
,
0000
0000
0000
0000
,
2002
0000
0000
0000
,
3103
0010
0001
1000
0100
0010
0001
0100
,
0010
0000
0100
1000
0001
0000
1000
0200
,
0000
0310
0001
0100
,
0010
0000
0001
0100
0001
0000
0001
0000
,
0010
1000
0100
1000
0000
1000
0001
0000
,
0010
1000
0100
0010
0100
0000
0100
1000
,
0000
1000
0100
0000
0001
0000
0010
0000
,
0001
0000
0100
0010
0000
1000
0010
0100
,
0010
0100
0001
0010
0100
0010
0100
1000
,
0010
0000
0010
1000
0001
0000
0001
0100
,
0010
0100
0000
0100
0001
0000
0001
0000
,
0010
0000
0100
0010
0001
0000
0001
0000
,
0001
0100
0010
0100
0000
0100
0001
0000
,
0010
0100
0010
0100
0001
0000
0010
1000
,
0001
0100
0001
1000
0100
1000
0100
1000
,
0001
0010
0001
0000
0100
1000
0010
0000
,
0100
1000
0010
0100
0010
0100
0001
0100
,
0001
1000
0010
0100
0010
0100
0010
1000
0001
1000
0001
0010
0001
0010
0100
0010
,
0100
1000
0100
1000
0010
1000
0010
0100
0010
0100
0001
0100
0001
0010
0001
0010
,
0100
1000
0100
1000
0100
0010
0001
0010
0001
0010
0100
1000
0001
1000
0100
1000
,
0001
0100
0001
0100
0001
1000
0010
1000
0010
1000
0100
0010
0100
0010
0100
0000
,
0001
0010
0001
1000
0100
1000
0100
0010
0001
0000
0010
0000
0100
0000
0010
0000
,
0001
1000
0001
0010
0100
0010
0100
0010
0001
1000
0100
0000
0001
0000
0000
0000
,
0010
1000
0010
0100
0010
0100
0001
0100
,
0001
0010
0001
1010
0000
1010
0000
1010
,
0001
1000
0001
1000
0001
0100
0010
0100
0001
0000
1000
0000
0100
0000
1000
0000
,
0001
1000
0001
1000
0001
0010
0100
0010
0100
0010
0100
0000
0001
0000
1000
0000
,
0100
1000
0001
1000
0001
0010
0100
0010
,
0100
0010
0001
1000
0010
1000
0001
0010
,
0001
1000
0001
0100
0001
0100
0010
0100
0010
1000
0100
0000
0010
0000
0100
0000
,
0001
1000
0001
1000
0010
1000
0100
0010
0100
0010
0100
1000
0001
0000
0100
0000
,
0001
0100
0001
1000
0100
1000
0100
1000
,
0010
0100
0010
0110
0000
0110
0000
0110
,
0001
1000
0001
1000
0001
0100
0010
0100
0010
1000
0010
1000
0100
0000
0010
0000
,
0001
1000
0010
1000
0001
0010
0001
0010
0001
1000
0100
0000
0001
0000
0100
0000
,
0010
0100
0010
1000
0010
1000
0100
1000
,
0001
0100
0001
0100
0001
1000
0010
1000
,
0004
0000
0000
0000
,
0013
1000
0010
1000
0010
0100
0001
0100
,
0001
0100
0010
1000
0010
1000
0010
0100
,
0001
0100
0001
1000
0001
0100
0010
0100
,
0010
0100
0001
0010
0001
0010
0001
0100
,
0010
0100
0010
0100
0001
1000
0001
1000
,
0010
1000
0010
0100
0010
0100
0001
0100
,
0001
0010
0100
1000
0100
0010
0100
1000
,
0010
0000
0000
0000
0001
0000
0100
0000
0000
0001
0010
0000
0001
0000
1000
0000
,
0010
1000
0100
1000
0001
1000
0001
0100
0001
0100
0010
0100
0010
1000
0010
1000
,
0100
1000
0100
0010
0100
0010
0001
0010
0001
0100
0001
0100
0010
0100
0001
1000
,
0100
0010
0100
1000
0100
1000
0010
1000
0010
0100
0010
0100
0001
0100
0001
0010
,
0001
1000
0010
1000
0010
1000
0001
0010
0001
0010
0001
1000
0100
1000
0100
1000
,
0010
0100
0010
0100
0010
1000
0001
1000
0001
0100
0001
0100
0010
0100
0010
1000
,
0010
1000
0001
1000
0001
0010
0001
0100
0010
0100
0010
1000
0010
1000
0001
0010
,
0100
0010
0100
0010
0001
1000
0001
0010
0001
0010
0100
0010
0100
1000
0100
1000
,
0010
0000
1000
0000
0010
0000
0100
0000
0010
0000
0100
0000
0001
0000
0100
1000
,
0010
1000
0010
0100
0000
0010
0100
0000
,
0010
1000
0100
0010
0000
0010
0100
0000
,
0001
0100
0010
0100
0000
0010
0000
0010
,
0100
1000
0001
0100
0000
1000
0000
0100
,
0001
0100
0001
0010
0000
1000
0100
0000
,
0001
1000
0010
0100
0000
0010
0100
0010
,
0100
0001
0000
0000
0000
0000
0000
0000
;
