#VERSION:0.83;
#TITLE:Beyond Boundries;
#ARTIST:Rainwave;
#GENRE:Dance / Electronic;
#CREDIT:B. M'Rey;
#MUSIC:Beyond Boundries.ogg;
#BANNER:Beyond Boundries-BN.png;
#BACKGROUND:Beyond Boundries-BG.png;
#CDTITLE:./CDTITLES/BMR Superstars.PNG;
#SAMPLESTART:38.8;
#SAMPLELENGTH:16;
#OFFSET:-0.182;
#BPMS:0=155;

//--------------- dance-single - B. M'Rey ----------------
#NOTEDATA:;
#STEPSTYPE:dance-single;
#DESCRIPTION:B. M'Rey;
#CREDIT:B. M'Rey;
#DIFFICULTY:Beginner;
#METER:4;
#RADARVALUES:0,0,0,0,0;
#NOTES:
0000
0000
0000
0000
,
0000
0000
0000
0000
,
0000
0000
0000
0000
,
0000
0000
0000
0000
,
0000
0000
0000
0000
,
0000
1000
0000
0100
,
0000
0010
0000
0001
,
0000
0010
0000
0100
,
0000
1000
0000
0000
,
1001
0000
0001
0000
,
0010
0000
0100
0000
,
0010
0000
0001
0000
,
1000
0000
0010
0000
,
0100
0000
0001
0000
,
0010
0000
0001
0000
,
0100
0000
0010
0000
,
1000
0000
0000
0000
,
0101
0000
0000
0000
,
0100
0000
0000
0000
,
0010
0000
0000
0000
,
1000
0000
0000
0000
,
0001
0000
0000
0000
,
0010
0000
0000
0000
,
0001
0000
0000
0000
,
0100
0000
0000
0000
,
0001
0000
0001
0000
,
0100
0000
0100
0000
,
0010
0000
0010
0000
,
1000
0000
0001
0000
,
0100
0000
0100
0000
,
0010
0000
0010
0000
,
1000
0000
1000
0000
,
0001
0000
0000
0000
,
0010
0100
0000
0000
,
0001
0100
0000
0000
,
0010
1000
0000
0000
,
0010
0000
0100
0000
,
0001
0100
0000
0000
,
0010
0000
1000
0000
,
0010
0100
0000
0000
,
0001
0000
1000
0000
,
0010
0100
0000
0000
,
0001
0010
0000
0000
,
1000
0100
0000
0000
,
0010
0000
0100
0000
,
0001
0100
0000
0000
,
0010
0000
1000
0000
,
0010
0000
0100
0000
,
0001
0000
0010
0000
,
0001
0000
2000
0000
,
0000
0000
0000
0000
,
3100
0000
0000
0000
,
0010
0000
0000
0000
,
0100
0000
0002
0000
,
0000
0000
0000
0000
,
0103
0000
0000
0000
,
0010
0000
0000
0000
,
1001
0000
0002
0000
,
0000
0000
0000
0000
,
0103
0000
0100
0000
,
0010
0000
0010
0000
,
1000
0000
0200
0000
,
0000
0000
0000
0000
,
0301
0000
0010
0000
,
1000
0000
0100
0000
,
0011
0000
0000
0000
,
0010
0000
0000
0000
,
1000
0000
0000
0000
,
0100
0000
0100
0000
,
0100
0000
0010
0000
,
0010
0000
0001
0000
,
0001
0000
1000
0000
,
0000
0000
0001
0000
,
1001
0000
0010
0000
,
0100
0000
0001
0000
,
0010
0000
1000
0000
,
0100
0000
0001
0000
,
0010
0000
0100
0000
,
0010
0000
0001
0000
,
1000
0000
0010
0000
,
0100
0000
0010
0000
,
0101
0000
0000
0000
;

//--------------- dance-single - B. M'Rey ----------------
#NOTEDATA:;
#STEPSTYPE:dance-single;
#DESCRIPTION:B. M'Rey;
#CREDIT:B. M'Rey;
#DIFFICULTY:Easy;
#METER:7;
#RADARVALUES:0,0,0,0,0;
#NOTES:
0000
0000
0000
0000
,
0000
0000
0000
0000
,
0000
0000
0000
0000
,
0000
0000
0000
0000
,
0000
0000
0000
0000
,
0000
0001
0000
0100
,
0000
0010
0000
1000
,
0000
0001
0000
0100
,
0000
0010
0000
0000
,
0001
0000
1000
0000
,
0010
0000
0100
0100
,
0010
0010
0001
0001
,
1000
0000
0010
0000
,
0100
0100
1000
1000
,
0001
0001
0100
0000
,
0010
0000
1000
0000
,
0001
0000
0010
0000
,
0100
0000
0001
0100
0000
0010
0000
0000
,
1000
0000
0010
1000
0000
0100
0000
0000
,
0001
0000
0100
0001
0000
0000
0010
0000
,
1000
0010
0000
0000
0100
0000
0001
0000
,
0100
0000
0001
0100
0000
0000
0010
0000
,
1000
0010
0000
0000
0100
0000
0001
0100
,
0000
0000
0010
0000
1000
0010
0000
0000
,
0100
0000
0001
0100
0000
0000
0010
0000
,
1000
0000
0001
0100
0000
0010
0000
0000
,
1000
0000
0010
0100
0000
0001
0000
0000
,
0010
0000
0100
0010
0000
0000
1000
0000
,
0001
0100
0010
1000
,
0001
0000
0100
0001
0000
0000
0010
0000
,
1000
0010
0000
0000
0100
0000
0001
0100
,
0000
0010
1000
0000
0010
0100
0000
0100
,
0001
0100
0010
1000
,
0001
0000
0100
0001
0000
0010
0000
0000
,
1000
0000
0010
1000
0000
0000
0100
0000
,
0001
0000
0100
0010
0000
0000
1000
0000
,
0001
0100
0010
1000
,
0010
0000
1000
0010
0000
0000
0100
0000
,
0001
0100
0010
1000
,
0001
0100
0001
1000
,
0010
0100
1001
0000
,
0010
0000
0100
0010
0000
1000
0000
0000
,
0001
0000
0100
0001
0000
0010
0000
0000
,
0010
0000
0100
0010
0000
1000
0000
0000
,
0001
0010
0100
0001
,
1000
0000
0001
1000
0000
0010
0000
0000
,
0100
0010
0001
1000
,
0010
0100
0001
0100
,
0010
0000
1000
0010
0000
0100
0001
0000
,
0100
0010
2000
0000
,
0000
3001
0010
0001
,
0100
0010
0200
0000
,
1300
0010
2000
0000
,
3001
0100
0020
0000
,
0000
0031
0100
0010
,
1000
0010
0200
0000
,
0310
0000
0100
0000
2002
0000
0000
3003
,
0010
0100
0002
0000
,
0000
0013
1000
0100
,
0010
1000
0002
0000
,
0103
0010
2000
0000
,
3010
0100
0002
0000
,
0000
0013
0100
0001
,
1000
0010
0200
0000
,
0301
0100
0020
0000
,
0031
0000
0001
0000
,
1000
0000
1000
0000
,
0010
0010
0100
0100
,
0001
0000
0010
0000
,
0100
0000
1000
0000
,
0100
0000
0001
0000
,
0010
0000
0001
0000
,
0100
0010
0100
0010
,
0100
0000
0001
0000
,
1000
0000
0010
0000
,
0100
0001
0001
1000
,
0010
0000
0100
0000
,
0001
0000
0010
0000
,
1000
0100
0001
0010
,
1000
0100
0001
0010
,
1000
0001
0100
0010
,
2002
0000
0000
0000
0000
0000
0000
3003
,
0020
0000
0230
0000
,
0302
0000
0000
0000
,
0000
0000
0000
0000
,
2003
0000
0000
0000
,
0000
0000
0000
0000
,
3020
0000
0000
0000
,
0230
0000
0000
0000
,
0302
0000
0000
0000
,
0003
0000
0000
0000
;

//--------------- dance-single - B. M'Rey ----------------
#NOTEDATA:;
#STEPSTYPE:dance-single;
#DESCRIPTION:B. M'Rey;
#CREDIT:B. M'Rey;
#DIFFICULTY:Medium;
#METER:9;
#RADARVALUES:0,0,0,0,0;
#NOTES:
0000
0000
0000
0000
,
0000
0000
0000
0000
,
0000
0000
0000
0000
,
0000
0000
0000
0000
,
0000
0000
0000
0000
,
0000
0110
0000
0101
,
0000
0110
0000
1010
,
0000
0101
0000
0110
,
0000
1001
0000
0101
,
1000
0010
0100
0001
,
0010
0000
0001
0000
0100
0010
1000
0000
,
0100
0010
0100
0000
0001
0000
0010
0000
,
0001
0100
0010
0100
,
0001
0100
0001
0000
0010
1000
0010
0000
,
0100
0000
0001
0000
0100
0010
0100
0000
,
1000
0100
1000
0000
0001
0000
0100
0000
,
0001
0100
0001
0000
0010
0000
0100
0000
,
0101
0000
0001
1000
0000
0010
0000
0100
,
0010
0000
0001
0100
0000
0010
1000
0000
,
0010
0000
0100
0100
0000
0001
0001
0000
,
0010
0010
0000
1000
1000
0000
0100
0010
,
0100
0000
0001
0001
0000
1000
1000
0000
,
0010
0010
0000
0100
0100
0000
0001
0100
,
0000
0010
1000
0000
0010
0100
0000
0001
,
0100
0000
0010
0100
0000
0000
0110
0000
,
0001
0000
0100
0001
0000
0010
0000
1000
,
0010
0000
1000
0010
0000
0100
0001
0000
,
0100
0000
0001
0010
0000
1000
0100
0000
,
0001
0010
0000
1000
0001
0000
0100
0010
,
0001
0000
0010
1000
0000
0001
1000
0000
,
0010
0100
0000
0001
0010
0000
1000
0100
,
0000
0010
0001
0000
0010
0100
0000
0010
,
0100
0000
0001
0010
0000
1000
0100
0000
,
0001
0000
0010
0001
0000
0010
0000
0100
,
0010
0000
1000
0100
0000
1000
0010
0000
,
0100
0000
0001
0010
0000
0100
0010
0000
,
0100
0001
0000
0010
1000
0000
0010
1000
,
0001
0000
0010
0100
0000
0001
1000
0000
,
1000
0100
0000
0010
0100
0000
0001
0010
,
0000
0001
0100
0000
0010
1000
0000
0010
,
0001
0010
1000
0001
,
0100
0000
1000
0001
0000
0100
0000
0010
,
0001
0000
1000
0010
0000
0100
1000
0000
,
0010
0000
0100
0001
0000
0010
0001
0000
,
0010
1000
0000
0100
1000
0000
0010
0001
,
0010
0000
0100
0010
0000
0001
0010
0000
,
1000
0100
0000
0010
0100
0000
0001
0010
,
0000
1000
0100
0000
1000
0100
0000
0010
,
0100
0000
0001
0010
0000
1000
0100
0000
,
0001
1000
0200
0000
,
0000
0310
0001
0010
,
0100
0000
1000
0100
1000
0100
1000
0000
,
0001
0000
0100
0000
0001
0100
0001
0100
,
0010
1000
0010
0100
,
0001
0000
0100
0010
0100
0000
1000
0000
,
0001
0000
0100
0010
0100
0010
0100
0000
,
0001
0000
0100
0000
0001
1000
0001
0000
,
0100
0010
1000
0100
,
0001
0000
0100
0010
0100
0000
1000
0000
,
0001
0000
0100
0001
0100
0001
0100
0000
,
0010
0000
1000
0010
1000
0010
1000
0000
,
0100
0001
0100
0010
,
1000
0000
0100
0010
0100
0000
0001
0000
,
0100
0000
0010
0100
0010
0100
0010
0000
,
1000
0000
0001
1000
0001
1000
0001
0000
,
0010
0100
0010
1000
,
0001
0010
0001
0100
,
0010
0100
1000
0001
,
0100
0001
0100
0000
0010
1000
0010
0000
,
0100
0000
0001
0100
0001
0000
0010
0000
,
1000
0000
0010
1000
0010
0000
0100
0000
,
0001
0100
0001
0000
0010
1000
0010
0000
,
0100
0101
0010
0110
,
0010
0000
1000
0010
1000
0000
0100
0000
,
0001
0000
0100
0001
0100
0000
0010
0000
,
1000
0001
0100
0010
,
0100
0010
0100
0000
1000
0100
1000
0000
,
0001
0000
0100
0001
0100
0000
0010
0000
,
1000
0000
0010
1000
0010
0000
0100
0000
,
0001
0100
0010
1000
,
0001
0000
1000
0001
1000
0000
0100
0010
,
0200
0000
0000
0000
,
0302
0000
2003
0000
,
3020
0000
0000
0000
,
0000
0000
0000
0000
,
0230
0000
0000
0000
,
0000
0000
0000
0000
,
0302
0000
0000
0000
,
2003
0000
0000
0000
,
3020
0000
0000
0000
,
0030
0000
0000
0000
;

//--------------- dance-single - B. M'Rey ----------------
#NOTEDATA:;
#STEPSTYPE:dance-single;
#DESCRIPTION:B. M'Rey;
#CREDIT:B. M'Rey;
#DIFFICULTY:Hard;
#METER:12;
#RADARVALUES:0.595,0.612,0.194,0.194,0.075;
#NOTES:
0000
0000
0000
0000
,
0000
0000
0000
0000
,
0000
0000
0000
0000
,
0000
0000
0000
0000
,
0000
0000
0000
0000
,
0000
0110
0000
1001
,
0000
1100
0000
0110
,
0000
1100
0000
1001
,
0000
0110
0000
1100
,
0001
1000
0010
1000
0010
1000
0001
0100
,
0001
0010
0001
0010
0100
0010
0001
0100
,
0001
1000
0001
1000
0100
1000
0001
0100
,
0001
0100
0001
1000
0010
1000
0010
1000
,
0001
0010
0001
0010
0001
0100
0010
0100
,
0010
0100
0001
1000
0001
0010
0001
0010
,
0100
0010
0100
1000
0100
0010
0001
0020
,
0000
0032
0000
2003
0000
3200
0000
0310
,
0001
0000
1000
0100
0000
0001
0000
1000
,
0010
0000
0001
0100
0000
0001
1000
0000
,
0100
0000
0010
1000
0000
0100
0001
0000
,
1000
0010
0000
0001
0100
0000
1000
0010
,
1000
0000
0100
0001
0000
0010
1000
0000
,
0001
0100
0000
0001
1000
0000
0001
0100
,
0000
1000
0010
0000
0001
0100
0000
0001
,
1000
0000
0100
0001
0000
0010
1000
0000
,
0001
1000
0100
1000
0100
1000
0001
0010
,
0001
0010
0001
0100
0010
0100
0010
0100
,
0001
1000
0010
1000
0010
1000
0100
0010
,
0100
0010
0001
0010
0100
1000
0001
1000
,
0010
1000
0001
0100
0001
1000
0001
1000
,
0010
1000
0001
0010
0001
0010
0001
1000
,
0100
0010
0100
0010
0001
0010
0001
0100
,
0001
0000
0010
1000
0000
0100
0001
0000
,
0100
1000
0100
0000
1000
0000
0100
0000
1000
0000
0010
0000
0001
0000
0010
0000
,
0001
0010
0100
0000
0010
0000
1000
0000
0100
0000
1000
0000
0100
0000
0010
0000
,
0001
1000
0001
0000
1000
0000
0001
0000
0010
0000
1000
0000
0001
0000
0010
0000
,
0001
0010
0001
1000
0100
1000
0100
1000
,
0001
0010
0001
0000
0010
0000
0100
0000
0001
0000
0100
0000
0010
0000
0100
0000
,
0010
1000
0010
1000
0001
1000
0001
0100
,
0001
0100
0010
0000
0100
0000
1000
0000
0010
0000
0100
0000
0010
0000
0100
0000
,
0001
0000
0001
1000
0000
0100
0010
0000
,
0010
0100
0010
0000
0100
0000
0010
0000
0001
0000
0100
0000
0001
0000
1000
0000
,
0001
0010
0100
0000
0001
0000
0010
0000
0100
0000
0010
0000
0001
0000
1000
0000
,
0010
1000
0010
0000
1000
0000
0010
0000
0001
0000
0100
0000
0001
0000
0100
0000
,
0001
0010
0100
0010
0100
0010
0001
1000
,
0001
0010
0001
0000
0100
0000
0010
0000
0100
0000
1000
0000
0100
0000
1000
0000
,
0100
0000
0010
0000
0001
0000
1000
0000
0100
1000
0100
0000
0010
0000
1000
0000
,
0001
0010
0001
0000
0100
0000
0010
0000
0100
0000
0010
0000
0001
0000
1000
0000
,
0001
0000
0001
0010
0000
0010
0001
0000
,
1000
0010
0001
0100
2000
0000
0010
0000
,
0100
0000
3010
1000
0100
0010
0100
0010
,
0001
0000
0010
1000
0020
0000
0130
0000
,
1010
0000
0001
1000
0020
0000
1030
0000
,
0001
1000
0010
1000
0200
0000
0001
0000
,
0010
0000
0000
0300
0001
0000
1000
0000
0001
0000
1000
0000
0001
0000
0010
0000
,
0100
0010
0100
0000
0002
0000
0103
0000
,
0001
0100
0001
0000
0020
0000
0130
0000
,
1001
1000
0001
1000
0001
0100
0010
0100
,
0010
1000
0010
1000
0100
1000
0100
0010
,
0100
0010
0001
1000
0200
0000
0310
0000
,
0100
0010
0001
0010
0200
0000
0310
0000
,
0100
1000
0010
0100
0010
0100
0010
1000
,
0001
1000
0001
1000
0100
0010
0100
0010
,
0001
0010
0100
1000
0200
0000
1300
0000
,
0001
0010
0001
0010
0200
0000
0301
0000
,
0001
1000
0001
1000
0001
0010
0100
0010
,
0100
0010
0001
1000
0001
1000
0001
0100
,
0020
0000
0000
0000
0130
0000
0010
0001
0000
1000
0010
0000
0001
0000
0010
0000
,
0001
0100
0010
1000
0010
0100
0010
1000
,
0001
1000
0001
1000
0010
0100
0010
0100
,
0010
1000
0001
1000
0001
1000
0100
0010
,
0100
2000
0000
3200
0000
0302
0000
0203
,
0000
0000
0310
0000
0001
0100
0001
0000
0100
0000
0000
0000
1000
0010
1000
0000
,
0001
1000
0001
1000
0001
0100
0010
0100
,
0010
0100
0001
0010
0100
0010
0100
0010
,
0002
0000
0000
0000
0103
0000
0010
0001
0000
0001
1000
0000
0100
0000
1000
0000
,
0100
1000
0001
0100
0001
0100
0001
1000
,
0010
1000
0010
1000
0001
0010
0001
0010
,
0100
0010
0001
1000
0001
1000
0001
0010
,
0100
0020
0000
0230
0000
0302
0000
0203
,
0000
0000
0310
0000
0100
0010
0100
0000
0100
0000
0000
0000
0001
1000
0001
0000
,
2000
0000
0000
0000
,
3002
0000
0203
0000
,
0320
0000
0000
0000
,
0000
0000
0000
0000
,
2030
0000
0000
0000
,
0000
0000
0000
0000
,
3002
0000
0000
0000
,
0203
0000
0000
0000
,
0320
0000
0000
0000
,
0030
0000
0000
0000
;

//--------------- dance-single - B. M'Rey ----------------
#NOTEDATA:;
#STEPSTYPE:dance-single;
#DESCRIPTION:B. M'Rey;
#CREDIT:B. M'Rey;
#DIFFICULTY:Challenge;
#METER:15;
#RADARVALUES:0,0,0,0,0;
#NOTES:
0000
0000
0000
0000
,
0000
0000
0000
0000
,
0000
0000
0000
0000
,
0000
0000
0000
0000
,
0000
0000
0000
0000
,
0000
1001
1000
1001
,
1000
0101
0100
1010
,
1000
1010
1000
0110
,
0100
0101
0100
0101
,
0001
0100
0001
0010
0100
0010
0001
0100
,
0010
0100
0010
1000
0100
1000
0010
0100
,
0010
0100
0010
1000
0100
0010
0100
1000
,
0100
1000
0001
0100
0010
0100
0010
1000
,
0001
0010
0100
1000
0001
0100
0010
0100
,
0001
0010
0100
0010
0100
0010
0001
0100
,
0001
1000
0001
0010
0100
0010
0100
0010
,
0001
1000
0001
1000
0001
0010
0100
0010
0100
0010
0001
1000
0001
1000
0001
0000
,
0101
0000
0001
0010
0000
0100
0000
1000
,
1001
0000
0100
0010
0000
0010
0001
0000
,
1010
0000
0100
1000
0000
1000
0010
0000
,
0001
0010
0000
1000
0010
0000
0010
0100
,
0001
0000
0100
0010
0000
0010
0001
0000
,
0010
1000
0000
0010
0001
0000
0100
1000
,
0000
1000
0100
0000
0100
1000
0000
0100
,
0010
0000
0100
0010
0011
0000
1100
0000
,
0001
1000
0010
0100
0010
1000
0001
0010
,
0100
1000
0100
0010
0100
0010
0001
0100
,
0010
0100
0001
0010
0100
0010
0100
1000
,
0001
1000
0100
0010
0001
1000
0010
0100
,
0010
0100
0010
1000
0001
0010
0001
0100
,
0001
0100
0010
0100
0010
1000
0001
0010
,
0001
0100
0010
1000
0100
1000
0010
0100
,
0010
0000
0100
0010
0000
1000
0100
0000
,
0001
1000
0010
1000
0010
1000
0100
0010
0100
0010
0100
1000
0010
1000
0010
1000
,
0100
0010
0001
1000
0001
0100
0001
1000
0010
0100
0010
1000
0010
1000
0100
1000
,
0100
0010
0100
0010
0001
0010
0001
1000
0001
1000
0100
0010
0100
0010
0100
1000
,
0001
0010
0001
0010
0001
1000
0100
1000
0100
1000
0001
0100
0001
0010
0001
0010
,
0100
0010
0100
1000
0010
0100
0010
0100
0010
1000
0001
1000
0001
1000
0010
0100
,
0010
0100
0010
1000
0100
1000
0100
1000
0001
0100
0001
0100
0001
0010
0100
0010
,
0100
0010
0001
1000
0100
1000
0010
1000
0010
0100
0010
0100
0001
0100
0001
0010
,
0001
1000
0100
1000
0100
1000
0001
0000
0110
0000
0000
0000
0011
0000
0000
0000
,
0001
1000
0010
1000
0010
1000
0001
0010
0001
0010
0001
1000
0100
1000
0100
1000
,
0010
0100
0001
0100
0001
0100
0010
1000
0010
0100
0010
0100
0001
0100
0010
1000
,
0010
1000
0001
1000
0001
0100
0001
0100
0010
0100
0010
1000
0010
1000
0100
1000
,
0100
0010
0100
0010
0001
0010
0001
1000
0001
1000
0010
1000
0010
0100
0010
0100
,
0001
0100
0001
1000
0001
1000
0010
0100
0010
0100
0010
1000
0001
1000
0001
1000
,
0100
0010
0100
0010
0100
1000
0001
1000
0001
1000
0010
0100
0001
0100
0010
0100
,
0010
1000
0010
1000
0100
0010
0100
0010
0100
1000
0001
1000
0001
1000
0010
0100
,
0010
1000
0010
1000
0001
1000
0010
0000
0011
0000
0000
0000
1001
0000
0000
0000
,
0001
0100
0010
1000
0002
0000
0010
0000
,
0010
0000
0013
0100
0001
1000
0010
0100
,
0001
0000
1000
0000
0010
0000
1000
0100
1000
0100
1000
0000
0110
0000
0000
0000
,
0001
0000
0010
0000
0100
0000
1000
0100
1000
0100
1000
0000
1010
0000
0101
0000
,
0100
0000
1001
0100
0010
0100
1001
1000
,
0100
0010
0101
0100
0001
1000
1100
1000
,
0001
0000
0100
0000
0011
0000
0010
0001
0010
0001
0010
0000
0110
0000
0000
0000
,
0001
0000
1000
0000
0001
0000
0100
0001
0100
0001
1000
0000
0110
0000
0000
0000
,
0001
0100
0001
1000
0010
1000
0001
0100
,
0010
1000
0001
0100
0001
1000
0010
0100
,
0001
0000
0010
0000
0001
0000
1000
0010
1000
0010
0100
0000
0010
0000
0100
0000
,
0001
0000
0100
0000
0001
0000
1000
0100
1000
0100
1000
0000
0001
0000
0100
0000
,
0001
0010
0100
0010
0100
0010
0001
0100
,
0001
1000
0100
1000
0001
0100
0001
0100
,
0010
0000
0100
0000
0001
0000
1000
0010
1000
0010
1000
0000
0010
0000
1000
0000
,
0001
0000
0010
0000
0100
0000
0010
0100
0010
0100
1000
0000
0110
0000
0000
0000
,
1001
0000
0010
1000
0100
0000
0010
0000
,
0001
0100
0010
1000
0001
0010
0100
0010
,
0200
0000
0000
0000
0301
0000
0100
0010
0000
0001
1000
0000
0001
0000
1000
0000
,
0010
1000
0010
0100
0010
1000
0001
0010
,
0001
0000
0010
0000
0001
0000
1000
0010
0100
0000
1000
0000
0001
0000
0100
0000
,
0010
0000
0100
0000
0001
0000
0010
0000
0100
0000
1000
0000
0100
0000
0010
0001
,
0000
1000
0100
0000
0010
1000
0100
0010
0100
1000
0010
1000
0001
0000
0010
0000
,
1100
0000
0000
0000
0010
1000
0010
0000
0110
0000
0000
0000
0001
1000
0001
0000
,
2002
0000
0000
3003
1000
0000
0010
0000
0100
0000
0000
0000
0010
0000
0000
0000
,
1000
0100
0010
0100
0010
0001
0100
0001
,
0200
0000
0000
0000
0301
0000
0010
1000
0000
1000
0001
0000
0100
0000
0010
0000
,
0100
0001
1000
0100
0010
0001
0010
0100
,
0010
0100
1000
0010
1000
0001
0100
0001
,
1000
0000
0001
0000
0010
0000
0100
0000
0010
0000
0100
0000
0010
0000
0001
1000
,
0000
1000
0010
0000
1000
0001
1000
0001
1000
0000
0001
0000
0100
0001
0010
0000
,
0100
0000
0001
0000
0010
0001
0010
0000
0100
0000
0001
0000
0010
1000
0100
0000
,
0200
M000
00M0
0000
000M
00M0
0000
M000
,
0320
0000
000M
0000
0230
M000
000M
0000
,
0302
00M0
0M00
00M0
0000
0M00
0000
M000
,
0M00
00M0
0M00
M000
00M0
0M00
0000
00M0
,
0203
M000
00M0
M000
0000
00M0
0000
M000
,
00M0
0000
000M
M000
000M
00M0
0000
M000
,
2302
00M0
0000
0M00
00M0
0000
0M00
30M0
,
2M00
00M0
0000
0M00
00M0
0M00
0000
30M0
,
2M00
0000
00M0
0M00
00M0
0M00
00M0
0000
,
3003
0000
0000
0000
;
