#VERSION:0.83;
#TITLE:Bellissima;
#ARTIST:DJ Quicksilver;
#GENRE:Trance;
#CREDIT:B. M'Rey;
#MUSIC:Bellisima.ogg;
#BANNER:Bellisima-bn.png;
#BACKGROUND:Bellisima-bg.png;
#CDTITLE:./CDTITLES/BMR Superstars.PNG;
#SAMPLESTART:56.92;
#SAMPLELENGTH:15;
#OFFSET:-0.068;
#BPMS:0=136;

//--------------- dance-single - B. M'Rey ----------------
#NOTEDATA:;
#STEPSTYPE:dance-single;
#DESCRIPTION:B. M'Rey;
#CREDIT:B. M'Rey;
#DIFFICULTY:Beginner;
#METER:3;
#RADARVALUES:0.086,0.107,0.042,0.05,0;
#NOTES:
0000
0000
0000
0000
,
0000
0000
0000
0000
,
0000
0000
0000
0000
,
0000
0000
0000
0000
,
0000
0000
0000
0000
,
0000
0000
0000
0000
,
0000
0000
0000
0000
,
0000
0000
0000
0000
,
0000
0000
0000
0000
,
0000
0000
0000
0000
,
0000
0000
0000
0000
,
0000
0000
0000
0000
,
0000
0000
0000
0000
,
0000
0000
0000
0000
,
0000
0000
0000
0000
,
0000
0000
0000
0000
,
0000
0010
0000
1000
,
0000
0001
0000
0100
,
0000
0010
0000
0001
,
0000
0010
0000
0100
,
0000
1000
0000
0100
,
0000
0010
0000
0001
,
0000
0010
0000
0100
,
0000
0001
0000
1000
,
0000
0100
0000
0001
,
0000
0010
0000
0100
,
0000
1000
0000
0100
,
0000
0001
0000
0010
,
0000
1001
0000
0110
,
0000
0011
0000
0110
,
0000
1100
0000
0101
,
0000
0101
0000
1001
,
0000
0100
0000
1000
,
0000
0010
0000
0100
,
0000
0001
0000
0010
,
0000
0100
0000
0001
,
0000
0010
0000
1000
,
0000
0001
0000
0100
,
0000
0001
0000
0010
,
0000
1000
0000
0001
,
0000
0100
0000
0010
,
0000
0001
0000
1000
,
0000
0010
0000
0100
,
0000
1000
0000
0001
,
0000
2000
0000
0000
,
0000
0000
0000
0000
,
0000
3200
0000
0000
,
0000
0000
0000
0000
,
0000
0302
0000
0000
,
0000
0000
0000
0000
,
0000
0000
0000
0000
,
0000
0000
0000
0000
,
0000
0203
0000
0000
,
0000
0000
0000
0000
,
0000
0000
0000
0000
,
0000
0000
0000
0000
,
0000
2300
0000
0000
,
0000
0000
0000
0000
,
0000
3020
0000
0000
,
0000
0000
0000
0000
,
0000
0230
0000
0000
,
0000
0000
0000
0000
,
0000
0000
0000
0000
,
0000
0000
0000
0000
,
0000
0300
0000
0000
;

//--------------- dance-single - B. M'Rey ----------------
#NOTEDATA:;
#STEPSTYPE:dance-single;
#DESCRIPTION:B. M'Rey;
#CREDIT:B. M'Rey;
#DIFFICULTY:Easy;
#METER:4;
#RADARVALUES:0.175,0.213,0.117,0.067,0;
#NOTES:
0000
0000
0000
0000
,
0000
0000
0000
0000
,
0000
0000
0000
0000
,
0000
0000
0000
0000
,
0000
0000
0000
0000
,
0000
0000
0000
0000
,
0000
0000
0000
0000
,
0000
0000
0000
0000
,
0000
0000
0000
0000
,
0000
0000
0000
0000
,
0000
0000
0000
0000
,
0000
0000
0000
0000
,
0000
0000
0000
0000
,
0000
0000
0000
0000
,
0000
1001
0000
1001
,
0000
1001
0000
1001
,
0000
0001
0100
0001
,
0100
0010
1000
0010
,
1000
0001
0010
0001
,
0010
0100
1000
0001
,
0010
0100
0010
0100
,
1000
0010
1000
0010
,
0100
0001
0010
0001
,
0010
0100
1000
0100
,
1000
0001
0010
0001
,
0010
0100
1000
0100
,
1000
0001
0010
0001
,
0010
0100
1000
0100
,
1000
0011
0000
0011
,
0000
0101
0000
0011
,
0000
0110
0000
0110
,
0000
0110
0000
0110
,
0000
0100
1000
0010
,
0100
0001
0010
0100
,
1000
0100
1000
0010
,
1000
0010
0100
0010
,
0100
0001
1000
0010
,
1000
0001
0010
0100
,
0010
0001
1000
0010
,
0100
0001
0010
0100
,
1000
0010
1000
0001
,
1000
0100
1000
0100
,
0010
0100
1000
0010
,
0100
0010
1000
0010
,
0100
1000
0000
0001
,
0000
0010
0000
1000
,
0000
0100
0000
0001
,
0000
0010
0000
1000
,
0000
0020
0000
0000
,
0000
0000
0000
0000
,
0000
0000
0000
0000
,
0000
0000
0000
0000
,
0000
0230
0000
0000
,
0000
0000
0000
0000
,
0000
0000
0000
0000
,
0000
0000
0000
0000
,
0000
0302
0000
0000
,
0000
0000
0000
0000
,
0000
0100
0000
0000
,
0000
0000
0000
0000
,
0000
0203
0000
0000
,
0000
0000
0000
0000
,
0000
0000
0000
0000
,
0000
0000
0000
0000
,
0000
0300
0000
0000
;

//--------------- dance-single - B. M'Rey ----------------
#NOTEDATA:;
#STEPSTYPE:dance-single;
#DESCRIPTION:B. M'Rey;
#CREDIT:B. M'Rey;
#DIFFICULTY:Medium;
#METER:7;
#RADARVALUES:0.301,0.426,0.2,0.225,0;
#NOTES:
0000
0000
0000
0000
,
0000
0000
0000
0000
,
0000
0000
0000
0000
,
0000
0000
0000
0000
,
0000
0100
0000
0001
,
0000
0010
0000
0100
,
0000
0001
0000
0010
,
0000
0100
0000
0001
,
0000
0100
0000
0010
,
0000
0100
0000
0100
,
0000
0100
0000
0010
,
0000
0100
0000
0001
,
0000
0001
0000
0001
,
0000
0010
0000
0001
,
0000
0001
0000
0010
,
0000
0001
0000
0001
,
0000
0100
0010
0001
,
0100
0001
0010
0001
,
0100
0010
1000
0100
,
1000
0010
0100
0010
,
0100
0001
0010
0100
,
1000
0010
0100
0001
,
0010
0001
0100
0010
,
1000
0100
1000
0010
,
0100
0001
1000
0010
,
0100
0010
1000
0001
,
0100
0001
0010
0100
,
0010
0100
0010
0100
,
1000
0110
0011
1100
,
1010
0110
1001
0110
,
0011
1100
1010
0110
,
1001
0011
1100
0011
,
0110
0000
0010
1000
0010
1000
0010
1000
,
0001
0010
0001
0010
0001
0010
0100
0000
,
0100
0000
0001
1000
0010
0100
0010
0100
,
0010
0100
0001
1000
0001
1000
0001
0000
,
0010
0000
0010
0100
0010
1000
0001
1000
,
0001
1000
0010
0100
0010
0100
0010
0000
,
0001
0000
0001
1000
0001
1000
0010
0100
,
0010
0100
0001
0100
0001
1000
0001
0000
,
0100
0000
0100
0010
0100
0010
0001
0100
,
0001
1000
0001
1000
0100
0010
0100
0000
,
0100
0000
0001
0010
0001
0100
0010
1000
,
0010
1000
0010
1000
0001
0010
0001
0000
,
0001
0001
1000
0001
,
0010
0001
0010
0100
,
1000
0100
1000
0100
,
1000
0001
0100
0010
,
0100
0100
0000
0001
,
0000
0001
0000
0100
,
0000
0001
0000
0010
,
0000
0001
0000
0010
,
0000
0001
0000
0001
,
0000
0010
0000
0001
,
0000
0010
0000
0010
,
0000
0010
0000
0001
,
0000
0001
0000
0010
,
0000
0100
0000
0100
,
0000
0001
0000
0100
,
0000
0001
0000
0001
,
0000
0001
0000
0100
,
0000
0001
0000
0001
,
0000
0100
0000
0010
,
0000
0010
0000
0100
,
0000
0100
0000
0000
;

//--------------- dance-single - B. M'Rey ----------------
#NOTEDATA:;
#STEPSTYPE:dance-single;
#DESCRIPTION:B. M'Rey;
#CREDIT:B. M'Rey;
#DIFFICULTY:Hard;
#METER:11;
#RADARVALUES:0.481,0.853,0.225,0.341,0.1;
#NOTES:
0000
0000
0000
0000
,
0000
0000
0000
0000
,
0000
0000
0000
0000
,
0000
0000
0000
0000
,
0000
0000
0010
0000
0100
0001
0010
0000
,
1000
0000
0001
0010
1000
0000
0001
1000
,
0010
0001
0100
0000
1000
0001
0100
0000
,
0010
0000
0001
1000
0100
0000
0010
0100
,
1000
0010
0001
0000
0100
0001
0010
0000
,
1000
0000
0100
0001
0010
0000
0001
0100
,
1000
0001
0010
0000
0100
1000
0001
0000
,
0100
0000
0001
0010
1000
0000
0010
0001
,
0100
1000
0010
0000
1000
0001
0100
0000
,
1000
0000
0001
1000
0100
0000
0010
0001
,
1000
0010
0100
0000
0010
0000
0001
0100
,
1000
0010
1000
0010
,
0100
0000
0001
0100
0010
1000
0001
0100
,
0010
1000
0001
0010
0100
1000
0100
0010
,
0001
0100
0001
0010
0001
0100
0010
0100
,
0001
0010
0100
1000
0010
1000
0100
0010
,
0100
1000
0010
0100
0001
1000
0010
0100
,
0001
1000
0010
0100
0001
1000
0010
0100
,
0001
0010
0001
0100
0001
0010
0100
1000
,
0100
1000
0010
1000
0010
0100
0001
0010
,
0100
0010
0001
0100
0010
1000
0100
1000
,
0010
0100
0001
0010
0100
0010
0001
0100
,
0001
0100
0001
1000
0010
0100
0001
1000
,
0010
1000
0001
0010
0100
0010
0100
1000
,
0001
0100
0110
0000
0011
0000
0101
0000
,
0011
1001
0110
1010
,
0110
0101
0110
1010
,
1010
1010
1010
1100
,
1100
0000
0001
1000
0001
1000
0001
0010
,
0001
1000
0001
1000
0001
1000
0100
1000
,
0100
1000
0100
1000
0100
0010
0100
0010
,
0001
0010
0001
0010
0100
0010
0100
1000
,
0100
1000
0100
1000
0100
1000
0100
1000
,
0010
1000
0010
0100
0010
0100
0010
0100
,
0010
0100
0010
0100
0001
0100
0010
1000
,
0001
1000
0001
1000
0001
1000
0001
1000
,
0001
1000
0001
0100
0010
1000
0010
1000
,
0010
1000
0010
0100
0010
1000
0010
1000
,
0001
1000
0001
1000
0001
1000
0100
1000
,
0100
0010
0001
0010
0001
0010
0001
0010
,
0100
0010
0110
0000
1100
0000
0110
0000
,
1010
0101
1010
0110
,
0011
0101
1010
1010
,
0110
1100
0011
1100
,
0110
0100
1000
0010
,
0100
0001
1000
0010
,
1000
0100
1000
0010
,
0100
0001
1000
0010
,
0100
0001
1000
0100
,
0010
0100
1000
0001
,
1000
0010
1000
0001
,
0010
0001
0010
0001
,
0010
0100
1000
0010
,
1000
0001
1000
0100
,
0010
0001
1000
0010
,
0100
0010
0100
0001
,
0010
0001
1000
0100
,
0010
0100
1000
0001
,
0010
0100
0010
0100
,
1000
0001
0100
0010
,
1000
0000
0000
0000
;

//--------------- dance-single - B. M'Rey ----------------
#NOTEDATA:;
#STEPSTYPE:dance-single;
#DESCRIPTION:B. M'Rey;
#CREDIT:B. M'Rey;
#DIFFICULTY:Challenge;
#METER:17;
#RADARVALUES:1,0.859,0.266,1,0.799;
#NOTES:
0000
0000
0000
0000
,
0000
0000
0000
0000
,
0000
0000
0000
0000
,
0000
0000
0000
0000
,
0000
0000
0100
1000
0010
0100
0001
0100
,
0010
0100
0001
0010
0001
0100
0010
1000
,
0010
1000
0010
0100
0001
0010
0001
0100
,
0010
1000
0100
1000
0010
1000
0001
0100
,
0001
0100
0010
0100
0010
1000
0001
1000
,
0010
0100
0001
0010
0001
0100
0001
1000
,
0010
0100
0010
1000
0100
1000
0010
0100
,
0001
0100
0001
1000
0010
0100
0001
0010
,
0001
0100
0010
1000
0100
1000
0010
1000
,
0010
0100
0010
1000
0001
1000
0010
0100
,
0001
0010
0001
0100
0001
0010
0100
0010
,
0001
0100
0010
1000
0010
0100
0010
0100
,
0001
0000
0010
0000
0001
1000
0001
1000
0001
1000
0001
0100
0001
0010
0100
0010
,
0100
1000
0010
0100
0010
0100
0010
0100
0010
0100
0010
0100
0001
1000
0001
1000
,
0001
1000
0001
1000
0001
1000
0100
0010
0100
0010
0100
0010
0100
0010
0100
1000
,
0001
0100
0001
0100
0001
0100
0001
0100
0010
0100
0010
1000
0010
0100
0010
1000
,
0010
1000
0001
1000
0001
1000
0001
1000
0001
0100
0001
0100
0010
0100
0001
0010
,
0100
0010
0001
0010
0001
0010
0001
0010
0001
1000
0100
1000
0100
0010
0100
0010
,
0100
0010
0100
1000
0001
1000
0001
1000
0001
1000
0010
1000
0010
0100
0010
0100
,
0001
0100
0001
0100
0001
0100
0001
0010
0001
0010
0100
0010
0100
0010
0100
0010
,
0100
1000
0100
1000
0001
1000
0001
1000
0001
1000
0001
0100
0010
0100
0010
0100
,
0010
0100
0001
0100
0001
1000
0001
1000
0001
1000
0001
1000
0010
1000
0010
0100
,
0001
1000
0001
1000
0001
1000
0001
1000
0001
1000
0100
0010
0100
0010
0100
0010
,
0100
0010
0100
0010
0001
0100
0001
1000
0001
1000
0100
1000
0100
1000
0100
1000
,
0100
0010
0100
0010
0010
0000
0000
0000
1000
0000
0000
0000
0010
0000
0000
0000
,
1000
0001
1000
0001
,
1000
0001
0100
0001
,
0100
0000
0001
1000
0001
1000
0100
0010
,
0100
0000
0010
0000
0010
1000
0010
1000
0010
0100
0010
0100
0010
0100
0010
0100
,
0001
0100
0010
0100
0010
1000
0010
0100
0010
0100
0010
0100
0010
0100
0001
0100
,
0001
0100
0001
0010
0001
0010
0001
0010
0001
0010
0100
0010
0100
0010
0100
1000
,
0100
1000
0100
1000
0100
1000
0001
1000
0001
1000
0001
0100
0001
0100
0001
0100
,
0001
0100
0010
0100
0010
0100
0010
1000
0010
1000
0010
1000
0010
1000
0100
1000
,
0100
1000
0100
0010
0100
0010
0100
0010
0100
0010
0001
1000
0001
0100
0001
0100
,
0001
0100
0001
0100
0010
0100
0010
0100
0010
1000
0010
1000
0001
1000
0001
1000
,
0001
1000
0001
0100
0001
0100
0001
0100
0010
0100
0010
0100
0010
0100
0010
1000
,
0010
1000
0010
1000
0001
1000
0001
1000
0001
1000
0010
0100
0010
0100
0010
0100
,
0001
0100
0001
0100
0010
0100
0010
1000
0010
1000
0010
1000
0010
1000
0010
1000
,
0001
0100
0010
0100
0010
0100
0010
0100
0010
0100
0010
0100
0010
1000
0001
0100
,
0001
1000
0001
1000
0001
1000
0100
1000
0100
1000
0100
0010
0100
0010
0100
0010
,
0100
0010
0001
0010
0001
0000
1000
0000
0001
0000
1000
0000
0001
0000
1000
0000
,
0001
1000
0001
1000
0001
1000
0010
0100
,
0010
0100
0010
0100
0010
0100
0010
0100
,
0010
0100
0001
0010
0001
0010
0100
0010
,
0100
0010
0001
1000
0001
1000
0001
1000
,
0001
1000
0100
1000
0010
1000
0010
0100
,
0010
0100
0010
0100
0010
0100
0010
0100
,
0001
0100
0001
1000
0010
1000
0010
1000
,
0010
1000
0010
0100
0001
0100
0001
0100
,
0001
0100
0001
0100
0001
0100
0001
1000
,
0010
1000
0010
1000
0010
0100
0010
0100
,
0010
0100
0010
0100
0001
0100
0001
0100
,
0001
0010
0001
0010
0001
0010
0100
0010
,
0100
0010
0100
0010
0001
0100
0001
1000
,
0001
0100
0001
0100
0001
0100
0001
0100
,
0010
0100
0010
0100
0010
1000
0010
1000
,
0010
1000
0010
0100
0001
0100
0001
0100
,
0001
1000
0010
1000
0001
1000
0010
0100
,
0001
0010
0001
1000
0001
0010
0001
0010
,
0100
0010
0100
0010
0100
0010
0100
0010
,
0100
1000
0001
0000
0000
0000
0000
0000
;
