#VERSION:0.83;
#TITLE:Atlantis Is Calling (S.O.S.for Love);
#ARTIST:Modern Talking;
#GENRE:Euro Disco;
#CREDIT:B. M'Rey;
#MUSIC:Atlantis Is Calling (S.O.S. for Love).ogg;
#BANNER:Atlantis Is Calling (S.O.S. for Love)-bn.png;
#BACKGROUND:Atlantis Is Calling (S.O.S. for Love)-bg.png;
#CDTITLE:./CDTITLES/BMR Superstars.PNG;
#SAMPLESTART:52.914;
#SAMPLELENGTH:15;
#OFFSET:-0.075;
#BPMS:0=113.552;

//--------------- dance-single - B. M'Rey ----------------
#NOTEDATA:;
#STEPSTYPE:dance-single;
#DESCRIPTION:B. M'Rey;
#CREDIT:B. M'Rey;
#DIFFICULTY:Beginner;
#METER:3;
#RADARVALUES:0,0,0,0,0;
#NOTES:
0000
0000
0000
0000
,
0000
0000
0000
0000
,
0000
0000
0000
0000
,
0000
0000
0000
0000
,
0010
0000
0001
0000
,
0100
0000
0000
1000
,
0010
0000
0010
0000
,
0001
0000
0000
0000
,
0001
0000
0001
0000
,
0010
0000
0000
0010
,
0100
0000
0010
0000
,
0001
0000
0000
0000
,
0001
0000
0010
0000
,
0001
0000
0000
1000
,
0010
0000
0001
0000
,
0100
0000
0000
0000
,
0001
0000
0010
0000
,
0001
0000
0000
1000
,
0100
0000
0010
0000
,
0002
0000
0000
0000
,
0003
0000
0001
0001
,
0001
0001
0000
0010
,
0100
0010
0000
0000
,
0001
0000
0010
0000
,
0100
0000
0000
0000
,
0001
0000
0001
0000
,
0001
0000
0000
0000
,
0001
0000
0100
0000
,
0001
0000
0000
0000
,
0010
0000
0001
0000
,
0001
0000
0000
0000
,
0010
0000
0010
0000
,
0001
0000
0010
1000
,
0020
0000
0000
0000
,
0130
0000
0100
0000
,
0001
0000
0000
0000
,
0100
0000
0001
0000
,
0010
0000
0000
0000
,
0010
0000
0001
0000
,
0010
0000
0000
0010
,
0100
0000
0010
0000
,
0001
0000
0000
0000
,
0001
0000
0001
0000
,
0100
0000
0000
0010
,
0001
0000
0010
0000
,
0001
0000
0000
0000
,
0010
0000
0001
0000
,
0100
0000
0000
0000
,
0001
0100
0010
0000
,
0010
0000
0000
0000
,
0100
0000
0001
0000
,
0001
0000
0000
1000
,
0010
0000
0001
0000
,
0200
0000
0000
0000
,
0000
0000
0310
0000
,
0000
0100
0000
0010
,
0001
0000
1000
0000
,
0001
0010
0000
0000
,
0010
0000
0000
0000
,
0100
0000
0010
0000
,
0001
0000
0000
0000
,
0100
0000
0001
0000
,
0001
0000
0000
0000
,
0100
0000
0100
0000
,
0100
0000
0000
0000
,
0010
0000
0010
0000
,
0100
0000
0000
0000
;

//--------------- dance-single - B. M'Rey ----------------
#NOTEDATA:;
#STEPSTYPE:dance-single;
#DESCRIPTION:B. M'Rey;
#CREDIT:B. M'Rey;
#DIFFICULTY:Easy;
#METER:4;
#RADARVALUES:0,0,0,0,0;
#NOTES:
0000
0000
0000
0000
,
0000
0000
0000
0000
,
0000
0000
0000
0000
,
0000
0000
0000
0000
,
0010
0100
0010
1000
,
0001
0000
0000
0010
,
0001
1000
0010
1000
,
0001
0000
0001
0000
,
0001
0010
0100
1000
,
0100
0000
0000
0000
,
0001
0010
0100
1000
,
0001
0000
0010
0000
,
0100
1000
0010
0100
,
0001
0000
0000
0100
,
0010
0000
0010
0100
,
0001
0000
0001
0000
,
0100
1000
0010
0100
,
0001
0000
0000
0100
,
0010
1000
0100
0010
,
0200
0000
0000
0000
,
0000
0000
0301
0010
,
0001
0010
0000
1000
,
0100
0010
0000
0100
,
0010
1000
0100
0000
,
0001
0000
0000
0000
,
0100
0000
0100
0000
,
0010
0100
0001
0000
,
0001
0000
0001
0000
,
0100
0010
0100
0000
,
0010
0000
0001
0000
,
0100
1000
0010
0000
,
0010
0000
0010
0000
,
0001
1000
0200
0000
,
0000
0000
0000
0000
,
0310
0000
0010
0100
,
0010
0000
0000
0000
,
0002
0000
0103
1000
,
0001
0000
0000
0000
,
0001
0100
0010
0100
,
0001
0000
0000
0010
,
0001
0000
0100
1000
,
0100
0000
0100
0000
,
0010
1000
0000
0010
,
0100
0000
0000
0000
,
0001
0000
0001
1000
,
0001
0000
0010
0000
,
0001
0100
0010
1000
,
0100
0000
0000
0000
,
0100
0010
0100
0010
,
0000
0000
0001
0000
,
0001
0100
0001
0010
,
0100
0000
0000
1000
,
0010
0000
0100
0000
,
0002
0000
0000
0000
,
0000
0000
0013
1000
,
0010
1000
0000
1000
,
0001
0010
0100
0000
,
0001
0000
0100
0000
,
0001
0000
0000
0000
,
0100
0000
0100
0000
,
0010
0100
0001
0000
,
0001
0000
0001
0000
,
0100
0010
0100
0000
,
0010
0000
0001
0000
,
0100
1000
0010
0000
,
0010
0000
0010
0000
,
0001
1000
0100
0000
;

//--------------- dance-single - B. M'Rey ----------------
#NOTEDATA:;
#STEPSTYPE:dance-single;
#DESCRIPTION:B. M'Rey;
#CREDIT:B. M'Rey;
#DIFFICULTY:Medium;
#METER:6;
#RADARVALUES:0,0,0,0,0;
#NOTES:
0000
0000
0000
0000
,
0000
0000
0000
0000
,
0000
0000
0000
0000
,
0000
0000
0000
0000
,
0001
0000
0001
0010
0000
0010
0000
1000
,
0000
0000
0000
0000
0000
0010
0000
1000
,
0010
0000
0010
0100
0000
1000
0000
1000
,
0000
0000
0001
0000
,
0010
0000
0100
0010
0000
1000
0001
0010
,
0000
0100
0000
0000
0000
0000
0100
0000
,
0001
1000
0000
1000
0000
0010
0000
0100
,
0000
0000
0100
0000
,
0001
0000
0010
0100
0000
1000
0000
1000
,
0000
0000
0000
0100
,
0001
1000
0000
0100
0000
0100
0000
2000
,
0000
0000
3001
0000
,
0010
0000
0001
0100
0000
0100
0010
1000
,
0000
0010
0000
0000
0000
0000
0010
1000
,
0001
0000
0001
0000
0100
1000
0000
0200
,
0000
0000
0300
0000
,
0000
0000
0110
1001
,
0110
0000
0010
0000
0000
0100
0000
0100
,
0001
0000
0001
0000
0100
0000
0100
0010
,
0001
0010
0200
0000
,
0301
0001
0001
0000
,
0002
0000
0003
0100
0020
0000
0000
0000
,
0130
0000
0001
0000
0001
0100
0010
0000
,
0002
0000
0000
0103
0020
0000
0000
0000
,
0031
0000
0001
0000
0100
1000
0001
0000
,
0002
0000
0000
1003
0100
0000
0000
0000
,
0001
0000
0100
0000
0100
0010
0001
0000
,
0020
0000
0000
1030
0002
0000
0000
0000
,
0013
0000
0100
0000
0200
0000
0000
0310
,
0020
0100
0000
0100
0100
0100
0130
0000
,
0001
0000
0000
0000
0010
0000
0001
0010
,
0100
0000
0001
0001
,
0010
0000
0000
0000
0001
0000
0010
0100
,
0010
0000
0100
0000
0100
0100
0100
0000
,
0001
0000
0001
0100
0000
1000
0010
0000
,
0100
0000
0000
0001
,
0010
0100
0000
1000
0000
0010
0001
0010
,
0000
0000
0010
0000
,
0100
0000
0000
1000
0000
1000
0001
0010
,
0000
0010
0000
0000
0000
0000
0000
0010
,
0100
0010
0000
1000
0000
0100
0000
0100
,
0000
0000
0000
0000
0100
0000
0000
0010
,
0001
0100
0000
1000
0000
0010
0100
1000
,
0000
1000
0000
0000
0000
0000
0000
0100
,
0001
0100
0010
0000
0010
0000
0100
0000
,
0000
0000
0000
0000
0100
0000
0000
1000
,
0100
0010
0000
1000
0000
0010
0000
1000
,
0000
0010
0000
0000
0000
0000
0001
0100
,
0001
0000
0000
1000
0000
0100
0000
2000
,
0000
0000
3020
0000
,
0130
0001
0110
0101
,
1100
0000
0001
0010
0000
0010
0000
1000
,
0100
0100
0001
0010
,
0001
0000
0010
0000
0001
0020
0000
0000
,
0031
0001
0001
0000
,
0002
0000
0003
0100
0020
0000
0000
0000
,
0130
0000
0001
0000
0001
0100
0010
0000
,
0002
0000
0003
0100
0020
0000
0000
0000
,
0031
0000
0001
0000
0100
1000
0001
0000
,
0002
0000
0003
1000
0200
0000
0000
0000
,
0301
0000
0100
0000
0100
0010
0001
0000
,
0020
0000
0030
1000
0002
0000
0000
0000
,
0013
0000
0100
0000
0100
0100
0100
0000
;

//--------------- dance-single - B. M'Rey ----------------
#NOTEDATA:;
#STEPSTYPE:dance-single;
#DESCRIPTION:B. M'Rey;
#CREDIT:B. M'Rey;
#DIFFICULTY:Hard;
#METER:9;
#RADARVALUES:0,0,0,0,0;
#NOTES:
0000
0000
0000
0000
,
0000
0000
0000
0000
,
0000
0000
0000
0000
,
0000
0000
0000
0000
,
0100
1000
0010
0100
0000
1000
0001
0010
,
0000
0010
0000
0010
0000
0100
0010
1000
,
0001
0000
0100
0010
0000
1000
0000
0010
,
0000
0010
0100
0010
0001
0000
0000
0000
,
0001
0010
0100
0010
0000
0010
0001
1000
,
0000
0010
0000
0000
0000
0000
0001
0100
,
0010
1000
0000
1000
0000
1000
0000
0010
,
0000
0000
0100
1000
0100
0000
0000
0000
,
0001
0010
0100
0010
0000
0010
0100
1000
,
0010
0000
0100
0000
0100
0000
0010
1000
,
0010
0100
0000
1000
0000
0010
0000
0001
,
0000
1000
0010
0000
0001
0000
0000
0000
,
0100
0010
0001
0100
0000
0100
0001
1000
,
0000
0100
0000
1000
0001
0000
0010
1000
,
0001
0000
0010
0100
0000
1000
0000
2000
,
0000
0100
0100
0100
0000
0010
0010
0010
,
3000
0100
0001
0010
1100
0000
1010
0000
,
0001
1000
0001
0100
0000
1000
0000
1000
,
0100
0000
0100
0010
0000
1000
0001
0010
,
0001
0000
0001
0010
0100
0010
0000
0000
,
0001
0000
0100
0000
0010
0000
0100
0001
0000
0000
1000
0000
0100
0000
0000
0000
,
0110
0110
1001
1001
,
0100
0010
0100
0010
0101
0101
0101
0000
,
1010
0101
1001
0110
,
0010
0100
0001
0100
1010
1010
1010
0000
,
0110
1100
1001
1010
,
0010
0100
0001
0010
0101
0101
0101
0000
,
0110
0011
0110
0101
,
0010
1000
0001
0200
0000
0000
0001
0001
,
0301
0000
0100
0000
0001
1000
0100
1000
,
0100
0000
0001
0000
0001
1000
0100
1000
,
0001
0010
1000
0100
,
0011
0000
0001
0000
0010
0100
0001
0100
,
0001
0000
0010
0000
0100
1000
0010
0100
,
0001
1000
0010
1000
0000
0010
0100
0010
,
0000
1000
0001
1000
0100
0000
0001
0000
,
0001
1000
0000
1000
0000
1000
0001
0010
,
0000
0010
0001
1000
0100
0000
0000
0000
,
0001
0100
0000
0100
0000
0010
0100
1000
,
0000
0010
0000
0100
0010
0000
0001
0000
,
0001
0010
0000
0100
0000
1000
0000
0100
,
0000
1000
0010
0100
0010
0000
0000
1000
,
0100
1000
0000
0010
0000
1000
0100
0010
,
0000
0010
0100
0000
0001
0000
1000
0010
,
0001
1000
0100
0010
0001
0000
0100
1000
,
0010
0000
0001
0000
0001
0000
0000
1000
,
0001
1000
0000
1000
0000
0100
0001
1000
,
0000
0010
0000
1000
0010
0000
0010
1000
,
0100
0010
0000
0010
0000
1000
0000
2000
,
0000
0100
0100
0100
0000
0010
0010
0010
,
3000
0010
0001
1000
0110
0000
0110
0000
,
0001
1000
0010
0100
0000
1000
0000
1000
,
0010
0000
0010
1000
0001
0000
0010
1000
,
0001
0000
0100
0010
0001
0010
0000
0000
,
0001
0000
0100
0000
0010
0000
1000
0001
0000
0000
0000
0000
0001
0000
0000
0000
,
1001
0110
1100
1010
,
0100
1000
0001
0100
0011
0011
0011
0000
,
1010
0101
0110
0110
,
0001
1000
0100
1000
0110
0110
0110
0000
,
0011
0110
0101
0011
,
0001
0100
0010
1000
0110
0110
0110
0000
,
1001
0110
1100
1001
,
0022
0000
0000
0000
,
0033
0000
0000
0000
;
