#VERSION:0.83;
#TITLE:Air Traffic;
#ARTIST:Owl City;
#GENRE:Synthpop;
#CREDIT:B. M'Rey;
#MUSIC:Air Traffic.ogg;
#BANNER:Air Traffic-bn.png;
#BACKGROUND:Air Traffic-bg.png;
#CDTITLE:./CDTITLES/BMR Superstars.PNG;
#SAMPLESTART:41.811;
#SAMPLELENGTH:15;
#OFFSET:-0.040;
#BPMS:0=110.07,192=55.035;

//--------------- dance-single - B. M'Rey ----------------
#NOTEDATA:;
#STEPSTYPE:dance-single;
#DESCRIPTION:B. M'Rey;
#CREDIT:B. M'Rey;
#DIFFICULTY:Beginner;
#METER:2;
#RADARVALUES:0.06,0.083,0.008,0.008,0;
#NOTES:
0000
0000
0000
0000
,
0000
0000
0000
0000
,
0000
0000
0000
0000
,
2000
0000
0000
0000
,
0000
0000
0000
0000
,
0000
0000
0000
0000
,
3001
0000
0000
0000
,
0100
0000
0000
0000
,
0010
0000
0000
0000
,
1000
0000
0000
0000
,
0001
0000
0000
0000
,
0100
0000
0000
0000
,
0010
0000
0000
0000
,
1000
0000
0000
0000
,
0100
0000
0000
0000
,
1000
0000
0000
0000
,
0001
0000
0000
0000
,
0010
0000
0000
0000
,
0001
0000
0000
0000
,
0100
0000
0000
0000
,
0010
0000
0000
0000
,
1000
0000
0000
0000
,
0010
0000
0000
0000
,
0100
0000
0000
0000
,
0001
0000
0000
0000
,
0010
0000
0000
0000
,
0001
0000
0000
0000
,
0100
0000
0000
0000
,
1000
0000
0000
0000
,
0100
0000
0000
0000
,
1000
0000
0000
0000
,
0001
0000
0000
0000
,
0010
0000
0000
0000
,
0001
0000
0000
0000
,
0100
0000
0000
0000
,
0010
0000
0000
0000
,
1000
0000
0000
0000
,
0010
0000
0000
0000
,
0100
0000
0000
0000
,
0001
0000
0000
0000
,
0010
0000
0000
0000
,
0001
0000
0000
0000
,
0100
0000
0000
0000
,
1000
0000
0000
0000
,
0010
0000
0000
0000
,
0100
0000
0000
0000
,
0001
0000
0000
0000
,
0010
0000
0000
0000
,
0001
0000
0100
0000
,
0010
0000
1000
0000
,
0010
0000
0110
0000
;

//--------------- dance-single - B. M'Rey ----------------
#NOTEDATA:;
#STEPSTYPE:dance-single;
#DESCRIPTION:B. M'Rey;
#CREDIT:B. M'Rey;
#DIFFICULTY:Easy;
#METER:3;
#RADARVALUES:0.118,0.17,0.008,0.025,0;
#NOTES:
0000
0000
0000
0000
,
0000
0000
0000
0000
,
0000
0000
0000
0000
,
2000
0000
0000
0000
,
0000
0000
0000
0000
,
0000
0000
0000
0000
,
3010
0000
0100
0000
,
0001
0000
0010
0000
,
0001
0000
1000
0000
,
0100
0000
1000
0000
,
0010
0000
0100
0000
,
0001
0000
0010
0000
,
0001
0000
1000
0000
,
0010
0000
0100
0000
,
0010
0000
1000
0000
,
0001
0000
0010
0000
,
0001
0000
0100
0000
,
0010
0000
1000
0000
,
0100
0000
1000
0000
,
0100
0000
1000
0000
,
0010
0000
0100
0000
,
0001
0000
0010
0000
,
0001
0000
0100
0000
,
0010
0000
1000
0000
,
0100
0000
1000
0000
,
0010
0000
0100
0000
,
0001
0000
1000
0000
,
0010
0000
0100
0000
,
0001
0000
0010
0000
,
1000
0000
0010
0000
,
0100
0000
0001
0000
,
1000
0000
0010
0000
,
0100
0000
0001
0000
,
0010
0000
1000
0000
,
0100
0000
1000
0000
,
0010
0000
0100
0000
,
0001
0000
0010
0000
,
0010
0000
0100
0000
,
1000
0000
0001
0000
,
0010
0000
0100
0000
,
0001
0000
1000
0000
,
0010
0000
0100
0000
,
0001
0000
0010
0000
,
0001
0000
0100
0000
,
1000
0000
0100
0000
,
1000
0000
0010
0000
,
0100
0000
0001
0000
,
0010
0000
0001
0000
,
0100
0010
1000
0100
,
1000
0010
0100
0001
,
0010
0100
2002
0000
,
0000
0000
3003
0000
;

//--------------- dance-single - B. M'Rey ----------------
#NOTEDATA:;
#STEPSTYPE:dance-single;
#DESCRIPTION:B. M'Rey;
#CREDIT:B. M'Rey;
#DIFFICULTY:Medium;
#METER:7;
#RADARVALUES:0.278,0.385,0.008,0.586,0.025;
#NOTES:
0000
0000
0000
0000
,
0000
0000
0000
0000
,
0000
0000
0000
0000
,
2000
0000
0000
3020
,
0000
0000
0230
0000
,
0000
0000
0302
0000
0000
1003
0000
0010
,
0002
0000
0000
0013
0000
0100
2000
0000
,
0000
3100
0000
0001
0020
0000
2030
0000
,
3200
0302
0023
0230
,
2300
0000
0000
3001
0000
0100
0020
0000
,
0000
1030
0000
0010
0002
0000
0203
0000
,
2300
3020
0230
0302
,
0023
0000
0000
1030
0000
0010
0200
0000
,
0000
0301
0000
0100
2000
0000
3002
0000
,
0203
0320
2030
3002
,
0023
0000
0000
0031
0000
0100
2000
0000
,
0000
3010
0000
0100
2000
0000
3002
0000
,
0203
0320
2030
3002
,
0103
0000
0001
0010
0000
0100
2000
0000
,
0000
3000
0000
0100
0002
0000
0003
0200
,
0000
0000
2300
0000
0000
3000
0000
0001
,
0010
0100
1000
0001
,
0000
0100
0000
0000
2000
0000
0000
3000
,
0000
0000
0020
0000
0000
0030
0000
0000
,
0000
0000
1000
0001
0000
0010
0200
0000
,
0000
0300
0000
0001
0010
0000
1000
0000
,
0100
0001
0010
0100
,
1000
0001
0100
0020
,
0000
0030
0100
1000
0001
0000
0100
0000
,
0010
0000
2000
0000
0000
3000
0000
0000
,
0000
0000
0001
0010
0000
1000
0200
0000
,
0000
0300
0000
0001
0020
0000
0000
2030
,
0000
0000
3020
0000
0000
0030
0000
0000
,
1000
0001
0100
0020
,
0000
2030
0000
0000
3200
0000
0000
0300
,
0000
0000
0020
0000
0000
0000
0000
0030
,
0000
0000
1000
0001
0000
0100
0020
0000
,
0000
0030
0000
1000
0001
0000
0100
0000
,
0010
1000
0001
0010
,
0100
0010
0001
2000
,
0000
3020
0000
0000
0130
0000
0001
0000
,
1000
0020
0000
0030
,
0000
0000
1000
0100
0000
0001
0010
0000
,
0100
0000
1000
0000
0000
0000
0010
0000
0000
0200
0000
0000
0000
0000
0320
0000
,
0000
0000
2030
0000
0000
3000
0010
0000
,
1000
0001
0010
0002
,
0000
0023
0000
0000
2030
0000
0000
3000
,
0000
0000
0200
0000
0000
0300
0000
0000
,
0000
0000
0000
0000
0001
0000
0010
0000
0000
1000
0000
0000
0200
0000
0000
0000
0000
0000
0000
0000
0000
0000
0310
0000
0001
0000
0000
0000
0100
0000
0000
0000
,
1000
0000
0001
0000
0010
0000
0100
0000
0002
0000
0000
0203
0000
0000
2300
0000
,
0000
3020
0000
0000
0130
0000
0001
0000
1000
0000
0220
0000
0000
0000
0000
0000
,
0000
0000
0000
0330
;

//--------------- dance-single - B. M'Rey ----------------
#NOTEDATA:;
#STEPSTYPE:dance-single;
#DESCRIPTION:B. M'Rey;
#CREDIT:B. M'Rey;
#DIFFICULTY:Hard;
#METER:8;
#RADARVALUES:0,0,0,0,0;
#NOTES:
0000
0000
0000
0000
,
0000
0000
0000
0000
,
0000
0000
0000
0000
,
0010
1000
0010
1000
,
0100
0010
0100
0010
,
0001
0000
0100
0000
0010
0001
0100
1000
,
0100
0000
0001
0100
0000
0100
0010
0000
,
0001
0100
0000
1000
0100
1000
0010
1000
,
0100
0010
0001
0010
0100
0010
0001
1000
,
0010
0000
0010
1000
0000
0100
0001
0000
,
0100
1000
0001
1000
0001
0000
0001
1000
,
0010
1000
0100
1000
0001
0010
0100
0010
,
0100
0000
0001
1000
0000
1000
0100
0000
,
0100
1000
0000
0100
0010
1000
0100
1000
,
0001
1000
0001
0100
0010
1000
0100
1000
,
0001
0000
0001
0010
0000
0100
0010
0000
,
0001
0010
0000
1000
0010
1000
0001
1000
,
0001
0100
0010
1000
0100
0010
0001
1000
,
0010
0000
0100
1000
0000
0010
0001
0000
,
0001
0100
0000
0010
0100
0000
0001
1000
,
0000
0100
0001
0000
0010
1000
0000
1000
,
0001
0000
0100
0000
0001
1000
0010
0000
,
0001
0010
0000
0010
0001
0000
0010
0100
,
0001
0010
0100
0000
0100
1000
0001
1000
,
0001
0000
0100
1000
0000
1000
0010
0000
,
0001
0100
0000
0100
0010
0000
0010
1000
,
0001
0000
0100
1000
0100
0000
0001
0000
,
0010
0100
0010
1000
0001
1000
0001
0000
,
0001
0100
0010
0100
0001
0000
0100
1000
,
0100
0010
0100
0000
0001
0010
0000
0100
,
0001
0000
0010
0100
0000
1000
0010
0000
,
0010
1000
0001
0100
0001
0000
0100
0010
,
0000
0100
0010
0000
0010
1000
0000
0010
,
0001
0000
0001
0100
0010
0100
0001
0000
,
0001
0010
0000
1000
0010
0000
0010
0100
,
0000
1000
0010
0000
0001
1000
0100
0010
,
0001
0000
0001
0010
0000
1000
0010
0000
,
0010
0100
0000
0100
0010
1000
0001
0010
,
0001
1000
0100
0010
0001
1000
0001
0000
,
0001
0100
0010
0100
0010
0100
0001
0000
,
0001
1000
0000
1000
0100
1000
0100
0010
,
0100
1000
0010
0000
0010
1000
0000
0010
,
0001
0000
0100
1000
0000
1000
0010
0000
,
0001
0100
0000
0100
0001
0000
0010
1000
,
0000
0100
0001
0000
0001
0010
0100
0000
,
0001
1000
0010
0100
0010
1000
0010
0000
,
0001
1000
0000
1000
0100
0000
0010
0100
,
0010
0100
0010
0000
0100
0010
0100
0010
,
0001
0000
0100
1000
0000
1000
0002
0000
0000
0000
0000
1003
0100
0000
0100
0000
,
0010
0000
0100
0000
0010
0000
0001
0000
1000
0000
0100
0010
0000
0010
0001
0000
,
0010
1000
0000
1000
0100
0000
0010
0000
0100
0000
0220
0000
0000
0000
0000
0000
,
0000
0000
0000
0330
;
