#VERSION:0.83;
#TITLE:Aerodynamic;
#ARTIST:Daft Punk;
#GENRE:Synth-Rock electronic;
#CREDIT:B. M'Rey;
#MUSIC:Aerodynamic.ogg;
#BANNER:Aerodynamic-bn.png;
#BACKGROUND:Aerodynamic-bg.png;
#CDTITLE:./CDTITLES/Daft Punk -interstella 5555-.PNG;
#SAMPLESTART:41.811;
#SAMPLELENGTH:15;
#OFFSET:-0.060;
#BPMS:0=122.88,112=245.76,432=61.44;

//--------------- dance-single - B. M'Rey ----------------
#NOTEDATA:;
#STEPSTYPE:dance-single;
#DESCRIPTION:B. M'Rey;
#CREDIT:B. M'Rey;
#DIFFICULTY:Beginner;
#METER:2;
#RADARVALUES:0.068,0.079,0,0,0;
#NOTES:
0000
0000
0000
0000
,
0000
0000
0000
0000
,
0000
0000
0000
0000
,
0000
0000
0000
0000
,
1000
0000
0000
0000
,
0001
0000
0000
0000
,
0100
0000
0000
0000
,
0010
0000
0000
0000
,
1000
0000
0000
0000
,
0001
0000
0000
0000
,
0010
0000
0000
0000
,
0001
0000
0000
0000
,
0100
0000
0000
0000
,
0010
0000
0000
0000
,
1000
0000
0000
0000
,
0001
0000
0000
0000
,
0010
0000
0000
0000
,
0001
0000
0000
0000
,
0100
0000
0000
0000
,
0010
0000
0000
0000
,
1000
0000
0000
0000
,
0001
0000
0000
0000
,
0010
0000
0000
0000
,
0001
0000
0000
0000
,
0100
0000
0000
0000
,
0010
0000
0000
0000
,
1000
0000
0000
0000
,
0001
0000
0000
0000
,
0100
0000
0000
0000
,
0000
0000
0000
0000
,
1000
0000
0000
0000
,
0000
0000
0000
0000
,
0001
0000
0000
0000
,
0000
0000
0000
0000
,
1000
0000
0000
0000
,
0000
0000
0000
0000
,
0010
0000
0000
0000
,
0000
0000
0000
0000
,
1000
0000
0000
0000
,
0000
0000
0000
0000
,
0001
0000
0000
0000
,
0000
0000
0000
0000
,
1000
0000
0000
0000
,
0000
0000
0000
0000
,
0010
0000
0000
0000
,
0000
0000
0000
0000
,
0100
0000
0000
0000
,
0000
0000
0000
0000
,
0001
0000
0000
0000
,
0000
0000
0000
0000
,
1000
0000
0000
0000
,
0000
0000
0000
0000
,
0010
0000
0000
0000
,
0000
0000
0000
0000
,
1000
0000
0000
0000
,
0000
0000
0000
0000
,
0001
0000
0000
0000
,
0000
0000
0000
0000
,
0100
0000
0000
0000
,
0000
0000
0000
0000
,
0010
0000
0000
0000
,
0000
0000
0000
0000
,
0100
0000
0000
0000
,
0000
0000
0000
0000
,
1000
0000
0000
0000
,
0000
0000
0000
0000
,
0001
0000
0000
0000
,
0000
0000
0000
0000
,
1000
0000
0000
0000
,
0000
0000
0000
0000
,
0010
0000
0000
0000
,
0000
0000
0000
0000
,
1000
0000
0000
0000
,
0000
0000
0000
0000
,
0001
0000
0000
0000
,
0000
0000
0000
0000
,
1000
0000
0000
0000
,
0000
0000
0000
0000
,
0010
0000
0000
0000
,
0000
0000
0000
0000
,
0100
0000
0000
0000
,
0000
0000
0000
0000
,
0001
0000
0000
0000
,
0000
0000
0000
0000
,
1000
0000
0000
0000
,
0000
0000
0000
0000
,
0010
0000
0000
0000
,
0000
0000
0000
0000
,
1000
0000
0000
0000
,
0000
0000
0000
0000
,
0001
0000
0000
0000
,
0000
0000
0000
0000
,
0100
0000
0000
0000
,
0000
0000
0000
0000
,
0100
0000
0000
0000
,
0000
0000
0000
0000
,
1000
0000
0000
0000
,
0000
0000
0000
0000
,
0001
0000
0000
0000
,
0000
0000
0000
0000
,
1000
0000
0000
0000
,
0000
0000
0000
0000
,
0010
0000
0000
0000
,
0000
0000
0000
0000
,
1000
0000
0000
0000
,
0000
0000
0000
0000
,
0001
0000
0000
0000
,
0000
0000
0000
0000
,
1000
0000
0000
0000
;

//--------------- dance-single - B. M'Rey ----------------
#NOTEDATA:;
#STEPSTYPE:dance-single;
#DESCRIPTION:B. M'Rey;
#CREDIT:B. M'Rey;
#DIFFICULTY:Easy;
#METER:5;
#RADARVALUES:0.109,0.079,0,0,0;
#NOTES:
0000
0000
0000
0000
,
0000
0000
0000
0000
,
0000
0000
0000
0000
,
0000
0000
0000
0000
,
1000
0000
0000
0000
,
0010
0000
0000
0000
,
1000
0000
0000
0000
,
0001
0000
0000
0000
,
0100
0000
0000
0000
,
0010
0000
0000
0000
,
1000
0000
0000
0000
,
0010
0000
0000
0000
,
0100
0000
0000
0000
,
0001
0000
0000
0000
,
0010
0000
0000
0000
,
0001
0000
0000
0000
,
0100
0000
0000
0000
,
0010
0000
0000
0000
,
1000
0000
0000
0000
,
0010
0000
0000
0000
,
0100
0000
0000
0000
,
0001
0000
0000
0000
,
0010
0000
0000
0000
,
0001
0000
0000
0000
,
0100
0000
0000
0000
,
0010
0000
0000
0000
,
1000
0000
0000
0000
,
0010
0000
0000
0000
,
0100
0000
0000
0000
,
0001
0000
0000
0000
,
0010
0000
0000
0000
,
0001
0000
0000
0000
,
0100
0000
0000
0000
,
0010
0000
0000
0000
,
1000
0000
0000
0000
,
0010
0000
0000
0000
,
0100
0000
0000
0000
,
0001
0000
0000
0000
,
0010
0000
0000
0000
,
0001
0000
0000
0000
,
0100
0000
0000
0000
,
0010
0000
0000
0000
,
1000
0000
0000
0000
,
0100
0000
0000
0000
,
1000
0000
0000
0000
,
0010
0000
0000
0000
,
0100
0000
0000
0000
,
0001
0000
0000
0000
,
0010
0000
0000
0000
,
0001
0000
0000
0000
,
0100
0000
0000
0000
,
0010
0000
0000
0000
,
1000
0000
0000
0000
,
0001
0000
0000
0000
,
0100
0000
0000
0000
,
0010
0000
0000
0000
,
1000
0000
0000
0000
,
0100
0000
0000
0000
,
0001
0000
0000
0000
,
0010
0000
0000
0000
,
1000
0000
0000
0000
,
0010
0000
0000
0000
,
1000
0000
0000
0000
,
0001
0000
0000
0000
,
0010
0000
0000
0000
,
0100
0000
0000
0000
,
1000
0000
0000
0000
,
0001
0000
0000
0000
,
0010
0000
0000
0000
,
0001
0000
0000
0000
,
0100
0000
0000
0000
,
0010
0000
0000
0000
,
1000
0000
0000
0000
,
0010
0000
0000
0000
,
0100
0000
0000
0000
,
0001
0000
0000
0000
,
1000
0000
0000
0000
,
0010
0000
0000
0000
,
0100
0000
0000
0000
,
0001
0000
0000
0000
,
1000
0000
0000
0000
,
0010
0000
0000
0000
,
0100
0000
0000
0000
,
0001
0000
0000
0000
,
1000
0000
0000
0000
,
0010
0000
0000
0000
,
0100
0000
0000
0000
,
0001
0000
0000
0000
,
1000
0000
0000
0000
,
0010
0000
0000
0000
,
0100
0000
0000
0000
,
0001
0000
0000
0000
,
1000
0000
0000
0000
,
0010
0000
0000
0000
,
0100
0000
0000
0000
,
0001
0000
0000
0000
,
0010
0000
0000
0000
,
0100
0000
0000
0000
,
1000
0000
0000
0000
,
0100
0000
0000
0000
,
1000
0000
0000
0000
,
0010
0000
0000
0000
,
0100
0000
0000
0000
,
0001
0000
0000
0000
,
0010
0000
0000
0000
,
0001
0000
0000
0000
,
0100
0000
0000
0000
,
1000
0000
0000
0000
,
0100
0000
0000
0000
;

//--------------- dance-single - B. M'Rey ----------------
#NOTEDATA:;
#STEPSTYPE:dance-single;
#DESCRIPTION:B. M'Rey;
#CREDIT:B. M'Rey;
#DIFFICULTY:Medium;
#METER:7;
#RADARVALUES:0.265,0.318,0.073,0.007,0;
#NOTES:
0000
0000
0000
0000
,
0000
0000
0000
0000
,
0000
0000
0000
0000
,
0000
0000
0000
0000
,
1001
0000
0010
0100
,
0010
0000
0010
0100
,
0110
0000
0001
0100
,
0010
0000
0100
0001
,
1100
0000
0010
0001
,
0100
0000
0001
0100
,
0110
0000
0100
0001
,
0000
0000
0001
0010
,
1000
0100
0010
1000
,
0100
0100
1000
0010
,
0100
1000
0010
0010
,
0010
0000
0100
0100
,
0001
0100
0100
0100
,
0001
0100
0100
0001
,
0001
1000
0010
0001
,
0001
0000
0100
0001
,
0100
0001
0100
1000
,
0010
0010
0100
1000
,
0010
0010
0010
1000
,
0010
0000
0010
0100
,
0100
0100
0001
1000
,
1000
0010
0010
0100
,
1000
0010
0010
0010
,
0100
0000
0100
0010
,
1000
0000
0100
0000
,
0010
0000
0010
0000
,
0100
0000
1000
0000
,
0100
0000
0001
0000
,
0100
0000
0100
0000
,
0001
0000
0001
0000
,
0010
0000
0100
0000
,
0001
0000
0100
0000
,
1000
0000
0010
0000
,
0010
0000
0010
0000
,
0100
0000
1000
0000
,
0010
0000
0010
0000
,
0010
0000
1000
0000
,
0010
0000
0100
0000
,
0100
0000
0001
0000
,
1000
0000
0100
0000
,
0001
0000
0010
0000
,
0100
0000
0001
0000
,
0100
0000
1000
0000
,
0001
0000
0100
0000
,
0010
0000
0100
0000
,
0001
0000
0100
0000
,
1000
0000
0010
0000
,
0010
0000
0010
0000
,
0010
0000
1000
0000
,
0010
0000
0010
0000
,
0100
0000
0001
0000
,
0100
0000
1000
0000
,
0001
0000
0100
0000
,
0001
0000
0010
0000
,
0100
0000
0001
0000
,
0100
0000
0001
0000
,
1000
0000
0100
0000
,
0010
0000
1000
0000
,
0100
0000
0100
0000
,
1000
0000
0010
0000
,
0100
0000
1000
0000
,
0010
0000
0010
0000
,
0010
1001
0000
0000
,
0100
0000
0100
0000
,
0001
0000
0100
0000
,
0100
0000
0100
0000
,
0001
0000
0100
0000
,
0100
0000
0001
0000
,
0001
0000
1000
0000
,
0010
0000
0001
0000
,
0001
0110
0000
0000
,
0100
0000
0001
0000
,
0100
0000
0001
0000
,
0100
0000
1000
0000
,
0010
0000
0010
0000
,
0100
0000
1000
0000
,
0010
0000
0010
0000
,
0010
0000
1000
0000
,
0010
1001
0000
0000
,
0010
0000
0100
0000
,
0100
0000
0100
0000
,
0001
0000
1000
0000
,
1000
0000
0010
0000
,
0010
0000
0100
0000
,
1000
0000
0010
0000
,
0010
0000
0010
0000
,
0100
1010
0000
0000
,
0100
0000
0010
0000
,
1000
0000
0100
0000
,
0010
0000
0010
0000
,
0100
0000
1000
0000
,
0100
0000
0001
0000
,
0100
0000
0100
0000
,
0001
0000
0001
0000
,
0010
1010
0000
0000
,
0010
0000
0100
0000
,
1000
0000
0010
0000
,
0010
0000
0010
0000
,
0100
0000
1000
0000
,
0010
0000
0010
0000
,
0010
0000
1000
0000
,
0010
0000
0100
0000
,
0100
0110
0000
0000
,
1000
0000
0100
0000
,
0002
0000
0000
0000
,
0000
0003
0000
0000
0000
0000
0000
0000
;

//--------------- dance-single - B. M'Rey ----------------
#NOTEDATA:;
#STEPSTYPE:dance-single;
#DESCRIPTION:B. M'Rey;
#CREDIT:B. M'Rey;
#DIFFICULTY:Hard;
#METER:12;
#RADARVALUES:0.594,0.754,0.24,0.015,0.109;
#NOTES:
0000
0000
0000
0000
,
0000
0000
0000
0000
,
0000
0000
0000
0000
,
0000
0000
0000
0000
,
1001
0000
0010
0000
0000
0000
0000
0000
0100
1000
0100
0000
0010
0000
0001
0000
,
0100
0000
0110
0000
0000
0000
0000
0000
0100
1000
0100
0000
0010
0000
0001
0000
,
0110
0000
0100
0000
0000
0000
0000
0000
1000
0100
1000
0000
0010
0000
0001
0000
,
0100
0000
0110
0000
0000
0110
0000
0000
0010
0100
0010
0000
1000
0000
0100
0000
,
0011
0000
1100
0000
0000
0000
0000
0000
0100
0001
0010
0000
1000
0000
0100
0000
,
0010
0000
0101
0000
0000
0000
0000
0000
1000
0100
1000
0000
0010
0000
0001
0000
,
0110
0000
1100
0000
0000
0000
0000
0000
0010
0100
0010
0000
1000
0000
0001
0000
,
0000
0000
1001
0000
0000
1001
0000
0000
1000
0001
1000
0000
0100
0000
0010
0000
,
0001
0000
0100
0000
0010
0000
1000
0000
0100
1000
0010
0000
0001
0000
1000
0000
,
0010
0000
0100
0000
0010
0000
0100
0000
0001
0010
1000
0000
0100
0000
1000
0000
,
0010
0000
0100
0000
0001
0000
0010
0000
0100
0001
1000
0000
0100
0000
0010
0000
,
0100
0000
1001
0000
0000
1001
0000
0000
0010
1000
0100
0000
0010
0000
0100
0000
,
1000
0000
0100
0000
0010
0000
0001
0000
0010
1000
0100
0000
0010
0000
0100
0000
,
1000
0000
0100
0000
0010
0000
0001
0000
0010
1000
0100
0000
1000
0000
0100
0000
,
1000
0000
0010
0000
0001
0000
0010
0000
0100
0001
0010
0000
1000
0000
0100
0000
,
1000
0000
0110
0000
0000
0110
0000
0000
0010
0100
0010
0000
1000
0000
0100
0000
,
0010
0000
0100
0000
1000
0000
0001
0000
0010
1000
0100
0000
0001
0000
1000
0000
,
0100
0000
0010
0000
0100
0000
1000
0000
0010
1000
0100
0000
0001
0000
0010
0000
,
0100
0000
0010
0000
0100
0000
1000
0000
0100
0001
0010
0000
0001
0000
0010
0000
,
0100
0000
1001
0000
0000
1001
0000
0000
0100
0010
1000
0000
0010
0000
0001
0000
,
0010
0000
0100
0000
0010
0000
0100
0000
1000
0100
0010
0000
0001
0000
0010
0000
,
0001
0000
1000
0000
0100
0000
0010
0000
0100
0001
1000
0000
0010
0000
0100
0000
,
0001
0000
0010
0000
0100
0000
1000
0000
0100
1000
0010
0000
0100
0000
1000
0000
,
0010
0000
0101
0000
0000
1010
0000
0000
0010
0001
0100
0000
0100
0000
0010
0000
,
0001
0010
1000
0100
,
1000
1000
0100
1000
,
1000
0001
0010
0001
,
0001
0010
0100
0010
,
0100
0100
0001
0010
,
0100
0100
0010
1000
,
0100
0100
0001
1000
,
0001
0001
0010
0100
,
0001
1000
0100
0100
,
1000
0010
0100
0100
,
1000
0001
0010
1000
,
0100
1000
0001
0100
,
0001
1000
0100
1000
,
1000
1000
0100
1000
,
1000
0100
1000
0100
,
0100
0001
0001
1000
,
0001
1000
1000
0001
,
0001
0100
0100
0001
,
0100
0001
0001
0010
,
0100
1000
0010
1000
,
0010
0100
0001
0010
,
0100
0001
1000
0001
,
1000
0010
0010
1000
,
1000
0010
0100
0100
,
0001
0100
0010
1000
,
0001
1000
1000
0001
,
0001
0001
0010
1000
,
0001
0001
0001
0010
,
0100
0001
0100
0001
,
0010
0100
0100
0001
,
0010
1000
0100
0001
,
1000
0001
0001
0010
,
0001
0001
1000
1000
,
0100
0010
0001
0000
1000
0000
0001
0000
,
1000
0010
1000
0010
,
0100
1000
0001
0000
1000
0000
0001
0000
,
0010
0100
0100
1000
,
1000
0001
0100
0000
0100
0000
0001
0000
,
0010
0000
0110
0000
0000
0110
0000
0000
,
0100
0001
0100
0000
0001
0000
0010
0000
,
0001
0001
1000
1000
,
1000
0010
1000
0000
0100
0000
1000
0000
,
0100
0001
0001
0010
,
0001
1000
0001
0000
0010
0000
0100
0000
,
0100
1000
0100
1000
,
0001
0100
0001
0000
1000
0000
0001
0000
,
0010
0000
1001
0000
0000
1001
0000
0000
,
1000
0010
0001
0000
0010
0000
0001
0000
,
0010
0010
0100
0100
,
0001
1000
0010
0000
0100
0000
0010
0000
,
0100
1000
0100
1000
,
0001
0100
0010
0000
0100
0000
0010
0000
,
1000
0001
0001
0100
,
0100
0010
0001
0000
0001
0000
0010
0000
,
1000
0000
1001
0000
0000
1001
0000
0000
,
0001
0010
0001
0000
0010
0000
1000
0000
,
0010
0010
0100
0100
,
0100
1000
0100
0000
0001
0000
0100
0000
,
0001
0010
0010
1000
,
0010
0100
0010
0000
1000
0000
0001
0000
,
0001
0100
0001
0100
,
0010
0001
0010
0000
0100
0000
0010
0000
,
1000
0000
0110
0000
0000
0110
0000
0000
,
0100
1000
0010
0000
1000
0000
0010
0000
,
0100
0100
0010
0010
,
1000
0001
0100
0000
0010
0000
0100
0000
,
0010
0001
0010
0001
,
1000
0010
0100
0000
0010
0000
0100
0000
,
0001
1000
1000
0010
,
0010
0100
1000
0000
1000
0000
0100
0000
,
0001
0000
1001
0000
0000
1001
0000
0000
,
1000
0100
1000
0000
0100
0000
0001
0000
,
0100
0100
0010
0010
,
0010
0001
0010
0000
1000
0000
0010
0000
,
1000
0100
0100
0001
,
0100
0010
0100
0000
0001
0000
1000
0000
,
1000
0010
1000
0010
,
0100
1000
0100
0000
0010
0000
0100
0000
,
0001
0000
0110
0000
0000
0110
0000
0000
,
0010
0001
0100
0000
0001
0000
0100
0000
,
2002
0000
0000
0000
,
3003
0000
0000
0000
;

//--------------- dance-single - B. M'Rey ----------------
#NOTEDATA:;
#STEPSTYPE:dance-single;
#DESCRIPTION:B. M'Rey;
#CREDIT:B. M'Rey;
#DIFFICULTY:Challenge;
#METER:17;
#RADARVALUES:0.894,0.755,0.146,0.007,0.109;
#NOTES:
0000
0000
0000
0000
,
0000
0000
0000
0000
,
0000
0000
0000
0000
,
0000
0000
0000
0000
,
0110
0000
0001
0000
0000
0000
0000
0000
1000
0010
1000
0000
0001
0000
0100
0000
,
1000
0000
1001
0000
0000
0000
0000
0000
1000
0010
1000
0000
0001
0000
0100
0000
,
1001
0000
1000
0000
0000
0000
0000
0000
0010
1000
0010
0000
0001
0000
0100
0000
,
1000
0000
1001
0000
0000
1001
0000
0000
0001
1000
0001
0000
0010
0000
1000
0000
,
0101
0000
1010
0000
0000
0000
0000
0000
1000
0100
0001
0000
0010
0000
1000
0000
,
0001
0000
1100
0000
0000
0000
0000
0000
0010
1000
0010
0000
0001
0000
0100
0000
,
1001
0000
1010
0000
0000
0000
0000
0000
0001
1000
0001
0000
0010
0000
0100
0000
,
0000
0000
0110
0000
0000
0110
0000
0000
0010
0100
0010
0000
1000
0000
0001
0000
,
0100
0000
1000
0000
0001
0000
0010
0000
1000
0010
0001
0000
0100
0000
0010
0000
,
0001
0000
1000
0000
0001
0000
1000
0000
0100
0001
0010
0000
1000
0000
0010
0000
,
0001
0000
1000
0000
0100
0000
0001
0000
1000
0100
0010
0000
1000
0000
0001
0000
,
1000
0000
0110
0000
0000
0110
0000
0000
0001
0010
1000
0000
0001
0000
1000
0000
,
0010
0000
1000
0000
0001
0000
0100
0000
0001
0010
1000
0000
0001
0000
1000
0000
,
0010
0000
1000
0000
0001
0000
0100
0000
0001
0010
1000
0000
0010
0000
1000
0000
,
0010
0000
0001
0000
0100
0000
0001
0000
1000
0100
0001
0000
0010
0000
1000
0000
,
0010
0000
1001
0000
0000
1001
0000
0000
0001
1000
0001
0000
0010
0000
1000
0000
,
0001
0000
1000
0000
0010
0000
0100
0000
0001
0010
1000
0000
0100
0000
0010
0000
,
1000
0000
0001
0000
1000
0000
0010
0000
0001
0010
1000
0000
0100
0000
0001
0000
,
1000
0000
0001
0000
1000
0000
0010
0000
1000
0100
0001
0000
0100
0000
0001
0000
,
1000
0000
0110
0000
0000
0110
0000
0000
1000
0001
0010
0000
0001
0000
0100
0000
,
0001
0000
1000
0000
0001
0000
1000
0000
0010
1000
0001
0000
0100
0000
0001
0000
,
0100
0000
0010
0000
1000
0000
0001
0000
1000
0100
0010
0000
0001
0000
1000
0000
,
0100
0000
0001
0000
1000
0000
0010
0000
1000
0010
0001
0000
1000
0000
0010
0000
,
0001
0000
1100
0000
0000
0011
0000
0000
0001
0100
1000
0000
1000
0000
0001
0000
,
0100
0010
0001
1000
0010
0100
1000
0100
,
0010
0001
0010
0100
1000
0100
0010
0001
,
0010
1000
0100
1000
0001
0010
0100
1000
,
0100
0010
0001
0100
1000
0100
0001
0010
,
1000
0100
1000
0001
0100
0010
0001
0010
,
1000
0100
1000
0010
0001
0100
0010
0001
,
1000
0100
1000
0010
0100
0001
0010
1000
,
0100
1000
0100
0010
0001
0100
1000
0010
,
0100
0001
0010
0100
1000
0100
1000
0001
,
0010
0100
0001
0010
1000
0100
1000
0100
,
0010
0001
0100
0010
0001
1000
0010
0100
,
1000
0100
0010
0001
0100
0010
1000
0001
,
0100
1000
0010
0100
1000
0001
0010
0100
,
0010
0001
0010
0100
1000
0100
0010
0001
,
0010
0100
1000
0100
0010
0100
1000
0001
,
1000
0010
0100
0001
0100
1000
0010
1000
,
0100
0001
0010
0100
0010
1000
0100
0001
,
0100
0010
1000
0001
1000
0010
0100
0001
,
1000
0010
0100
1000
0100
0010
0001
0010
,
1000
0100
0010
1000
0001
0100
0010
1000
,
0001
0100
1000
0010
0100
0010
0001
0100
,
1000
0010
0100
0001
0010
1000
0100
1000
,
0010
0100
0001
0010
0001
1000
0010
0100
,
0010
1000
0001
0100
1000
0100
1000
0001
,
0100
0010
1000
0100
0001
0100
0010
0001
,
0100
1000
0010
0100
0010
0001
0100
1000
,
0100
1000
0100
0010
0001
0100
0010
0001
,
0100
1000
0100
1000
0100
0010
0001
0100
,
1000
0010
0100
0001
1000
0010
0100
0010
,
0001
0100
1000
0100
1000
0001
0100
0010
,
0001
1000
0010
0100
1000
0010
0100
0001
,
0010
1000
0100
1000
0100
0010
0001
0010
,
0100
1000
0100
0001
0010
0001
0010
0100
,
1000
0010
0100
0001
0010
1000
0100
1000
,
0010
0100
0001
1000
0010
1000
0001
0100
,
1000
0010
0100
1000
0010
0001
0100
0010
,
0001
0100
1000
0100
1000
0100
0010
0001
,
0010
0100
1000
0100
1000
0001
0100
0010
,
0001
0100
1000
0010
0100
0010
0001
0010
,
1000
0100
1000
0010
0100
0010
0001
0010
,
0100
1000
0100
1000
0010
0001
0010
0100
,
0010
0001
0010
0100
1000
0100
0010
0001
,
1000
0010
0100
1000
0100
0010
0001
0010
,
0100
1000
0100
0010
0001
0010
1000
0100
,
1000
0001
0010
0100
1000
0100
0010
0001
,
0100
1000
0100
0001
0010
1000
0100
1000
,
0001
0100
0010
0001
0010
1000
0100
1000
,
0010
0001
0100
0010
0001
1000
0100
1000
,
0010
0100
0001
0010
1000
0100
1000
0100
,
0010
0001
0100
1000
0010
0100
0001
0010
,
0100
1000
0100
1000
0001
0010
0100
0001
,
0010
1000
0100
1000
0100
0010
0001
0100
,
0010
0001
1000
0010
0100
1000
0100
0010
,
0001
0100
0010
1000
0001
0100
1000
0010
,
0100
1000
0001
0010
0100
0010
0001
0010
,
0100
1000
0100
0010
0001
0010
0100
1000
,
0100
0010
0100
1000
0001
1000
0010
0100
,
0001
0100
1000
0010
1000
0100
0001
0010
,
0100
0010
1000
0100
0001
0100
0010
1000
,
0001
1000
0010
0100
0001
1000
0010
0100
,
1000
0100
0010
0001
0010
1000
0100
0010
,
1000
0001
0100
0010
1000
0001
0100
1000
,
0010
0100
0010
0001
0100
1000
0010
0100
,
0001
0010
1000
0100
1000
0010
0100
0001
,
0010
0001
1000
0010
0100
0010
1000
0001
,
0100
1000
0100
1000
0001
0100
0010
1000
,
0100
0001
0100
0010
0001
0100
1000
0010
,
0100
0010
0001
0100
1000
0100
1000
0100
,
0010
0001
0100
0010
0001
0100
1000
0100
,
1000
0100
0010
0001
0100
1000
0010
0100
,
0001
1000
0010
0100
0010
0001
0100
1000
,
0100
1000
0001
0100
0010
0001
1000
0010
,
0100
1000
0010
0100
0001
0010
1000
0100
,
1000
0100
0010
0001
0010
0100
1000
0100
,
0001
0010
0001
0010
0100
1000
0010
0100
,
0001
0010
1000
0100
1000
0010
0100
0001
,
1000
0010
1000
0001
0100
1000
0010
0100
,
1000
0010
0001
0100
0010
0001
0100
1000
,
0100
1000
0100
0010
0001
0010
0100
1000
,
0100
1000
0001
0100
0010
0001
0100
1000
,
0020
0000
0000
0000
,
0000
0030
0000
0000
0000
0000
0000
0000
;
