#VERSION:0.83;
#TITLE:Adventures;
#ARTIST:William EKH feat Alexa Lusader;
#GENRE:Uplifting Progressive;
#CREDIT:B. M'Rey;
#MUSIC:Adventure.ogg;
#BANNER:Adventures-bn.png;
#BACKGROUND:Adventures-bg.png;
#CDTITLE:./CDTITLES/NoCopyrightSounds.PNG;
#SAMPLESTART:63.013;
#SAMPLELENGTH:15;
#OFFSET:-0.214;
#BPMS:0=128;

//--------------- dance-single - B. M'Rey ----------------
#NOTEDATA:;
#STEPSTYPE:dance-single;
#DESCRIPTION:B. M'Rey;
#CREDIT:B. M'Rey;
#DIFFICULTY:Beginner;
#METER:4;
#RADARVALUES:0.063,0.052,0,0,0;
#NOTES:
0000
0000
0000
0000
,
0000
0000
0000
0000
,
0000
0000
0000
0000
,
0000
0000
0000
0000
,
0000
0000
0000
0000
,
0000
0000
0000
0000
,
0000
0000
0000
0000
,
0000
0000
0000
0000
,
0000
0000
0000
0000
,
0000
0000
0000
0000
,
0010
0000
1000
0000
0100
0000
0000
0010
,
0000
0000
0000
0001
0000
0000
0000
0000
,
0100
0010
0002
0000
,
0003
0000
0000
0000
,
0100
0000
0010
0000
0001
0000
0000
0001
,
0000
0010
0000
0100
0000
0000
0000
0000
,
0010
0100
0010
0200
,
0000
0000
0000
0000
,
0310
0000
0001
0000
,
0100
0000
0200
0000
,
0000
1300
0010
2000
,
0000
0000
0000
0000
,
3010
0100
0010
0000
,
0001
1000
0100
0000
,
0010
0100
0000
0000
,
2000
0000
0000
0000
,
3000
0010
0000
0100
,
0010
0000
0001
0010
,
0100
0000
0001
0100
,
0000
0100
0000
1000
,
0010
0000
0001
0100
,
0000
1000
0100
0000
,
0200
0000
0000
0000
,
0000
0000
0301
0010
,
0001
1000
0000
0100
,
0000
1000
0000
0001
,
0010
1000
0000
0010
,
0000
1000
0000
0100
,
0010
0001
0000
0100
,
0000
1000
0000
0100
,
0002
0000
0003
0000
,
1000
0000
0000
0000
,
0010
0100
0000
1000
,
0000
0001
0000
0010
,
0001
0010
0000
1000
,
0000
0010
0000
1000
,
0010
0100
0000
0100
,
0000
0010
0000
0100
,
0010
0000
0100
0000
,
0020
0000
0000
0000
,
0031
0000
0010
0000
,
0001
0000
0100
0000
,
0010
0000
0001
0000
,
0100
0000
0010
0000
,
0020
0000
0000
0000
,
0230
0000
0000
0000
,
0320
0000
0000
0000
,
0000
0000
0000
0000
,
0030
0000
0000
0000
;

//--------------- dance-single - B. M'Rey ----------------
#NOTEDATA:;
#STEPSTYPE:dance-single;
#DESCRIPTION:B. M'Rey;
#CREDIT:B. M'Rey;
#DIFFICULTY:Easy;
#METER:5;
#RADARVALUES:0.226,0.21,0,0.136,0;
#NOTES:
0000
0000
0000
0000
,
0000
0000
0000
0000
,
0000
0000
0000
0000
,
0000
0000
0000
0000
,
0000
0000
0000
0000
,
0000
0000
0000
0000
,
0000
0000
0000
0000
,
0000
0000
0000
0000
,
0000
0000
0000
0000
,
0000
0000
0000
0000
,
0010
0100
0010
0100
,
0001
0020
0000
0000
,
0031
0010
0100
0010
,
0001
0000
0000
0000
,
0100
1000
0010
0100
,
0010
1000
0000
0000
,
0001
0100
0010
2000
,
0000
0000
0000
0000
,
3100
0000
1000
0000
0010
0000
0010
0010
,
0000
0100
0002
0000
,
0003
1000
0100
0020
,
0000
0000
0030
0000
,
0010
0000
0100
0000
0001
0000
0100
0100
,
0000
1000
0200
0000
,
0000
0310
0010
0000
0010
0000
0200
0000
,
0000
0000
0000
0000
,
0310
1000
0100
1000
,
0010
0100
0010
0100
,
0001
0010
0100
1000
,
0010
1000
0001
0100
,
0010
1000
0010
0100
,
0001
0100
0010
1000
,
0002
0000
0000
0000
,
0000
0000
1003
1000
,
0010
0000
0100
0000
0001
0000
0010
0010
,
0001
0000
0100
0100
0010
0000
0100
0000
,
0010
0000
1000
0000
0100
0000
0010
0010
,
0001
0000
0100
0100
0010
0000
0100
0000
,
0001
0000
1000
0000
0001
0000
0010
0010
,
0100
0000
0010
0010
0001
0000
0100
0000
,
0010
0100
0010
1000
,
0200
0000
0000
0000
,
0300
0000
1000
0000
0100
0000
0010
0010
,
0001
0000
0010
0010
0001
0000
0100
0000
,
0010
0000
1000
0000
0010
0000
1000
1000
,
0100
0000
0010
0010
0100
0000
0010
0000
,
0001
0000
0100
0000
0001
0000
0010
0010
,
0100
0000
1000
1000
0010
0000
0100
0000
,
0001
0000
0000
0100
0000
0000
0010
0002
,
0000
0000
1003
1000
,
0100
0100
0000
0010
0000
1000
0000
0000
,
0100
0010
0000
0100
0000
1000
0000
0000
,
0001
0010
0000
0100
0000
1000
0000
0000
,
0001
1000
0000
0100
0000
0010
0000
0000
,
0200
0000
0000
0000
,
0302
0000
0000
0000
,
1003
0000
0000
0100
0000
0000
1000
0200
,
0000
0000
0000
0000
,
0300
0000
0000
0000
;

//--------------- dance-single - B. M'Rey ----------------
#NOTEDATA:;
#STEPSTYPE:dance-single;
#DESCRIPTION:B. M'Rey;
#CREDIT:B. M'Rey;
#DIFFICULTY:Medium;
#METER:7;
#RADARVALUES:0.329,0.498,0.127,0.235,0;
#NOTES:
0000
0000
0000
0000
,
0000
0000
0000
0000
,
0000
0000
0000
0000
,
0000
0000
0000
0000
,
0000
0000
0000
0000
,
0000
0000
0000
0000
,
0000
0000
0000
0000
,
0000
0000
0000
0000
,
0000
0000
0000
0000
,
0000
0000
0000
0000
,
0100
0000
0100
1000
0001
0000
1000
0001
,
0000
0010
0000
0002
0000
0000
0000
0000
,
0000
0103
0001
0000
0010
0000
0100
2000
,
0000
0000
3000
0000
,
0010
0100
0001
0000
0001
0000
0100
1000
,
0000
0001
0000
0001
0000
0000
0000
0000
,
0000
1000
0010
0000
0010
0000
0100
2000
,
0000
0000
0000
0000
,
3000
0010
0001
0000
0100
0000
0100
1000
,
0000
0001
0010
0100
,
0000
0100
0001
0000
0100
0010
0200
0000
,
0000
0000
0300
0000
,
0000
0100
0010
0000
0010
0000
0100
0010
,
0000
0010
0001
0000
0020
0000
0000
0000
,
0000
0130
0001
0000
0100
0010
0200
0000
,
0000
0000
0000
0000
,
1300
0010
0001
1000
,
0001
0100
0010
1000
,
0001
0100
0001
0010
,
0100
0010
0001
0100
,
0001
0010
0001
0000
0010
1000
0100
0000
,
0100
1000
0010
0000
0010
0100
0001
0010
,
1000
0000
0000
0001
0000
0100
0010
0200
,
0000
0000
0301
1000
,
0010
0000
0001
0010
0000
0010
0100
1000
,
0000
1000
0001
0100
0000
0100
0000
0010
,
0100
0000
0010
1000
0000
0010
0100
0010
,
0000
1000
0100
0010
0000
1000
0000
1000
,
0010
0000
0001
0100
0000
0010
0100
0010
,
0000
1000
0001
0100
0000
1000
0000
0010
,
0001
0000
0010
0100
0000
1000
0010
2000
,
0000
0000
0000
3100
,
0001
0000
0100
0010
0000
1000
0100
0010
,
0000
1000
0001
0010
0000
1000
0000
1000
,
0010
0000
0001
0010
0000
1000
0100
1000
,
0000
0100
0001
1000
0000
0010
0000
0100
,
0010
0000
0001
0100
0000
0100
0010
1000
,
0000
1000
0010
0100
0000
0010
0000
0100
,
0010
0000
0010
0100
0000
0010
0100
2000
,
0000
0000
3010
0001
,
0010
0100
0000
1000
0000
1000
0000
0100
,
0001
0010
0000
0010
0000
1000
0000
0100
,
0010
1000
0000
1000
0000
0010
0000
0100
,
0010
1000
0000
1000
0000
0010
0000
1000
,
0100
0010
0001
0100
,
0001
0010
0100
1000
,
0010
0000
0000
0100
0000
0000
0010
0200
,
0000
0000
0000
0000
,
0310
0000
0000
0000
;

//--------------- dance-single - B. M'Rey ----------------
#NOTEDATA:;
#STEPSTYPE:dance-single;
#DESCRIPTION:B. M'Rey;
#CREDIT:B. M'Rey;
#DIFFICULTY:Hard;
#METER:9;
#RADARVALUES:0.455,0.64,0.063,0.606,0.063;
#NOTES:
0000
0000
0000
0000
,
0000
0000
0000
0000
,
0000
0000
0000
0000
,
0000
0000
0000
0000
,
0000
0000
0000
0000
,
0000
0000
0000
0000
,
0000
0000
0000
0000
,
0000
0000
0000
0000
,
0000
0000
0000
0000
,
0000
0000
0000
0000
,
0100
1000
0010
1000
0010
0000
0001
0100
,
0000
0010
0000
0200
0000
0000
0300
0000
,
0100
0010
0100
0010
0100
1000
0010
0100
,
0010
0000
0100
0000
,
0001
0100
0001
0010
0100
0000
0001
0010
,
0000
1000
0000
2000
0000
0000
3000
0000
,
0001
0010
0001
0010
0100
0000
0001
0200
,
0000
0000
0000
0300
0400
0000
0000
0000
0000
0000
0000
0000
0000
0000
0300
0000
,
0100
0010
0100
0000
0100
0000
0010
1000
,
0000
1000
0100
0000
0200
0000
0300
0000
,
0000
1000
0100
0000
0100
0010
0200
0000
,
0001
0001
0301
0000
,
0000
1000
0001
0000
0001
0000
0100
1000
,
0000
0100
0001
0000
0100
0000
0001
0000
,
0001
0100
0001
0000
0100
1000
0010
0100
,
2000
0000
0000
0000
,
3100
0000
0001
0100
0000
0100
0010
1000
,
0000
1000
0001
1000
0000
0010
0000
1000
,
0100
0000
0010
1000
0000
0010
0001
1000
,
0000
0100
0001
0100
0000
1000
0000
1000
,
0001
1000
0100
0010
0100
0010
0001
1000
,
0001
1000
0100
0010
0100
1000
0001
0010
,
0001
1000
0001
0010
0001
0100
0001
0100
0001
1000
0010
1000
0010
1000
0100
1000
,
0100
0010
0100
0010
0100
1000
0100
0000
0010
0000
1000
0000
0010
0000
0100
0000
,
0001
1000
0001
0010
0001
0100
0010
0100
,
0001
0010
0001
0100
0010
1000
0100
0010
,
0001
0100
0010
1000
0010
0100
0001
0100
,
0010
0100
0010
0100
0001
1000
0010
0100
,
0001
0100
0010
1000
0100
0010
0100
1000
,
0100
0010
0100
0010
0100
1000
0001
0100
,
0010
1000
0010
1000
0010
0100
0001
0100
,
0001
0100
0010
0100
,
0010
0000
0010
0100
0001
0100
0010
1000
,
0010
0100
0001
0100
0001
1000
0001
0100
,
0001
0100
0010
0100
0001
1000
0100
1000
,
0001
0100
0010
0100
0001
0100
0001
1000
,
0100
1000
0100
0010
0100
1000
0001
0100
,
0001
0100
0010
0100
0010
0100
0001
0100
,
0010
1000
0001
1000
0100
1000
0100
0020
,
0000
0000
0000
0031
0100
0010
1000
0010
,
0001
0100
0010
0100
0000
1000
0000
0100
,
0010
0100
0001
0100
0000
0010
0000
1000
,
0010
1000
0001
1000
0000
0100
0000
0100
,
0001
1000
0010
1000
0000
1000
0000
0001
,
1000
0010
0000
1000
0000
1000
0000
0100
,
0001
1000
0000
0010
0000
0100
0000
0100
,
0010
0000
0100
0010
0000
0010
0001
2000
,
0000
0000
0000
0000
,
3001
0000
0000
0000
;

//--------------- dance-single - B. M'Rey ----------------
#NOTEDATA:;
#STEPSTYPE:dance-single;
#DESCRIPTION:B. M'Rey;
#CREDIT:B. M'Rey;
#DIFFICULTY:Challenge;
#METER:12;
#RADARVALUES:0.641,0.853,0.072,0.262,0.701;
#NOTES:
0000
0000
0000
0000
,
0000
0000
0000
0000
,
0000
0000
0000
0000
,
0000
0000
0000
0000
,
0000
0000
0000
0000
,
0000
0000
0000
0000
,
0000
0000
0000
0000
,
0000
0000
0000
0000
,
0000
0000
0000
0000
,
0000
0000
0000
0000
,
0001
0010
0001
1000
0100
0000
0001
1000
,
0000
0100
0000
1000
0100
0000
0100
0010
,
0000
1000
0010
1000
0100
1000
0001
1000
,
0110
0000
0101
0000
0100
1000
0010
0100
,
0010
0100
0001
0010
0100
0000
0100
1000
,
0000
1000
0000
2000
0010
0000
0010
0000
,
3100
1000
0100
0010
0001
0000
0001
0020
,
0000
0200
0000
0000
,
0331
0100
0001
0010
0100
1000
0100
1000
,
0010
0100
0001
0010
0100
0000
0001
0000
,
0100
0010
0100
1000
0001
0100
0010
0100
,
0010
0000
0010
0000
0100
0010
0001
0000
,
0000
0000
0010
0100
0001
0000
1000
0000
0100
0000
0010
0000
0100
0000
1000
0000
,
0100
0000
0010
1000
0100
0000
0010
0000
0100
0000
1000
0000
0001
0000
0000
0000
,
0010
0100
0001
0100
0010
1000
0001
0010
,
0001
1000
0010
1000
0010
1000
0001
1000
0001
1000
0001
1000
0001
1000
0001
1000
,
0100
0010
0100
0010
0001
0010
0001
0010
,
0100
1000
0010
0100
0010
0100
0010
0100
,
0001
1000
0100
1000
0001
0100
0001
1000
,
0001
1000
0001
0010
0001
0010
0001
0100
,
0001
0010
0001
1000
0001
0010
0100
1000
,
0100
0010
0001
0010
0100
1000
0010
0100
,
0001
1000
0010
0100
0001
0010
0100
1000
0001
0010
0001
1000
0001
0100
0001
1000
,
0010
0100
0001
1000
0100
0010
0100
0010
0001
0000
1000
0000
0010
0000
0100
0000
,
0010
0100
0001
1000
0100
0000
0010
0000
0001
0010
0100
1000
0010
0000
0100
0000
,
0001
0100
0001
0010
0100
0000
0010
0000
0001
0000
0100
0000
0001
0000
0100
0000
,
0001
0000
0010
1000
0100
0010
0001
0100
0010
0000
0001
0010
0100
0000
0100
1000
,
0001
0000
0010
1000
0010
0000
0001
1000
0010
0000
0010
0100
0010
0000
0100
1000
,
0010
0000
0001
0100
0001
0010
0100
1000
0010
0000
0001
0100
0010
0000
0001
0010
,
0001
0000
0001
0100
0001
0000
0100
0010
0100
0000
0010
0100
0001
0000
0100
1000
,
0010
0001
0100
0001
0100
0001
0100
0002
,
0010
0100
0010
0100
,
0010
0000
0100
1000
0013
0100
0001
0010
0100
0000
0001
0000
0010
1000
0100
0010
,
0001
0000
0010
0000
0100
0010
0001
0100
0001
0000
0100
1000
0010
0000
0001
1000
,
0001
0000
0100
0010
0001
1000
0100
1000
0100
0000
0001
0010
0001
0000
0010
0100
,
0001
0000
0100
1000
0010
0000
0001
1000
0010
0000
0001
0010
0100
0000
0001
0100
,
0001
0000
0100
1000
0001
1000
0001
0010
0100
0000
0100
0010
0001
0000
0010
0100
,
0001
0000
0100
1000
0010
0000
0001
0010
0001
0000
0100
1000
0100
0000
0001
0100
,
0001
0000
0100
0000
0001
0000
0010
0000
0100
0000
0001
0000
0010
0000
0001
0100
,
2000
0000
0000
3100
1000
0010
1000
0100
,
0001
1000
0001
1000
0100
0000
0100
0000
0001
0000
0001
0000
0100
0000
0100
0000
,
0001
1000
0001
1000
0010
0000
0010
0000
0001
0000
0001
0000
0010
0000
0001
0000
,
0001
1000
0010
1000
0010
0000
0001
0000
0100
0000
0010
0000
0001
0000
0001
0000
,
0100
0010
0100
1000
0001
0000
0001
0000
0010
0000
0010
0000
0100
0000
0100
0000
,
0010
0010
0001
0001
,
0100
0100
0001
0010
,
0010
0000
0001
1000
0000
0010
0100
0020
,
0000
0000
0000
0000
,
0130
0000
0000
0000
;
