#VERSION:0.83;
#TITLE:Adventure Of A Lifetime;
#ARTIST:Coldplay;
#GENRE:Funk pop;
#CREDIT:B. M'Rey;
#MUSIC:Adventure Of A Lifetime.ogg;
#BANNER:Adventure Of A Lifetime-bn.png;
#BACKGROUND:Adventure Of A Lifetime-bg.png;
#CDTITLE:./CDTITLES/BMR Superstars.PNG;
#SAMPLESTART:8.514;
#SAMPLELENGTH:15;
#OFFSET:-0.273;
#BPMS:0=112;
#BGCHANGES:4.000=Adventure Of A Lifetime.avi=1.000=0=0=1,;

//--------------- dance-single - B. M'Rey ----------------
#NOTEDATA:;
#STEPSTYPE:dance-single;
#DESCRIPTION:B. M'Rey;
#CREDIT:B. M'Rey;
#DIFFICULTY:Beginner;
#METER:3;
#RADARVALUES:0,0,0,0,0;
#NOTES:
0000
0000
0000
0000
,
0000
0000
0000
0000
,
0000
0000
0000
0000
,
0000
0000
0000
0000
,
1000
0000
0000
0000
,
0001
0000
0000
0000
,
0010
0000
0000
0000
,
0100
0000
0001
0001
,
1000
0000
0000
0000
,
0010
0000
0000
0000
,
0100
0000
0000
0000
,
0001
0000
1001
1001
,
0100
0000
0000
0010
,
1000
0000
0000
0100
,
0001
0000
0000
0000
,
0010
0000
1000
0000
,
0100
0000
0000
0001
,
1000
0000
0000
0010
,
0100
0000
0000
0001
,
1000
0000
0000
0000
,
0110
0000
0000
0001
,
0010
0000
0000
1000
,
0100
0000
0000
0000
,
0010
0000
0100
0000
,
0001
0000
0000
1000
,
0100
0000
0000
0001
,
0010
0000
0000
0100
,
0000
0000
0010
0000
,
1000
0000
0001
0000
,
0000
0000
0010
0000
,
0100
0000
0001
0000
,
1000
0000
0010
0000
,
0100
0000
0000
0000
,
0000
0000
0000
0000
,
0001
0000
0000
0000
,
0000
0000
1001
1001
,
1000
0000
0000
0000
,
0010
0000
0000
0000
,
0100
0000
0000
0000
,
0001
0000
0000
0000
,
1000
0000
0000
0000
,
0010
0000
0000
0000
,
0100
0000
0000
0000
,
0001
0000
1000
0000
,
0001
0000
0100
0000
,
0010
0000
1000
0000
,
0100
0000
0001
0000
,
0010
0000
0000
1000
,
0100
0000
0000
0001
,
0010
0000
0000
0100
,
0010
0000
0000
1000
,
0000
0000
0001
0000
,
0100
0000
0000
0000
,
0010
0000
0000
0000
,
1000
0000
0001
0000
,
1000
0000
0001
0000
,
0100
0000
0000
0000
,
0010
0000
0000
0000
,
0001
0000
0010
0000
,
0100
0000
1000
0000
,
0100
0000
0000
0000
,
0010
0000
0000
0000
,
0001
0000
0000
0000
,
1000
0000
0000
0000
;

//--------------- dance-single - B. M'Rey ----------------
#NOTEDATA:;
#STEPSTYPE:dance-single;
#DESCRIPTION:B. M'Rey;
#CREDIT:B. M'Rey;
#DIFFICULTY:Easy;
#METER:4;
#RADARVALUES:0,0,0,0,0;
#NOTES:
0000
0000
0000
0000
,
0000
0000
0000
0000
,
0000
0000
0000
0000
,
0000
0000
0000
0000
,
0010
0100
0010
0000
,
0010
1000
0001
0000
,
0001
1000
0100
0000
,
0100
0010
0100
1000
,
0010
1000
0010
0000
,
0100
0010
0100
0000
,
0100
1000
0010
0000
,
0010
1000
0001
0010
,
0100
0000
0100
0010
,
0001
0000
0000
0010
,
0001
0000
0000
0000
,
0100
1000
0100
0010
,
0001
0000
0000
1000
,
0001
0000
0000
0010
,
0100
0000
0000
0010
,
0001
0000
0001
1000
,
0010
0000
0010
0100
,
0010
0000
0001
0100
,
0001
0000
1000
0000
,
0010
1000
0010
0100
,
0010
0000
0000
0100
,
0010
0000
0000
1000
,
0010
0000
0000
0100
,
0001
0000
0010
1000
,
0001
0000
1000
0000
0000
0001
0000
0000
,
0000
0000
0001
0010
,
0001
0000
0100
1000
,
0100
0000
0010
0100
,
0000
0010
0000
1000
,
0000
0000
0010
1000
,
0020
0000
0000
0000
,
0000
0030
1001
1010
,
0010
1000
0010
0000
,
0100
0010
0100
0000
,
0100
1000
0001
0000
,
0001
1000
0200
0000
,
0301
0010
0100
0000
,
0001
0010
0002
0000
,
0013
1000
0100
0000
,
0100
1000
0001
0100
,
0001
0000
1000
0000
,
0100
0000
0100
0010
,
0100
0000
0010
0000
,
0010
0000
0001
0010
,
0001
0000
0000
0010
,
0100
0000
0000
0010
,
0001
0000
0000
1000
,
0001
0000
0001
0100
,
0001
0000
0100
0000
,
0010
0000
0001
0000
,
1000
0100
0001
0000
,
0010
0100
0010
0000
,
0010
0000
0100
0000
,
1000
0000
0100
0000
,
0001
0010
0001
0000
,
0100
1000
0100
0000
,
0001
0000
0000
0000
,
0010
0000
0000
0000
,
0100
0000
0000
0000
,
1000
0000
0000
0000
;

//--------------- dance-single - B. M'Rey ----------------
#NOTEDATA:;
#STEPSTYPE:dance-single;
#DESCRIPTION:B. M'Rey;
#CREDIT:B. M'Rey;
#DIFFICULTY:Medium;
#METER:7;
#RADARVALUES:0,0,0,0,0;
#NOTES:
0000
0000
0000
0000
,
0000
0000
0000
0000
,
0000
0000
0000
0000
,
0000
0000
1001
1001
,
0001
0000
0010
0000
0001
0000
0100
0010
,
0100
0000
1000
0000
0001
0000
0100
0010
,
0100
0000
0001
0000
0010
0000
1000
0100
,
1000
0001
0101
0101
,
0010
0100
0010
0000
1000
0000
0001
0010
,
0100
0000
1000
0000
0010
0000
0100
0001
,
0010
0000
1000
0000
0010
0000
0100
0001
,
0100
0010
0110
0110
,
1000
0000
0001
0000
0100
0000
0010
0100
,
0010
0000
0001
0000
1000
0000
0010
1000
,
0010
0100
0010
0001
,
0001
0100
0001
0000
0010
1000
0010
0000
,
0100
0000
0010
0000
1000
0000
0001
0010
,
0001
0000
0100
0000
0010
0000
0001
0100
,
1000
0000
0010
0000
0100
0000
1000
0100
,
0001
0010
0100
0010
,
0110
0000
0001
0000
1000
0000
0010
0100
,
0001
0000
0010
0000
1000
0000
0010
0100
,
0001
1000
0010
0100
,
1000
0100
1000
0000
0001
0010
0001
0000
,
0100
0000
0010
0000
1000
0000
0100
0010
,
0001
0000
0100
0000
0010
0000
1000
0010
,
1000
0100
0001
0010
,
0001
0000
0100
0000
0010
0100
0010
0000
,
1000
0001
0010
0100
,
0000
0000
0000
0000
0001
1000
0001
0000
,
0100
0010
1000
0001
,
0100
0000
0010
0000
1000
0000
0010
0100
,
0010
0000
1000
0000
0000
0001
0000
0000
,
0000
0000
0100
0010
,
1001
0000
0000
0000
,
0000
1000
0110
0110
,
0001
0000
0010
0000
0100
0000
0001
1000
,
0010
0000
0100
0000
0010
0000
1000
0100
,
0001
0000
0010
0000
0100
0000
0001
1000
,
0010
0100
0110
0110
,
0001
1000
0010
0000
0100
0000
0010
0001
,
0100
0000
0010
0000
1000
0000
0010
0100
,
0001
0000
0010
0000
1000
0000
0100
0001
,
0100
0010
0110
0110
,
1000
0000
0001
0010
,
0001
0000
0100
0010
,
0100
0000
1000
0100
,
0001
0000
0010
0100
,
1001
0010
0100
0010
,
0101
0010
0100
0010
,
1010
0100
0010
0001
,
1000
0010
0100
0101
,
0101
1010
1010
0101
,
0101
1010
1010
1000
,
1000
0001
0001
1000
,
1000
0001
0001
0110
,
0110
1010
1010
0101
,
0101
0110
0110
1000
,
1000
0001
0001
0010
,
0010
0100
0100
0001
,
2000
0000
3000
0010
,
0200
0000
0300
1000
,
0002
0000
0003
0010
,
0200
0000
0300
0000
;

//--------------- dance-single - B. M'Rey ----------------
#NOTEDATA:;
#STEPSTYPE:dance-single;
#DESCRIPTION:B. M'Rey;
#CREDIT:B. M'Rey;
#DIFFICULTY:Hard;
#METER:9;
#RADARVALUES:0.414,0.502,0.243,0.158,0.172;
#NOTES:
0000
0000
0000
0000
,
0000
0000
0000
0000
,
0000
0000
0000
0000
,
0000
0000
1001
1001
,
0001
0010
0001
0010
1000
0000
0100
0000
,
1000
0100
1000
0100
0001
0000
0010
0000
,
0010
1000
0010
1000
0100
0000
0001
0000
,
0100
0001
0100
0001
1001
0000
1001
0000
,
0001
0010
0001
0010
1000
0000
0100
0000
,
1000
0100
1000
0100
0001
0000
0010
0000
,
0010
1000
0010
1000
0100
0000
0001
0000
,
0100
0001
0100
0001
0010
0000
1000
0000
,
0001
0000
0000
0100
0000
0000
0010
0000
1000
0000
0100
0010
0100
0000
0010
0100
,
0010
0000
0000
0001
0000
0000
1000
0000
0100
0000
0010
0001
0000
0100
0000
0000
,
1000
0000
0000
0001
0000
0000
0100
0000
0010
0000
1000
0000
0001
0000
0010
0100
,
0010
0000
0001
1000
0000
0000
0100
0000
0010
0000
0001
0000
2000
0000
0000
0000
,
3000
0000
0000
0001
0000
0000
0100
0000
0010
0000
0000
0000
1000
0100
0000
0000
,
0001
0000
0000
1000
0000
0000
0010
0000
0100
0000
0001
0010
0000
1000
0000
0000
,
0100
0000
0000
0001
0000
0000
1000
0000
0010
0000
0100
0000
0001
0010
0000
1000
,
0100
0000
0000
0001
0000
0000
0010
0000
0100
0000
0001
0000
1000
0000
0010
0000
,
0100
0000
0000
1000
0000
0000
0001
0000
0010
0000
1000
0001
1000
0000
0001
1000
,
0001
0000
0000
0100
0000
0000
0010
0000
1000
0000
0001
0100
0000
1000
0000
0000
,
0010
0000
0000
0100
0000
0000
1000
0000
0001
0000
0010
0000
0100
0000
0001
1000
,
0001
0000
0100
0010
0000
0000
1000
0000
0001
0000
0100
0000
0020
0000
0000
0000
,
0030
0000
0000
0100
0000
0000
1000
0000
0001
0000
0000
0000
0010
1000
0000
0000
,
0100
0000
0000
0010
0000
0000
0001
0000
1000
0000
0100
0001
0000
0010
0000
0000
,
1000
0000
0000
0100
0000
0000
0010
0000
0001
0000
1000
0000
0100
0001
0000
0010
,
1000
0000
0000
0100
0000
0000
0001
0000
1000
0000
0100
0000
0010
0000
0001
0000
,
1000
0000
0200
0000
0000
0302
0000
0000
,
0013
0000
0000
1000
0000
0000
0100
0000
0010
0000
1000
0000
0001
0000
0100
0000
,
0020
0000
0000
0000
0000
0000
0000
0000
0031
0000
0000
1000
0000
0000
0100
0000
,
0000
0000
0001
1000
0100
0010
0001
2000
,
0000
0000
3200
0000
0000
0301
0000
0000
,
0000
0000
0000
0001
1000
0010
0100
0020
,
0000
0000
0000
0000
0000
0000
0000
0030
,
0000
0000
0001
0000
1000
0000
0010
0000
0100
0000
0000
0100
0000
0000
0100
0000
,
0001
0010
0001
0010
1000
0000
0100
0000
,
1000
0100
1000
0100
0001
0000
0010
0000
,
0010
1000
0010
1000
0100
0000
0001
0000
,
0100
0001
0100
0001
1001
0000
1001
0000
,
0001
0010
0001
0010
1000
0000
0100
0000
,
1000
0100
1000
0100
0001
0000
0010
0000
,
0010
1000
0010
1000
0100
0000
0001
0000
,
0100
0001
0100
0001
0010
0100
0000
0020
,
0000
0000
0000
1030
0100
1000
0100
0010
,
0001
0000
0010
0000
0001
1000
0000
0200
,
0000
0000
0000
0301
0010
1000
0100
0001
,
0000
0010
0100
0001
1000
0100
0001
0010
,
0100
0000
1000
0000
0001
0000
0100
0010
,
0100
0000
0001
0000
1000
0000
0100
0010
,
0100
0000
0000
0000
1000
0000
0000
0000
0001
0000
0000
0100
0000
0000
0010
0000
,
0000
0001
1000
0100
1000
0000
0011
0000
,
1100
0101
1010
0110
,
1001
1010
0101
0011
,
0001
0010
0001
0000
1100
0000
0000
0000
0100
1000
0100
0000
0110
0000
0000
0000
,
0100
0010
0100
0000
1001
0000
0000
0000
0001
1000
0001
0000
0011
0000
0000
0000
,
1100
0101
1010
0110
,
1001
1010
0101
0011
,
0001
0010
0001
0000
1100
0000
0000
0000
0100
1000
0100
0000
0110
0000
0000
0000
,
0100
0010
0100
0000
1001
0000
0000
0000
0001
1000
0001
0000
0020
0000
0000
0000
,
0130
0002
1003
0020
,
0031
0200
1300
0022
,
0000
0033
2200
0000
0000
3300
0220
0000
,
0000
0330
2002
0000
0000
0000
3003
0000
;

//--------------- dance-single - B. M'Rey ----------------
#NOTEDATA:;
#STEPSTYPE:dance-single;
#DESCRIPTION:B. M'Rey;
#CREDIT:B. M'Rey;
#DIFFICULTY:Challenge;
#METER:13;
#RADARVALUES:0,0,0,0,0;
#NOTES:
0000
0000
0000
0000
,
0000
0000
0000
0000
,
0000
0000
0000
0000
,
0000
0000
0000
0000
0000
0000
0000
0000
1001
0000
0000
0000
0110
0000
0001
0010
,
0001
1000
0001
0000
0001
0000
0010
1000
0010
0000
0001
0010
0000
1000
0100
1000
,
0001
0000
0100
0000
0010
0000
0001
0010
0001
0000
0001
0010
0100
0000
0100
1000
,
0001
0010
0001
0000
0100
0000
0001
0000
1000
0000
0001
0100
0000
0100
0010
1000
,
0100
0000
0010
0000
0001
0000
0100
1000
0010
0000
0010
0000
0001
0000
0001
0010
,
0001
1000
0100
0000
0010
0000
0001
0000
1000
0000
0010
0100
0000
0100
0010
1000
,
0100
1000
0010
0000
0100
0000
0010
0000
0001
0000
0001
1000
0000
0100
0001
0100
,
0001
0010
0001
0000
0010
0000
0001
0000
1000
0000
0001
0100
0000
1000
0001
1000
,
0001
0100
0001
0000
0100
0000
0010
0000
1001
0000
0000
0000
1001
0000
0000
0000
,
0100
0000
0100
1000
0000
0100
0001
0000
0100
0000
0001
0100
0001
0000
0001
0010
,
0100
0000
0010
1000
0000
0100
0001
0000
0001
0000
1000
0010
0000
0001
0000
0000
,
0100
0000
0001
0010
0000
0010
0100
0000
0001
0000
1000
0000
0100
0000
0100
1000
,
0010
0000
0001
0010
0100
0000
0001
0100
0001
0000
1000
0000
0100
0000
0001
0000
,
0010
0000
0100
1000
0000
1000
0001
0000
1000
0000
0100
0000
0001
0000
0100
0000
,
0001
0000
0010
0100
0000
0100
0001
0000
0100
0000
1000
0010
0100
0000
0001
0100
,
0010
0000
1000
0010
0000
0010
0001
0000
1000
0000
0100
0010
0100
0000
0100
1000
,
0010
0000
0100
0000
0010
0000
0001
0000
0010
1000
0100
0000
0001
0010
0001
0010
,
0001
0000
0010
0100
0000
0100
0001
0000
0010
0000
0010
0100
0001
0000
0010
1000
,
0001
0000
0001
0010
0000
1000
0010
0000
0100
0000
0010
1000
0000
0100
0001
0000
,
0001
1000
0100
0000
0010
0000
0100
0000
0010
0000
0001
0000
1000
0000
0100
0010
,
0100
0000
0001
0100
0010
0000
0010
1000
0001
0000
1000
0000
0010
0000
0100
0000
,
0001
0000
0010
1000
0000
1000
0001
0000
0100
0000
0001
0100
0001
0000
0001
1000
,
0010
0000
0001
0010
0000
1000
0010
0000
0100
0000
0010
1000
0001
0000
0100
0010
,
0100
0000
0010
0100
0000
1000
0010
0000
0001
0000
0010
0100
0001
0000
0010
0100
,
0010
0000
0001
0000
0100
0000
0010
1000
0010
0000
0010
0100
0001
0000
0010
1000
,
0001
1000
0001
0100
0010
1000
0001
1000
,
0010
0100
0001
1000
0001
0010
0001
0010
,
0100
0000
0010
0000
0001
0000
1000
0000
0010
0000
0100
0001
0000
0001
0100
0000
,
0010
0100
0001
1000
0010
1000
0100
1000
,
0010
0100
0010
0100
,
0001
0100
0001
1000
,
1001
0000
0000
0000
,
0000
0000
0001
0000
1000
0000
0010
0000
0110
0000
0000
0000
0101
0000
0001
0100
,
0001
1000
0001
0000
0010
0000
0100
0000
0010
0000
0010
0100
0010
0000
0100
1000
,
0010
1000
0001
0000
0100
0000
0001
0000
0001
0000
0100
1000
0000
0100
0001
0010
,
0001
0010
0100
0000
0010
0000
0100
0010
0001
0000
0001
0010
0001
0000
0010
1000
,
0010
0100
0010
0000
0001
0000
0010
0000
1100
0000
0000
0000
0110
0000
0010
0001
,
0100
1000
0100
0000
0001
0000
0100
0000
0001
0000
0010
1000
0000
0100
0010
1000
,
0001
1000
0001
0000
0010
0000
0001
0000
0010
0000
0001
1000
0100
0000
0100
1000
,
0100
0010
0001
0000
0100
0000
0001
0000
0100
0000
0001
0010
0000
0010
0100
0010
,
0001
0100
0010
0000
0100
0000
0010
0000
1001
0000
0000
0000
1100
0000
0000
0000
,
0010
0100
0001
0000
0100
0000
0010
1000
0010
1000
0010
0000
0100
0000
0001
1000
,
0100
1000
0001
1000
0001
0000
0100
0000
0010
0100
0001
0100
0001
0000
0100
0000
,
0100
1000
0001
0010
0100
0000
0010
0000
0001
1000
0100
1000
0010
0000
0100
0000
,
0010
0100
0001
1000
0010
0000
0010
0100
0010
0000
0001
0100
0010
0000
0001
1000
,
0010
0000
0001
1000
0100
0010
0001
0000
0100
0000
0001
0010
0000
1000
0010
1000
,
0100
0000
0010
0100
0010
0000
0001
0000
0010
0000
0100
1000
0100
0000
0010
0100
,
0010
0000
0010
1000
0001
0000
0100
0000
0010
0000
0001
0100
0001
0000
0001
1000
,
0100
0000
0100
1000
0001
0000
0010
0000
1010
0000
0001
0000
0110
0000
0000
0000
,
0001
0000
0001
0100
0000
0010
0100
0000
0100
0010
0000
0010
0001
0010
0001
1000
,
0001
0000
0100
1000
0000
0010
0100
0000
0001
0010
0000
1000
0010
1000
0001
0100
,
0001
0000
0001
1000
0100
1000
0100
1000
0001
0000
0100
0010
0100
0010
0001
1000
,
0010
0000
0001
1000
0100
0010
0100
0000
0110
0000
0000
0000
1001
0000
0000
0000
,
0010
0000
0010
1000
0000
1000
0001
0000
0100
0010
0000
0010
0100
1000
0001
0010
,
0001
0000
0001
1000
0000
0010
0100
0000
0100
1000
0000
1000
0010
1000
0001
0100
,
0001
0000
0001
0010
0100
0010
0100
0010
0001
0000
0001
1000
0001
0100
0010
0100
,
0010
0000
0001
1000
0100
0010
0100
0010
0100
0000
0000
0000
0011
0000
0000
0000
,
1100
0002
0203
0311
,
0101
0020
2030
3110
,
0101
0020
2030
3101
,
0110
0002
2000
0000
,
3003
0000
0000
0000
;
