#TITLE:9 PM (Till i Come);
#ARTIST:ATB;
#GENRE:Progressive Trance;
#CREDIT:B. M'Rey;
#MUSIC:9PM (TILL I COME).ogg;
#BANNER:9PM (TILL I COME)-bn.png;
#BACKGROUND:9PM (TILL I COME)-bg.png;
#CDTITLE:./CDTITLES/100% Clubland Trance.PNG;
#SAMPLESTART:67.349;
#SAMPLELENGTH:12;
#OFFSET:-0.400;
#BPMS:0=129.95;
#BGCHANGES:16.000=In The Groove 3/281_JumpBack_NTSC_DV.avi=1.000=0=0=1,
32.000=In The Groove 3/281_JumpBack_NTSC_DV.avi=1.000=0=0=1=Checkerboard2File2x2=9 pm (till i come)-bg.png===,
36.000=9 pm (till i come)-bg.png=1.000=1=0=1=Checkerboard2File2x2=In The Groove 3/281_JumpBack_NTSC_DV.avi=CrossFade==,
40.000=In The Groove 3/281_JumpBack_NTSC_DV.avi=1.000=1=0=1=Kaleidoscope2x2==CrossFade==,
44.000=9 pm (till i come)-bg.png=1.000=0=0=1====1^0^1^1=,
45.000=9 pm (till i come)-bg.png=1.000=0=0=1====0^1^1^1=,
46.000=9 pm (till i come)-bg.png=1.000=0=0=1====1^1^0^1=,
47.000=9 pm (till i come)-bg.png=1.000=0=0=1====0^0^1^1=,
48.000=In The Groove 3/270_JumpBack_NTSC_DV.avi=1.000=0=0=1,
65.000=In The Groove 3/013_JumpBack_NTSC_DV.avi=1.000=1=0=1===CrossFade==,
80.000=In The Groove 3/241_JumpBack_NTSC_DV.avi=1.000=0=0=1=SongBgWithMovieViz====,
96.000=In The Groove 3/001_JumpBack_NTSC_DV.avi=1.000=0=0=1=SongBgWithMovieViz====,
112.000=In The Groove 3/236_JumpBack_NTSC_DV.avi=1.000=0=0=1=Kaleidoscope2x2====,
128.000=In The Groove 3/017_JumpBack_NTSC_DV.avi=1.000=0=0=1=Kaleidoscope2x2====,
140.000=9 pm (till i come)-bg.png=1.000=0=0=1,
144.000=In The Groove 3/315_JumpBack_NTSC_DV.avi=1.000=0=0=1,
160.000=In The Groove 3/351_JumpBack.avi=1.000=0=0=1,
176.000=In The Groove 3/001_JumpBack_NTSC_DV.avi=1.000=0=0=1=SongBgWithMovieViz====,
192.000=In The Groove 3/256_JumpBack_NTSC_DV.avi=1.000=0=0=1=SongBgWithMovieViz====,
204.000=9 pm (till i come)-bg.png=1.000=0=0=1===FadeDown==,
208.000=In The Groove 3/270_JumpBack_NTSC_DV.avi=1.000=0=0=1===FadeUp==,
224.000=In The Groove 3/236_JumpBack_NTSC_DV.avi=1.000=0=0=1,
240.000=In The Groove 3/017_JumpBack_NTSC_DV.avi=1.000=0=0=1,
256.000=In The Groove 3/013_JumpBack_NTSC_DV.avi=1.000=1=0=1===CrossFade==,
272.000=9 pm (till i come)-bg.png=1.000=0=0=1,
99999.000=-nosongbg-=1.000=0=0=0=StretchNoLoop====;
#BGCHANGES2:16.000=flash=1.000=0=0=1,
32.000=flash=1.000=0=0=1,
44.000=flash=1.000=0=0=1====1^0^1^1=,
45.000=flash=1.000=0=0=1====0^1^1^1=,
46.000=flash=1.000=0=0=1====1^1^0^1=,
47.000=flash=1.000=0=0=1====0^0^1^1=,
48.000=flash=1.000=0=0=1,
80.000=flash=1.000=0=0=1,
96.000=flash=1.000=0=0=1,
112.000=flash=1.000=0=0=1,
120.000=flash=1.000=0=0=1,
128.000=flash=1.000=0=0=1,
131.500=flash=2.000=0=0=1,
132.000=flash=1.000=0=0=1,
135.500=flash=2.000=0=0=1,
136.000=flash=1.000=0=0=1,
140.000=flash=1.000=0=0=1,
144.000=flash=1.000=0=0=1,
160.000=flash=1.000=0=0=1,
176.000=flash=1.000=0=0=1,
192.000=flash=1.000=0=0=1,
240.000=flash=1.000=0=0=1,
272.000=flash=1.000=0=0=1;

//--------------- dance-single - B. M'Rey ----------------
#NOTES:
     dance-single:
     B. M'Rey:
     Beginner:
     1:
     0.075439,0.107191,0.015763,0,0,67,65,2,0,0,0,0.075439,0.107191,0.015763,0,0,67,65,2,0,0,0:
0000
0000
0000
0000
,
0000
0000
0000
0000
,
0000
0000
0000
0000
,
0000
0000
0000
0000
,
1000
0000
0000
0000
,
0001
0000
0000
0000
,
0100
0000
0000
0000
,
0010
0000
0000
0000
,
1000
0000
0000
0000
,
0100
0000
0000
0000
,
1000
0000
0000
0000
,
0001
0000
0000
0000
,
0010
0000
0000
0000
,
0100
0000
0000
0000
,
0010
0000
0000
0000
,
0001
0000
0000
0000
,
0010
0000
0000
0000
,
0001
0000
0000
0000
,
0100
0000
0000
0000
,
1000
0000
0000
0000
,
0100
0000
0000
0000
,
1000
0000
0000
0000
,
0010
0000
0000
0000
,
0001
0000
0000
0000
,
0010
0000
0000
0000
,
0001
0000
0000
0000
,
0100
0000
0000
0000
,
0010
0000
0000
0000
,
1000
0000
0000
0000
,
0100
0000
0000
0000
,
1000
0000
0000
0000
,
1000
0000
0000
0000
,
0001
0000
0000
0000
,
0010
0000
0000
0000
,
0100
0000
0000
0000
,
1001
0000
0000
0000
,
1000
0000
0000
0000
,
0100
0000
0000
0000
,
0001
0000
0000
0000
,
0010
0000
0000
0000
,
1000
0000
0000
0000
,
0100
0000
0000
0000
,
1000
0000
0000
0000
,
0010
0000
0000
0000
,
0001
0000
0000
0000
,
0100
0000
0000
0000
,
0010
0000
0000
0000
,
1000
0000
0000
0000
,
0100
0000
0000
0000
,
1000
0000
0000
0000
,
0001
0000
0000
0000
,
0010
0000
0000
0000
,
0001
0000
0000
0000
,
0100
0000
0000
0000
,
0010
0000
0000
0000
,
1000
0000
0000
0000
,
0100
0000
0000
0000
,
1000
0000
0000
0000
,
0001
0000
0000
0000
,
0010
0000
0000
0000
,
0001
0000
0000
0000
,
0100
0000
0000
0000
,
0010
0000
0000
0000
,
1000
0000
0000
0000
,
0100
0000
0000
0000
,
1000
0000
0000
0000
,
0001
0000
0000
0000
,
0010
0000
0000
0000
,
1001
0000
0000
0000
;

//--------------- dance-single - B. M'Rey ----------------
#NOTES:
     dance-single:
     B. M'Rey:
     Easy:
     2:
     0.141871,0.214383,0.039409,0,0,126,121,5,0,0,0,0.141871,0.214383,0.039409,0,0,126,121,5,0,0,0:
0000
0000
0000
0000
,
0000
0000
0000
0000
,
0000
0000
0000
0000
,
0000
0000
0000
0000
,
1000
0000
0100
0000
,
0001
0000
0010
0000
,
0100
0000
1000
0000
,
0010
0000
0001
0000
,
1000
0000
0010
0000
,
0100
0000
0001
0000
,
1000
0000
0100
0000
,
0110
0000
0110
0000
,
0110
0000
0000
0000
,
0100
0000
0000
0000
,
0010
0000
0000
0000
,
0001
0000
0000
0000
,
0010
0000
0000
0000
,
0001
0000
0000
0000
,
0100
0000
0000
0000
,
1000
0000
0000
0000
,
0100
0000
0001
0000
,
1000
0000
0100
0000
,
0010
0000
1000
0000
,
0001
0000
0100
0000
,
0010
0000
1000
0000
,
0001
0000
0010
0000
,
0100
0000
0001
0000
,
0010
0000
1000
0000
,
1000
0000
0010
0000
,
0100
0000
0001
0000
,
1000
0000
0010
0000
,
1000
0000
0100
0000
,
0001
0000
1000
0000
,
0010
0000
0001
0000
,
0100
0000
0010
0000
,
1001
0000
0010
0000
,
1000
0000
0001
0000
,
0100
0000
1000
0000
,
0001
0000
0100
0000
,
0010
0000
0001
0000
,
1000
0000
0010
0000
,
0100
0000
0010
0000
,
1000
0000
0001
0000
,
0010
0000
1000
0000
,
0001
0000
0010
0000
,
0100
0000
1000
0000
,
0010
0000
0001
0000
,
1000
0000
0010
0000
,
0100
0000
0001
0000
,
1000
0000
0010
0000
,
0001
0000
0100
0000
,
0010
0000
1000
0000
,
0001
0000
0010
0000
,
0100
0000
1000
0000
,
0010
0000
0001
0000
,
1000
0000
0010
0000
,
0100
0000
0001
0000
,
1000
0000
0010
0000
,
0001
0000
0100
0000
,
0010
0000
1000
0000
,
0001
0000
0010
0000
,
0100
0000
1000
0000
,
0010
0000
0001
0000
,
1000
0000
0010
0000
,
0100
0000
0001
0000
,
1000
0000
0100
0000
,
0001
0000
0100
0000
,
0010
0000
1000
0000
,
1001
0000
0000
0000
;

//--------------- dance-single - B. M'Rey ----------------
#NOTES:
     dance-single:
     B. M'Rey:
     Medium:
     4:
     0.245459,0.321574,0.070935,0,0,218,209,9,0,0,0,0.245459,0.321574,0.070935,0,0,218,209,9,0,0,0:
0000
0000
0000
0000
,
0000
0000
0000
0000
,
0000
0000
0000
0000
,
0000
0000
0000
0000
,
0100
0100
0001
1000
,
0001
0100
0100
1000
,
0001
0100
0100
1000
,
1000
1000
1000
0100
,
0100
0100
0001
1000
,
0001
0100
0100
1000
,
0001
0100
0100
1000
,
1000
1000
1000
0100
,
1000
0100
0001
1000
,
0000
1000
0000
0010
,
0000
0001
0100
0000
,
0001
1000
0000
1000
,
0000
0100
0100
0010
,
0000
1000
0000
0100
,
0000
0010
0010
1000
,
0000
0001
0000
0010
,
1000
0000
1000
0000
1000
0000
0000
0010
,
0000
0100
0000
0000
0010
0000
0004
0000
,
0000
0000
0103
0000
1000
0000
0000
0010
,
0000
1000
0000
0000
0001
0000
0001
0000
,
1001
0000
0010
0000
0010
0000
0000
0100
,
0000
0010
0000
0000
0001
0000
4000
0000
,
0000
0000
3001
0000
0010
0000
0000
0100
,
0000
0001
0000
0000
1000
0000
0001
0000
,
0100
0001
1000
0001
,
0100
1000
1000
0010
,
0110
0100
0001
0010
,
0001
0001
0100
0100
,
1001
0010
0001
1000
,
1001
0010
0001
0100
,
1001
1000
0010
0100
,
1001
0000
0000
0000
,
1000
0000
1000
0000
1000
0000
0000
0010
,
0000
0100
0000
0000
0010
0000
0004
0000
,
0000
0000
0103
0000
1000
0000
0000
0010
,
0000
1000
0000
0000
0001
0000
0001
0000
,
1001
0000
0010
0000
0010
0000
0000
0100
,
0000
0010
0000
0000
0001
0000
4000
0000
,
0000
0000
3001
0000
0010
0000
0000
0100
,
0000
0001
0000
0000
1000
0000
0001
0000
,
1000
0000
1000
0000
1000
0000
0000
0010
,
0000
0100
0000
0000
0010
0000
0004
0000
,
0000
0000
0103
0000
1000
0000
0000
0010
,
0000
1000
0000
0000
0001
0000
0001
0000
,
1001
0000
0010
0000
0010
0000
0000
0100
,
0000
0010
0000
0000
0001
0000
4000
0000
,
0000
0000
3001
0000
0010
0000
0000
0100
,
0000
0001
0000
0000
1000
0000
0001
0000
,
0100
0001
1000
0001
,
0100
1000
1000
0010
,
0100
0100
0001
0010
,
0001
0001
0100
0100
,
0001
0010
0001
1000
,
0010
0010
0001
0100
,
1000
1000
0010
0100
,
1000
0100
1000
1000
,
0100
0000
0100
0000
,
0001
0000
0100
0000
,
0001
0000
0010
0000
,
0010
0000
0001
0000
,
0010
0000
0010
0000
,
1000
0000
0010
0000
,
0100
0000
1000
0000
,
0100
0000
0100
0000
,
0110
0000
0000
0000
;

//--------------- dance-single - B. M'Rey ----------------
#NOTES:
     dance-single:
     B. M'Rey:
     Hard:
     8:
     0.448132,0.589552,0.110344,0.220688,0.031527,398,384,14,28,0,0,0.448132,0.589552,0.110344,0.220688,0.031527,398,384,14,28,0,0:
0000
0000
0000
0000
,
0000
0000
0000
0000
,
0000
0000
0000
0000
,
0000
0000
0000
0000
,
0100
0000
0001
0000
0100
0000
1000
0000
0001
0000
0010
0100
1000
0000
0010
0000
,
0001
0000
1000
0000
0100
0000
0001
0000
0100
0000
0010
0001
1000
0000
0010
0000
,
0001
0000
1000
0000
0100
0000
0001
0000
0100
0000
0001
0010
1000
0000
0010
0000
,
1000
0000
0001
0000
1000
0000
0001
0000
1000
0000
0010
0001
0100
0000
0001
0000
,
0100
0000
0001
0000
0100
0000
1000
0000
0001
0000
0010
0100
1000
0000
0010
0000
,
0001
0000
1000
0000
0100
0000
0001
0000
0100
0000
0010
0001
1000
0000
0010
0000
,
0001
0000
1000
0000
0100
0000
0001
0000
0100
0000
0001
0010
1000
0000
0010
0000
,
1000
0000
0001
0000
1000
0000
0001
0000
1000
0000
0010
0001
0100
0000
0001
0000
,
1000
0000
0100
1000
0001
0000
1000
0200
,
0000
1000
0000
1000
,
0000
0000
0301
1000
0100
0001
0000
0010
,
0000
0002
1000
0000
0000
0000
1000
0000
,
0000
0000
0103
0001
0100
0010
0000
0002
,
0000
1000
0000
0100
,
0000
0000
0013
1000
0010
0001
0000
1000
,
0000
0200
0001
0000
0000
0000
0010
0000
,
1300
0000
1000
0010
1000
0010
0000
0100
,
0000
1000
0000
0001
0010
1000
0004
0000
,
0000
0000
0103
0001
1000
0010
0000
1000
,
0000
0001
0000
0100
0001
0100
0001
0000
,
1001
0000
0010
1000
0010
0001
0000
1000
,
0000
0100
0000
1000
0001
0010
4000
0000
,
0000
0000
3001
0100
0010
1000
0000
0001
,
0000
0100
0000
0010
1000
0010
0001
0000
,
0100
1000
0001
0010
1000
0010
0001
1000
,
0100
0001
1000
0001
1000
0001
0010
1000
,
0110
0001
0100
1000
0001
1000
0010
1000
,
0001
1000
0001
1000
0100
0001
0100
1001
,
1001
1000
0010
1000
0001
0100
1000
1001
,
1001
1000
0010
1000
0001
1000
0100
1001
,
1001
0010
1000
0001
0010
1000
0100
0001
,
1001
0000
0000
0000
,
1001
0000
1000
0010
1000
0020
0000
0230
,
0000
2300
0000
3001
0010
1000
0004
0000
,
0000
0000
0103
0001
1000
0020
0000
2030
,
0000
3002
0000
0103
0001
0100
0001
0000
,
1001
0000
0010
1000
0010
0002
0000
2003
,
0000
3200
0000
1300
0001
0010
4000
0000
,
0000
0000
3001
0100
0010
2000
0000
3002
,
0000
0203
0000
0310
1000
0010
1000
0100
,
1001
0000
1000
0010
1000
0020
0000
0230
,
0000
2300
0000
3001
0010
1000
0004
0000
,
0000
0000
0103
0001
1000
0020
0000
2030
,
0000
3002
0000
0103
0001
0100
0001
0000
,
1001
0000
0010
1000
0010
0002
0000
2003
,
0000
3200
0000
1300
0001
0010
4000
0000
,
0000
0000
3001
0100
0010
2000
0000
3002
,
0000
0203
0000
0310
1000
0010
1000
0000
,
0100
1000
0001
0010
1000
0010
0001
1000
,
0100
0001
1000
0001
1000
0001
0010
1000
,
0100
0001
0100
1000
0001
1000
0010
1000
,
0001
1000
0001
1000
0100
0001
0100
1000
,
0001
1000
0010
1000
0001
0100
1000
0001
,
0010
1000
0010
1000
0001
1000
0100
0001
,
1000
0010
1000
0001
0010
1000
0100
0001
,
1000
1000
0100
0001
1000
0010
1000
0001
,
0100
0001
1000
0001
,
0100
1000
1000
0010
,
0100
0100
0001
0010
,
0001
0001
0100
0100
,
0001
0010
0001
1000
,
0010
0010
0001
0100
,
1000
1000
0010
0100
,
1000
0010
1000
0100
,
0110
0000
0000
0000
;

//--------------- dance-single - B. M'Rey ----------------
#NOTES:
     dance-single:
     B. M'Rey:
     Challenge:
     10:
     0.644048,0.884328,0.118226,0.126107,0.630537,572,557,15,16,140,0,0.644048,0.884328,0.118226,0.126107,0.630537,572,557,15,16,140,0:
0000
0000
0000
0000
,
0000
0000
0000
0000
,
0000
0000
0000
0000
,
0000
0000
0000
0000
,
1001
0000
0100
0000
0010
0000
1000
0000
0100
0000
0001
0100
0010
0000
0001
0000
,
1000
0000
0100
0000
1000
0000
0010
0000
0100
0000
0001
0100
0010
0000
0001
0000
,
1000
0000
0010
0000
0100
0000
1000
0000
0001
0000
0100
0001
0010
0000
0100
0000
,
1000
0000
0010
0000
0100
0000
0001
0000
1000
0000
0001
0100
0010
0000
0001
0000
,
1000
0100
1000
0100
1000
0100
1000
0100
1000
0100
1000
0100
1000
0100
1000
0100
,
0010
0100
0010
0100
0010
0100
0010
0100
0010
0100
0010
0100
0010
0100
0010
0100
,
0010
0001
0010
0001
0010
0001
0010
0001
0010
0001
0010
0001
0010
0001
0010
0001
,
1000
0001
1000
0001
1000
0001
1000
0001
1000
0001
1000
0001
1000
0001
1000
0001
,
1000
0M00
0001
0010
0004
M000
0000
0M23
,
0000
000M
1000
000M
0000
000M
1030
0M00
,
0000
00M0
0100
100M
04M0
000M
M000
0301
,
0M00
M020
010M
M000
0M00
M000
013M
00M0
,
0M00
00M0
0001
0010
0004
M000
0M00
0023
,
0M00
000M
1000
0M00
0000
000M
1030
0M00
,
00M0
000M
0100
1000
0400
00M0
0000
0301
,
0M00
0020
1000
000M
0000
M000
0130
00M0
,
1001
0000
0M00
0000
0001
0000
0010
0000
0004
0000
M000
0000
0000
0003
00M2
0000
,
0000
02M3
0000
230M
3040
000M
0130
M000
,
0M00
0000
00M0
0000
0001
0000
0010
0000
0004
0000
M000
0000
00M0
0003
0002
0000
,
0000
2M03
0000
3020
0430
000M
1300
00M0
,
1001
0000
0M00
0000
0001
0000
M010
0000
0004
0000
00M0
0000
0000
0003
0M02
0000
,
0000
02M3
0000
230M
3040
M000
0130
000M
,
0000
0000
0M00
0000
0001
0000
M010
0000
0004
0000
00M0
0000
0000
0003
0M02
0000
,
0000
20M3
0000
302M
0430
000M
1300
00M0
,
1001
0000
MMMM
0000
0001
1000
0001
1000
0001
0100
0001
0100
0001
0010
0001
0010
,
0001
0100
0001
0100
0001
1000
0001
1000
0001
0100
0001
0100
0001
0010
0001
0000
,
1001
0000
MMMM
0000
1000
0100
1000
0100
1000
0010
1000
0010
1000
0001
1000
0001
,
1000
0010
1000
0010
1000
0100
1000
0100
1000
0010
1000
0010
1000
0000
1001
0000
,
001M
0100
M010
0100
001M
0100
M010
0100
001M
0100
M010
0100
001M
0000
10M1
0000
,
0M01
1000
00M1
1000
0M01
1000
00M1
1000
0M01
1000
00M1
1000
0M01
0000
10M1
0000
,
1MM1
M1M1
1M1M
M11M
,
1MM1
0M00
0000
00M0
000M
0000
0M00
0000
,
0001
1000
0001
1000
0001
0000
0100
0000
0010
0001
0010
0001
0010
0000
1000
0000
,
0100
1000
0100
1000
0100
0000
0001
0000
0100
0001
0100
0001
0100
0000
1000
0000
,
0010
1000
0010
1000
0010
0000
0001
0000
0100
0010
0100
0010
0100
0000
0001
0000
,
0001
1000
0001
1000
0001
0000
0010
0000
0010
1000
0010
1000
0010
0000
0100
0000
,
0001
0100
0001
0100
0001
0000
0010
0000
0010
0100
0010
0100
0010
0000
1000
0000
,
0001
1000
0001
1000
0001
0000
0100
0000
0010
0100
0010
0100
0010
0000
0001
0000
,
0001
0100
0001
0100
0001
0000
0010
0000
0001
0010
0001
0010
0001
0000
0100
0000
,
0100
1000
0100
1000
0100
0000
0010
0000
0001
1000
0001
1000
0001
0000
0100
0000
,
0010
0001
0010
0001
0010
0000
1000
0000
0100
1000
0100
1000
0100
0000
0001
0000
,
0100
0001
0100
0001
0100
0000
1000
0000
0010
1000
0010
1000
0010
0000
0001
0000
,
0100
0010
0100
0010
0100
0000
0001
0000
0001
1000
0001
1000
0001
0000
0010
0000
,
0010
1000
0010
1000
0010
0000
0100
0000
0001
0100
0001
0100
0001
0000
0010
0000
,
0010
0100
0010
0100
0010
0000
1000
0000
0001
1000
0001
1000
0001
0000
0100
0000
,
0010
0100
0010
0100
0010
0000
0001
0000
0001
0100
0001
0100
0001
0000
0010
0000
,
0001
0010
0001
0010
0001
0000
0100
0000
0100
1000
0100
1000
0100
0000
0010
0000
,
0001
0000
0M00
0000
00M0
M000
0M00
0000
,
0001
0010
0001
0000
1000
0000
0010
0000
0100
0000
0001
0000
1000
0000
0010
0000
,
0100
1000
0100
0000
0001
0000
0010
0000
0001
0000
0100
0000
0010
0000
1000
0000
,
0001
0100
0001
0000
0010
0000
1000
0000
0100
0000
0001
0000
0010
0000
1000
0000
,
0010
0100
0010
0000
0001
0000
1000
0000
0010
0000
0100
0000
0001
0000
1000
0000
,
0001
0010
0001
0000
0010
0100
0010
0000
1000
0100
1000
0000
0001
0000
0100
0000
,
0010
0001
0010
0000
0010
0100
0010
0000
1000
0100
1000
0000
0001
0000
1000
0000
,
0001
0010
0001
0000
0010
0100
0010
0000
1000
0100
1000
0000
0010
0000
0100
0000
,
0001
0010
0001
0000
0010
0100
0010
0000
0100
1000
0100
0000
0001
0000
0100
0000
,
1001
0M00
0010
M000
0100
00M0
0001
0M00
,
0001
1000
0M01
0000
0010
0000
000M
0000
0100
0000
00M0
0000
1000
0000
0M00
0000
,
0001
0010
M001
0000
0100
0000
000M
0000
1000
0000
0M00
0000
0001
0000
00M0
0000
,
0100
0010
M100
0000
0001
0000
00M0
0000
1000
0000
000M
0000
0100
0000
M000
0000
,
0001
0010
M001
0000
0100
0000
000M
0000
0010
0000
0M00
0000
1000
0000
00M0
0000
,
0001
0100
M001
0000
0010
0000
0M00
0000
0001
0000
M000
0000
0100
0000
000M
0000
,
0010
1000
001M
0000
0100
0000
00M0
0000
0001
0000
M000
0000
0010
0000
0M00
0000
,
0001
1000
0M01
0000
0010
0000
M000
0000
0100
0000
00M0
0000
0001
0000
00M0
0000
,
1001
0000
0000
0000
;
