#VERSION:0.83;
#TITLE:4ever Unreleased;
#ARTIST:TuinyX;
#GENRE:Hands Up;
#CREDIT:B. M'Rey;
#MUSIC:4ever Unreleased.ogg;
#BANNER:4ever Unreleased-BN.png;
#BACKGROUND:4ever Unreleased-BG.png;
#CDTITLE:./CDTITLES/BMR Superstars.PNG;
#SAMPLESTART:27.39;
#SAMPLELENGTH:15;
#OFFSET:0.040;
#BPMS:0=140.89;

//--------------- dance-single - B. M'Rey ----------------
#NOTEDATA:;
#STEPSTYPE:dance-single;
#DESCRIPTION:B. M'Rey;
#CREDIT:B. M'Rey;
#DIFFICULTY:Beginner;
#METER:4;
#RADARVALUES:0.132012,0.22923,0,0.078798,0,129,129,0,11,0,0,0.132012,0.22923,0,0.078798,0,129,129,0,11,0,0;
#NOTES:
0000
0000
0000
0000
,
0000
0000
0000
0000
,
0000
0000
0000
0000
,
0000
0000
0000
0000
,
0000
0000
0000
0000
,
0000
0000
0000
0000
,
0000
0000
0000
0000
,
0000
0000
0000
0000
,
1000
1000
1000
1000
,
1000
1000
1000
0000
,
0001
0001
0001
0001
,
0001
0001
0001
0000
,
0100
0100
0100
0100
,
0100
0100
0100
0000
,
0010
0010
0010
0010
,
0010
0000
0000
0000
,
1000
0000
0001
0000
,
0010
0000
0100
0100
,
0100
0000
0001
0000
,
0010
0000
0001
0000
,
1000
0000
0010
0000
,
0100
0000
0001
0000
,
0010
0000
0001
0000
,
0100
0000
0010
0000
,
1000
0001
0010
0000
,
1000
0001
0010
0000
,
1000
0001
0100
0000
,
1000
0001
0100
0000
,
1000
0000
0001
0000
,
0010
0000
0001
0000
,
0100
0000
0010
0000
,
1000
0000
0001
0000
,
0200
0000
0000
0000
,
0300
0000
0000
0000
,
0002
0000
0000
0000
,
0003
0000
0000
0000
,
2000
0000
0000
0000
,
3000
0000
0000
0000
,
0020
0000
0000
0000
,
0030
0000
0000
0000
,
0001
0000
0100
0000
,
0010
0000
1000
0000
,
0010
0000
0100
0000
,
0001
0000
0010
0000
,
0100
0000
0001
0000
,
1000
0000
0010
0000
,
0100
0000
0001
0000
,
1000
0000
0000
0000
,
1000
0000
0001
0000
,
0010
0000
0100
0100
,
0100
0000
0001
0000
,
0010
0000
0001
0000
,
1000
0000
0010
0000
,
0100
0000
0001
0000
,
0010
0000
0001
0000
,
0100
0000
0010
0000
,
1000
0001
0010
0000
,
1000
0001
0010
0000
,
1000
0001
0100
0000
,
1000
0001
0100
0000
,
1000
0000
0001
0000
,
0010
0000
0001
0000
,
0100
0000
0010
0000
,
1000
0000
0000
0000
,
0200
0000
0000
0000
,
0300
0000
0000
0000
,
0002
0000
0000
0000
,
0003
0000
0000
0000
,
2000
0000
0000
0000
,
3000
0000
0000
0000
,
0020
0000
0000
0000
,
0030
0000
0000
0000
,
0002
0000
0000
0000
,
0003
0000
0000
0000
,
0020
0000
0000
0000
,
0030
0000
0000
0000
,
0200
0000
0000
0000
,
0010
0000
0000
0000
,
0010
0000
0000
0000
,
0010
0000
0000
0000
,
0310
0000
0000
0000
;

//--------------- dance-single - B. M'Rey ----------------
#NOTEDATA:;
#STEPSTYPE:dance-single;
#DESCRIPTION:B. M'Rey;
#CREDIT:B. M'Rey;
#DIFFICULTY:Easy;
#METER:6;
#RADARVALUES:0.22616,0.343844,0.057307,0.186249,0,221,213,8,26,0,0,0.22616,0.343844,0.057307,0.186249,0,221,213,8,26,0,0;
#NOTES:
0000
0000
0000
0000
,
0000
0000
0000
0000
,
0000
0000
0000
0000
,
0000
0000
0000
0000
,
1000
0100
0010
0001
,
1000
0100
0010
0001
,
1000
0100
0010
0001
,
1000
0100
0010
0001
,
1000
0001
1000
0001
,
1000
0001
1000
0000
,
0010
0100
0010
0100
,
0010
0100
0010
0100
,
0010
0001
0010
0001
,
0010
1000
0010
1000
,
0010
0100
0010
0100
,
0010
0000
0000
0000
,
0001
1000
0010
0100
,
0001
1000
0200
0000
,
0301
1000
0010
0100
,
0001
1000
0001
1000
,
0001
1000
0010
0100
,
0001
1000
0020
0000
,
0130
0010
1000
0001
,
0010
0100
0001
1000
,
0010
0010
0010
0011
,
0001
0001
0001
0011
,
0010
0010
0010
0110
,
0100
0100
0100
1100
,
1000
1000
1000
1010
,
0010
0010
0010
0011
,
1001
0000
1001
0000
,
0001
1000
0001
1000
,
0002
0000
0000
0000
,
0003
0000
0000
0100
,
0200
0000
0000
0000
,
0310
0000
0000
0001
,
2000
0000
0000
0001
,
3001
0000
0000
0000
,
0100
0000
0000
0000
,
0100
0000
0010
0000
,
1000
0100
0010
0001
,
1000
0100
0010
0001
,
1000
0100
0010
0002
,
0000
0000
0103
0000
,
0001
0010
0100
1000
,
0001
0010
0100
1000
,
0001
0000
1000
0010
,
0100
0000
0000
0000
,
0001
1000
0010
0100
,
0001
1000
0200
0000
,
0301
1000
0010
0100
,
0001
1000
0001
1000
,
0001
1000
0010
0100
,
0001
1000
0020
0000
,
0130
0010
1000
0001
,
0010
0100
0001
1000
,
0001
1000
0010
0100
,
0001
1000
0200
0000
,
0301
1000
0010
0100
,
0001
1000
0001
1000
,
0001
1000
0010
0100
,
0001
1000
0020
0000
,
0130
0010
1000
0001
,
0010
0000
0000
0000
,
0200
0000
0300
0000
,
0002
0000
0003
0000
,
0020
0000
0030
0000
,
2000
0000
3000
0000
,
0200
0000
0300
0000
,
0002
0000
0003
0000
,
0020
0000
0030
0000
,
2000
0000
3000
0000
,
0200
0000
0300
0000
,
0002
0000
0003
0000
,
0020
0000
0030
0000
,
2000
0000
3000
0000
,
0002
0000
0000
0000
,
2003
0000
0000
0000
,
3200
0000
0000
0000
,
0320
0000
0000
0000
,
0030
0000
0000
0000
;

//--------------- dance-single - B. M'Rey ----------------
#NOTEDATA:;
#STEPSTYPE:dance-single;
#DESCRIPTION:B. M'Rey;
#CREDIT:B. M'Rey;
#DIFFICULTY:Medium;
#METER:10;
#RADARVALUES:0.319284,0.37599,0.114615,0.54442,0,312,296,16,76,0,0,0.319284,0.37599,0.114615,0.54442,0,312,296,16,76,0,0;
#NOTES:
0000
0000
0000
0000
,
0000
0000
0000
0000
,
0000
0000
0000
0000
,
0000
0000
0000
0000
,
2000
3002
0023
0230
,
2300
3002
0023
0230
,
2300
3002
0203
0320
,
2030
3002
0203
0320
,
0031
1000
0001
1000
,
0001
1000
0001
0000
,
0100
0001
0100
0001
,
0100
0001
0100
0001
,
0010
1000
0010
1000
,
0010
0000
0100
0000
0001
0000
1000
0010
,
0100
0001
1000
0010
,
0200
0000
0010
0310
,
0001
1000
0010
0100
,
0001
0000
1000
0000
0010
0100
0010
0000
,
0001
1000
0010
0100
,
0011
1100
0011
1100
,
0001
1000
0010
0100
,
0001
1000
0011
0011
,
1000
0001
0100
0010
,
1000
0001
0100
0010
,
0001
1000
0100
0000
0001
0100
0010
0000
,
0002
2003
3200
0320
,
0031
1000
0100
0000
0001
0100
0010
0000
,
2000
3200
0302
0023
,
1030
0000
0001
0000
0010
0100
0010
0000
,
1000
0000
0001
0000
0010
0100
0010
0000
,
0001
1000
0010
0100
,
1001
1001
1001
1001
,
0200
0000
0000
0000
,
0300
0000
0000
0001
,
2000
0000
0000
0000
,
3200
0000
0000
0000
0000
0000
0310
0001
,
0200
0000
0000
0301
,
0002
0000
0000
0000
,
1003
0000
0000
0000
,
0010
0000
0100
0000
,
0001
1000
0010
0000
0001
1000
0010
0000
,
0001
1000
0010
0000
0100
0000
0100
0000
,
1000
0001
0100
0000
1000
0001
0100
0000
,
1000
0001
0100
0000
0001
0000
0001
0000
,
0001
1000
0010
0000
0001
1000
0010
0000
,
0001
1000
0010
0000
1000
0000
1000
0000
,
0020
0000
0100
0100
,
0130
0000
0000
0000
0001
1000
0001
0000
,
0001
1000
0010
0100
,
0001
0000
1000
0000
0010
0100
0010
0000
,
0001
1000
0010
0100
,
0011
1100
0011
1100
,
0001
1000
0010
0100
,
0001
1000
0011
0011
,
1000
0001
0100
0010
,
1000
0001
0100
0010
,
0001
1000
0100
0000
0001
0100
0010
0000
,
0002
2003
3200
0320
,
0031
1000
0100
0000
0001
0100
0010
0000
,
2000
3200
0302
0023
,
1030
0000
0001
0000
0010
0100
0010
0000
,
1000
0000
0001
0000
0010
0100
0010
0000
,
0001
1000
0010
0100
,
0010
0010
0000
0010
0000
0001
1000
0010
,
0200
0301
0020
1030
,
0200
0301
0020
1030
,
0200
0301
0020
1030
,
0200
0301
0020
1030
,
0002
0103
2000
3010
,
0002
0103
2000
3010
,
0002
0103
2000
3010
,
0002
0103
2000
3010
,
0002
0203
0320
2030
,
3020
0230
0302
0023
,
0032
2003
3020
0230
,
0320
0032
2003
3020
,
0230
0000
0000
0000
,
0302
0000
0000
0000
,
2003
0000
0000
0000
,
3020
0000
0000
0000
,
0200
0000
0000
0330
;

//--------------- dance-single - B. M'Rey ----------------
#NOTEDATA:;
#STEPSTYPE:dance-single;
#DESCRIPTION:B. M'Rey;
#CREDIT:B. M'Rey;
#DIFFICULTY:Hard;
#METER:11;
#RADARVALUES:0.414455,0.49168,0.186249,0.401152,0.017909,405,379,26,56,0,0,0.414455,0.49168,0.186249,0.401152,0.017909,405,379,26,56,0,0;
#NOTES:
0000
0000
0000
0000
,
0000
0000
0000
0000
,
0000
0000
0000
0000
,
0000
0000
0000
0000
,
1000
0100
0010
0001
,
1000
0100
0010
0001
,
1000
0100
0010
0001
,
1000
0100
0010
0001
,
1000
0010
1000
0010
1000
0010
1000
0010
,
1000
0010
1000
0010
1000
0000
0100
0000
,
0010
0001
0010
0001
0010
0001
0010
0001
,
0010
0001
0010
0001
0010
0001
0010
0001
,
0010
0100
0001
1000
0010
0100
0001
1000
,
0010
0100
0001
1000
0010
0100
0001
1000
,
0010
1000
0010
1000
0010
1000
0010
1000
,
0020
0000
0100
0130
,
0001
0010
1000
0000
0100
0010
0001
0000
,
0001
0010
1000
0000
0110
0000
0110
0000
,
0001
1000
0100
0000
0010
0100
1000
0000
,
1001
0101
1001
1010
,
0010
0100
1000
0000
0001
0010
0100
0000
,
0010
0100
1000
0000
0011
0000
1100
0000
,
0100
0010
0001
0000
1000
0100
0010
0000
,
0100
0010
0001
0000
1000
0100
0010
0000
,
0001
1000
0001
1000
0001
1000
0001
0000
,
0010
0100
0010
0100
0010
0100
0010
0000
,
0001
0010
0001
0010
0001
0010
0001
0000
,
0100
1000
0100
1000
0100
1000
0100
0000
,
0001
0100
0010
0000
1000
0010
0100
0000
,
0001
0100
0010
0000
1000
0010
0100
0000
,
1001
0000
1001
0000
,
1001
1001
1001
1001
,
2000
0000
0000
0000
,
3200
0000
0000
0010
,
0320
0000
0000
0000
,
0032
0000
0000
0000
0000
0000
0103
0100
,
0200
0000
0000
1000
,
2300
0000
0000
0000
,
3200
0000
0000
0000
,
0300
0000
0000
0000
,
1000
0010
1000
0010
1000
0010
1000
0010
,
1000
0010
1000
0010
1000
0000
0100
0000
,
0010
0001
0010
0001
0010
0001
0010
0001
,
0010
0001
0010
0001
0010
0001
0010
0001
,
0010
0100
0001
1000
0010
0100
0001
1000
,
0010
0100
0001
1000
0010
0100
0001
1000
,
0010
1000
0010
1000
0010
1000
0010
1000
,
0000
0000
0000
0000
,
0001
0010
1000
0000
0100
0010
0001
0000
,
0001
0010
1000
0000
0100
0010
0100
0000
,
0001
1000
0100
0000
0010
0100
1000
0000
,
1001
0101
1001
1010
,
0010
0100
1000
0000
0001
0010
0100
0000
,
0010
0100
1000
0000
0011
0000
1100
0000
,
0100
0010
0001
0000
1000
0100
0010
0000
,
0100
0010
0001
0000
1010
0000
1010
0000
,
0001
1000
0001
1000
0001
1000
0001
0000
,
0010
0100
0010
0100
0010
0100
0010
0000
,
0001
0010
0001
0010
0001
0010
0001
0000
,
0100
1000
0100
1000
0100
1000
0100
0000
,
0001
0100
0010
0000
1000
0010
0100
0000
,
0001
0100
0010
0000
1000
0010
0100
0000
,
1001
0101
1001
1010
,
1000
0001
0000
1000
0000
0001
1000
0001
,
0200
0000
0000
0000
0302
0000
0000
1003
0200
0000
0000
0000
0302
0000
0000
0000
,
0023
0230
0302
2003
,
3020
0230
0302
2003
,
3020
0000
0000
0000
0230
0000
0000
0310
0002
0000
0000
0000
0003
0000
0000
0000
,
0200
0000
0000
0000
0302
0000
0000
1003
0200
0000
0000
0000
0302
0000
0000
0000
,
0023
0230
0302
2003
,
3020
0230
0302
2003
,
3020
0000
0000
0000
0230
0000
0000
0310
0002
0000
0000
0000
2003
0000
0000
3010
,
0002
0023
0230
2300
,
3020
0032
2003
3200
,
0320
2030
3200
0302
,
2003
3200
0302
2003
,
3004
0000
0000
0000
,
0403
0000
0000
0000
,
0340
0000
0000
0000
,
4030
0000
0000
0000
,
3200
0000
0000
0300
;

//--------------- dance-single - B. M'Rey ----------------
#NOTEDATA:;
#STEPSTYPE:dance-single;
#DESCRIPTION:B. M'Rey;
#CREDIT:B. M'Rey;
#DIFFICULTY:Challenge;
#METER:15;
#RADARVALUES:0.640615,0.954437,0.186249,0.530094,0.641127,626,599,26,74,82,6,0.640615,0.954437,0.186249,0.530094,0.641127,626,599,26,74,82,6;
#NOTES:
0000
0000
0000
0000
,
0000
0000
0000
0000
,
0000
0000
0000
0000
,
0000
0000
0000
0000
,
0001
1000
0001
1000
0001
1000
0001
1000
0001
1000
0001
1000
0001
1000
0001
1000
,
0001
0100
0001
0100
0001
0100
0001
0100
0001
0100
0001
0100
0001
0100
0001
0100
,
0001
0010
0001
0010
0001
0010
0001
0010
0001
0010
0001
0010
0001
0010
0001
0010
,
0001
1000
0001
1000
0001
1000
0001
1000
0001
1000
0001
1000
0001
1000
0001
1000
,
0001
0010
0100
1000
0001
0010
0100
1000
0001
0010
0100
1000
0001
0010
0100
1000
,
0001
0010
0100
1000
0001
0010
0100
1000
0002
0000
0000
0000
0000
0000
0000
0000
,
1003
0100
0010
0001
1000
0100
0010
0001
1000
0100
0010
0001
1000
0100
0010
0001
,
1000
0100
0010
0001
1000
0100
0010
0001
1000
0100
0010
0001
1000
0100
0010
0001
,
1000
0001
0100
0010
1000
0001
0100
0010
1000
0001
0100
0010
1000
0001
0100
0010
,
1000
0001
1000
0001
1000
0001
1000
0001
1000
0001
1000
0001
1000
0001
1000
0001
,
1000
0001
0100
0010
1000
0001
0100
0010
1000
0001
0100
0010
1000
0001
0100
0010
,
4000
0M00
0000
00M0
0001
0M00
3001
0000
,
1000
0010
0100
0001
0010
1000
0010
0100
,
0001
0010
1000
0100
0002
2003
3002
0003
,
0100
0010
1000
0001
0100
0010
1000
0001
,
0110
1100
0110
0011
,
0001
1000
0010
0100
0001
1000
0010
0100
,
0001
1000
0010
0100
0004
0000
2003
0000
,
3010
0100
0001
1000
0010
0100
0001
1000
,
0010
0100
0001
1000
0200
0000
0320
0000
,
0031
0000
1000
0100
1000
0000
0001
0010
0001
0000
0100
0010
0100
0000
1000
0100
,
1000
0000
0001
0010
0001
0000
0100
0010
0100
0000
0001
0010
0001
0100
1000
0100
,
1000
0000
0001
0010
0001
0000
0100
0010
0100
0000
1000
0100
1000
0000
0001
0010
,
0001
0000
0100
0010
0100
0000
1000
0100
1000
0000
0001
0100
0010
1000
0001
0010
,
0400
0010
0010
0310
,
0004
1000
1000
1000
,
0013
1100
0110
0101
,
1010
0110
0101
1010
,
200M
00M0
000M
0M00
,
3200
00M0
M00M
0010
,
M320
0M00
M000
0M00
,
0032
0000
00M0
0000
M000
0000
0103
0100
,
02M0
000M
00M0
100M
,
2300
00M0
0M00
000M
,
32M0
000M
00M0
000M
,
M310
00M0
1M00
000M
,
0001
0010
0100
1000
0001
0010
0100
1000
0001
0010
0100
1000
0001
0010
0100
1000
,
0001
0010
0100
1000
0001
0010
0100
1000
0001
0010
0100
1000
0001
0010
0100
0000
,
1000
0100
0010
0001
1000
0100
0010
0001
1000
0100
0010
0001
1000
0100
0010
0001
,
1000
0100
0010
0001
1000
0100
0010
0001
1000
0100
0010
0001
1000
0100
0010
0000
,
1000
0001
0100
0010
1000
0001
0100
0010
1000
0001
0100
0010
1000
0001
0100
0010
,
1000
0001
1000
0001
1000
0001
1000
0001
1000
0001
1000
0001
1000
0001
1000
0001
,
1000
0001
0100
0010
1000
0001
0100
0010
1000
0001
0100
0010
1000
0001
0100
0010
,
4000
0M00
0000
00M0
0001
0M00
3001
0000
,
1000
0010
0100
0001
0010
1000
0010
0100
,
0001
0010
1000
0100
0002
2003
3002
0003
,
0100
0010
1000
0001
0100
0010
1000
0001
,
0110
1100
0110
0011
,
0001
1000
0010
0100
0001
1000
0010
0100
,
0001
1000
0010
0100
0004
0000
2003
0000
,
3010
0100
0001
1000
0010
0100
0001
1000
,
0010
0100
0001
1000
0200
0000
0320
0000
,
0031
0000
1000
0100
1000
0000
0001
0010
0001
0000
0100
0010
0100
0000
1000
0100
,
1000
0000
0001
0010
0001
0000
0100
0010
0100
0000
0001
0010
0001
0100
1000
0100
,
1000
0000
0001
0010
0001
0000
0100
0010
0100
0000
1000
0100
1000
0000
0001
0010
,
0001
0000
0100
0010
0100
0000
1000
0100
1000
0000
0001
0100
0010
1000
0001
0010
,
0400
0010
0010
0310
,
0004
1000
1000
1000
,
0013
1100
0110
0101
,
1010
0110
0000
0101
0000
1000
0010
1000
,
02M0
0000
0000
0000
03M2
0000
0000
1003
02M0
0000
0000
0000
03M2
0000
0000
0000
,
M023
M230
M302
20M3
,
3M20
023M
M302
20M3
,
3M20
0000
0000
0000
023M
0000
0000
0310
M002
0000
0000
0000
00M3
0000
0000
0000
,
020M
0000
0000
0000
03M2
0000
0000
1003
02M0
0000
0000
0000
03M2
0000
0000
0000
,
M023
023M
M302
20M3
,
3M20
023M
M302
20M3
,
3M20
0000
0000
0000
023M
0000
0000
0310
M002
0000
0000
0000
2M03
0000
0000
3010
,
0M02
M023
023M
23M0
,
3M20
M032
20M3
320M
,
032M
2M30
32M0
03M2
,
2M03
32M0
03M2
2M03
,
300M
4000
0000
0000
,
0M10
3000
0000
0000
,
0040
M000
0000
0000
,
4000
3000
0000
0000
0000
0000
0000
0000
,
0M02
0M00
0000
0033
;

//--------------- pump-single - B. M'Rey ----------------
#NOTEDATA:;
#STEPSTYPE:pump-single;
#DESCRIPTION:B. M'Rey;
#CREDIT:B. M'Rey;
#DIFFICULTY:Beginner;
#METER:4;
#RADARVALUES:0.145315,0.22923,0.014327,0.22923,0,142,140,2,32,0,0,0.145315,0.22923,0.014327,0.22923,0,142,140,2,32,0,0;
#NOTES:
00000
00000
00000
00000
,
00000
00000
00000
00000
,
00000
00000
00000
00000
,
00000
00000
00000
00000
,
20000
00000
00000
00000
,
32000
00000
00000
00000
,
03002
00000
00000
00000
,
00023
00000
00000
00000
,
00130
10000
00100
10000
,
00100
10000
00100
00000
,
00100
00001
00100
00001
,
00100
00001
00100
00000
,
00100
00010
00100
00010
,
00100
00010
00100
00000
,
00100
01000
00100
01000
,
00200
00000
00000
00300
,
00001
00000
10000
00000
,
00001
00000
00100
00100
,
00010
00000
01000
00000
,
00100
00000
00100
00000
,
00010
00000
00001
00000
,
00010
00000
00100
00100
,
01000
00000
10000
00000
,
01000
00000
10000
00000
,
00100
00001
00100
00000
,
00100
10000
00100
00000
,
00100
00010
00100
00000
,
00100
01000
00100
00000
,
00100
00000
00010
00000
,
00100
00000
01000
00000
,
00100
00000
00001
00000
,
00100
00000
10000
00000
,
02000
00000
00000
00000
,
03000
00000
00000
00101
,
00102
00000
00000
00000
,
00013
00000
00000
00100
,
20000
00000
00000
00000
,
32000
00000
00000
00000
,
03100
00000
00000
00000
,
00010
00000
01000
00000
,
00002
00000
00000
00000
,
20003
00000
00000
00000
,
32000
00000
00000
00000
,
03020
00000
00000
00000
,
00230
00000
00000
00000
,
00302
00000
00000
00000
,
20003
00000
00000
00000
,
30100
00000
00000
00000
,
00001
00000
10000
00000
,
00001
00000
00100
00100
,
00010
00000
01000
00000
,
00100
00000
00100
00000
,
00010
00000
00001
00000
,
00010
00000
00100
00100
,
01000
00000
10000
00000
,
01000
00000
10000
00000
,
00100
00001
00100
00000
,
00100
10000
00100
00000
,
00100
00010
00100
00000
,
00100
01000
00100
00000
,
00100
00000
00010
00000
,
00100
00000
01000
00000
,
00100
00000
00001
00000
,
00100
00000
00000
00000
,
02000
00000
00000
00000
,
03200
00000
00000
00000
,
00302
00000
00000
00000
,
00023
00000
00000
00000
,
20030
00000
00000
00000
,
32000
00000
00000
00000
,
03200
00000
00000
00000
,
00320
00000
00000
00000
,
00032
00000
00000
00000
,
20003
00000
00000
00000
,
32000
00000
00000
00000
,
03020
00000
00000
00000
,
00230
00000
00000
00000
,
00302
00000
00000
00000
,
20003
00000
00000
00000
,
30200
00000
00000
00000
,
00310
00000
00000
00000
;

//--------------- pump-single - B. M'Rey ----------------
#NOTEDATA:;
#STEPSTYPE:pump-single;
#DESCRIPTION:B. M'Rey;
#CREDIT:B. M'Rey;
#DIFFICULTY:Easy;
#METER:5;
#RADARVALUES:0.225136,0.286537,0.014327,0.207739,0,220,218,2,29,0,0,0.225136,0.286537,0.014327,0.207739,0,220,218,2,29,0,0;
#NOTES:
00000
00000
00000
00000
,
00000
00000
00000
00000
,
00000
00000
00000
00000
,
00000
00000
00000
00000
,
10000
10000
10000
10000
,
00001
00001
00001
00001
,
01000
01000
01000
01000
,
00100
00100
00100
00100
,
00100
00001
00100
00001
,
00100
00001
00100
00000
,
00100
10000
00100
10000
,
00100
01000
00100
01000
,
00100
00010
00100
00010
,
00100
00001
00100
10000
,
00100
00001
00100
00001
,
00200
00000
00000
00000
,
00310
00001
10000
01000
,
00001
00010
00200
00000
,
01300
10000
00010
01000
,
00001
00010
00001
10000
,
01000
00001
00010
00001
,
10000
01000
00200
00000
,
00310
00001
01000
10000
,
00001
10000
01000
00001
,
00100
00100
00100
00010
,
00100
00100
00100
10000
,
00100
00100
00100
00001
,
00100
00100
00100
00010
,
00100
00100
00100
01000
,
00100
00100
00100
00001
,
01100
00000
00110
00000
,
00100
01000
00100
10000
,
00200
00000
00000
00000
,
00300
00000
00000
00001
,
00002
00000
00000
00000
,
00003
00000
00000
00010
,
00020
00000
00000
01030
,
02000
00000
00000
00000
,
23000
00000
00000
00000
,
30002
00000
10003
00000
,
00100
00001
00100
00001
,
00100
00001
00100
00001
,
00100
10000
00100
10000
,
00100
01000
00100
01000
,
00100
00010
00100
00010
,
00100
00001
00100
10000
,
00100
00001
00100
00001
,
00200
00000
00000
00000
,
00310
00001
10000
01000
,
00001
00010
00200
00000
,
01300
10000
00010
01000
,
00001
00010
00001
10000
,
01000
00001
00010
00001
,
10000
01000
00200
00000
,
00310
00001
01000
10000
,
00001
10000
01000
00001
,
00100
00100
00100
00010
,
00100
00100
00100
10000
,
00100
00100
00100
00001
,
00100
00100
00100
00010
,
00100
00100
00100
01000
,
00100
00100
00100
00001
,
01000
00100
00010
00100
,
02000
00000
00000
00000
,
03200
00000
00300
00000
,
00020
00000
00030
00000
,
00002
00000
00003
00000
,
20000
00000
30000
00000
,
00020
00000
00030
00000
,
02000
00000
03000
00000
,
20000
00000
30000
00000
,
00002
00000
00003
00000
,
02000
00000
03000
00000
,
00200
00000
00300
00000
,
00002
00000
00003
00000
,
02000
00000
03000
00000
,
00200
00000
00000
00000
,
20300
00000
00000
00000
,
30020
00000
00000
00000
,
02030
00000
00000
00000
,
03000
00000
00000
00000
;

//--------------- pump-single - B. M'Rey ----------------
#NOTEDATA:;
#STEPSTYPE:pump-single;
#DESCRIPTION:B. M'Rey;
#CREDIT:B. M'Rey;
#DIFFICULTY:Medium;
#METER:11;
#RADARVALUES:0.27835,0.372498,0.078798,0.171922,0,272,261,11,24,0,0,0.27835,0.372498,0.078798,0.171922,0,272,261,11,24,0,0;
#NOTES:
00000
00000
00000
00000
,
00000
00000
00000
00000
,
00000
00000
00000
00000
,
00000
00000
00000
00000
,
10000
00010
10000
00010
,
10000
01000
00001
01000
,
00001
00010
10000
00010
,
10000
00001
01000
00001
,
01000
00100
01000
00100
,
01000
00100
01000
00000
,
00010
00100
00010
00100
,
00010
00001
00010
00001
,
00010
10000
01000
00001
,
00010
10000
01000
00001
,
00010
00100
01000
00100
,
02000
00000
00000
03000
,
10000
01000
00001
00100
,
00010
00000
01000
00000
00001
10000
00100
00000
,
01000
00010
10000
01000
,
00001
00100
10000
00100
,
10000
01000
00001
00100
,
00010
01000
00101
10100
,
01000
00010
10000
01000
,
00001
00100
10000
00100
,
01000
00001
10000
00000
00010
01000
00100
00000
,
00001
00100
00010
00000
10000
01000
10000
00000
,
00001
00100
01000
00000
00100
10000
01000
00000
,
00001
00010
00100
00000
10000
01000
00100
00000
,
00001
00001
00001
00011
,
00010
00010
00010
00110
,
00100
00100
00100
01100
,
10000
10000
10000
11000
,
02000
00000
00000
00000
,
03100
00000
00000
00010
,
00002
00000
00000
00000
,
00203
00000
00000
00000
00000
00000
10300
00010
,
02000
00000
00000
03010
,
20000
00000
00000
00000
,
32000
00000
00000
00000
,
03002
00000
00203
00000
,
01300
00100
01000
00100
,
01000
00100
01000
00100
,
00010
00100
00010
00100
,
00010
00001
00010
00001
,
00010
10000
01000
00001
,
00010
10000
01000
00001
,
00010
00100
01000
00100
,
01000
00000
00000
00000
,
10000
01000
00001
00100
,
00010
00000
01000
00000
00001
10000
00100
00000
,
01000
00010
10000
01000
,
00001
00100
10000
00100
,
10000
01000
00001
00100
,
00010
01000
00101
10100
,
01000
00010
10000
01000
,
00001
00100
10000
00100
,
01000
00001
10000
00000
00010
01000
00100
00000
,
00001
00100
00010
00000
10000
01000
10000
00000
,
00001
00100
01000
00000
00100
10000
01000
00000
,
00001
00010
00100
00000
10000
01000
00100
00000
,
00001
00001
00001
00011
,
00010
00010
00010
00110
,
00100
00100
00100
01100
,
00000
00000
00000
00000
,
20000
00000
30100
00000
,
00002
00000
00103
00010
,
00200
00000
00301
00000
,
20000
00000
30100
00000
,
00002
00000
10003
00000
,
00002
00000
00103
00000
,
02000
00000
13000
00000
,
20000
00000
30010
00000
,
00020
00000
00031
00000
,
02000
00000
03100
00100
,
00020
00000
00130
00000
,
00010
00100
00010
00100
,
00002
00000
00000
00000
,
20003
00000
00000
00000
,
32000
00000
00000
00000
,
03020
00000
00000
00000
,
10030
00000
00000
00000
;

//--------------- pump-single - B. M'Rey ----------------
#NOTEDATA:;
#STEPSTYPE:pump-single;
#DESCRIPTION:B. M'Rey;
#CREDIT:B. M'Rey;
#DIFFICULTY:Hard;
#METER:12;
#RADARVALUES:0.402175,0.520602,0.222066,0.186249,0.003582,393,362,31,26,0,0,0.402175,0.520602,0.222066,0.186249,0.003582,393,362,31,26,0,0;
#NOTES:
00000
00000
00000
00000
,
00000
00000
00000
00000
,
00000
00000
00000
00000
,
00000
00000
00000
00000
,
10000
00010
10000
00010
10000
00010
00000
00010
,
00000
00001
01000
00001
01000
00001
00000
00010
,
00000
10000
00010
10000
00010
10000
00000
00001
,
00000
10000
00001
00010
01000
00100
00001
10000
,
01000
00100
00010
00000
01000
00100
00010
00000
,
01000
00100
00010
00000
01000
00000
00000
00000
,
00010
00100
01000
00000
00010
00100
01000
00000
,
00010
00100
01000
00000
00010
00000
00001
00000
,
00010
10000
01000
00000
00010
00001
01000
00000
,
00010
10000
01000
00000
00010
00001
01000
00000
,
00010
00100
01000
00100
,
02000
00000
00010
03010
,
10000
01000
00001
00000
00001
00100
00010
00000
,
00010
01000
00001
00000
00001
10000
00100
00000
,
01000
00010
10000
00000
10000
01000
00001
00000
,
00001
00100
10000
00000
10000
00100
10000
00000
,
10000
01000
00001
00000
00001
00100
00010
00000
,
00010
01000
00100
00000
00101
00000
10100
00000
,
01000
00010
10000
00000
10000
01000
00001
00000
,
00101
10100
00101
10100
,
01000
00010
10000
00100
00001
00000
01000
00000
,
00001
00100
00010
00001
10000
01000
10000
00000
,
00001
00100
01000
00001
00100
10000
01000
00000
,
00001
00010
00100
00001
10000
01000
00100
00000
,
00001
00010
00001
00010
00001
00000
00011
00000
,
00010
00100
00010
00100
00010
00000
00110
00000
,
00101
10100
00110
01100
,
10001
11000
10010
01010
,
02000
00000
00000
00000
,
03100
00000
00000
00010
,
00002
00000
00000
00000
,
00203
00000
00000
00000
00000
00000
10300
00010
,
02000
00000
00000
03010
,
20000
00000
00000
00000
,
32000
00000
00000
00000
,
03002
00000
00003
00000
,
01000
00100
00010
00000
01000
00100
00010
00000
,
01000
00100
00010
00000
01000
00000
00001
00000
,
00010
00100
01000
00000
00010
00100
01000
00000
,
00010
00100
01000
00000
00010
00000
00001
00000
,
00010
10000
01000
00000
00010
00001
01000
00000
,
00010
10000
01000
00000
00010
00001
01000
00000
,
00010
10000
00100
00001
01000
10000
00100
00000
,
02000
00000
00010
03010
,
10000
01000
00001
00000
00001
00100
00010
00000
,
00010
01000
00001
00000
00001
10000
00100
00000
,
01000
00010
10000
00000
10000
01000
00001
00000
,
00001
00100
10000
00000
10000
00100
10000
00000
,
10000
01000
00001
00000
00001
00100
00010
00000
,
00010
01000
00100
00000
00101
00000
10100
00000
,
01000
00010
10000
00000
10000
01000
00001
00000
,
00101
10100
00101
10100
,
01000
00010
10000
00100
00001
00000
01000
00000
,
00001
00100
00010
00001
10000
01000
10000
00000
,
00001
00100
01000
00001
00100
10000
01000
00000
,
00001
00010
00100
00001
10000
01000
00100
00000
,
00001
00010
00001
00010
00001
00000
00011
00000
,
00010
00100
00010
00100
00010
00000
00110
00000
,
00101
10100
00110
01100
,
10001
11000
00000
10010
00000
01000
00010
01000
,
02000
00000
00000
00000
03001
00000
00000
10000
00100
00000
00000
00000
00010
00000
00000
00000
,
00002
01000
00100
00010
,
00203
10000
00001
01300
,
20000
00001
00100
00010
,
30002
00100
10000
00100
,
02003
00010
00100
00010
,
03002
00100
10000
00100
,
20003
01000
00010
00001
,
30020
00100
00001
00100
,
02030
00100
00100
00100
,
03020
00100
00100
00100
,
00032
00100
00100
00100
,
20003
00000
00000
00000
,
32000
00000
00000
00000
,
03002
00000
00000
00000
,
00023
00000
00000
00000
,
00200
00000
00000
00330
;

//--------------- pump-single - B. M'Rey ----------------
#NOTEDATA:;
#STEPSTYPE:pump-single;
#DESCRIPTION:B. M'Rey;
#CREDIT:B. M'Rey;
#DIFFICULTY:Challenge;
#METER:13;
#RADARVALUES:0.521907,0.723058,0.157595,0.257883,0.22923,510,488,22,36,28,0,0.521907,0.723058,0.157595,0.257883,0.22923,510,488,22,36,28,0;
#NOTES:
00000
00000
00000
00000
,
00000
00000
00000
00000
,
00000
00000
00000
00000
,
00000
00000
00000
00000
,
10000
00010
10000
00010
10000
01000
10000
01000
,
10000
00001
10000
00001
10000
00010
10000
00010
,
01000
00001
01000
00001
01000
10000
01000
10000
,
00010
00100
00010
00100
01000
00100
01000
00100
,
00001
00010
00001
00000
10000
01000
10000
00000
00001
00010
00001
00000
01000
10000
01000
00000
,
00001
00010
00001
00000
10000
01000
10000
00000
00100
00000
00000
00000
00100
00000
00000
00000
,
00001
10000
00001
00000
00010
01000
00010
00000
00001
10000
00001
00000
00010
01000
00010
00000
,
00001
10000
00001
00000
00010
01000
00010
00000
00001
10000
00001
00000
00010
01000
00010
00000
,
00001
00100
00001
00000
10000
00100
10000
00000
00010
00100
00010
00000
01000
00100
01000
00000
,
00001
00010
00100
00000
00010
00100
01000
00000
00100
01000
10000
00000
01000
10000
01000
00000
,
00010
01000
00010
00000
00001
10000
00001
00000
01000
00001
01000
00000
00010
10000
00010
00000
,
00200
00000
00010
00010
01000
00000
01000
00000
,
00301
00010
10000
00000
01000
00010
00100
00000
,
00001
00010
01000
00000
00100
10000
00100
10000
,
00001
01000
00010
00000
00010
10000
01000
00000
,
00101
10100
00110
01100
,
00001
10000
00100
00000
10000
00001
00100
00000
,
00010
00100
01000
00000
01010
00000
01010
00000
,
00001
00010
00100
00000
00010
00100
01000
00000
,
00100
01000
10000
00000
01000
00000
00010
00000
,
00001
00000
00010
01000
00100
00000
00010
00100
01000
00000
01000
00100
00010
00000
00001
10000
,
00100
00000
10000
00001
00100
00000
00010
00001
01000
00000
00100
10000
00001
00000
00010
01000
,
00100
00000
00010
00100
01000
00000
01000
00100
00010
00000
00001
10000
00100
00000
10000
00001
,
00100
00000
00010
00001
01000
00000
00100
10000
00001
00000
00010
01000
00100
00000
00010
00100
,
01000
10000
01000
01000
10000
10000
01000
00000
,
00010
00000
00001
00000
00001
00000
00010
00000
00010
00000
00001
00000
00010
00000
10000
00100
,
01000
00000
01001
00000
,
10100
01100
00110
10001
,
0200M
000M0
0000M
000M0
,
03200
M0000
0M000
M0310
,
0M002
00M00
0M000
00M00
,
002M3
00000
0M000
00000
0000M
00000
10300
00010
,
0200M
000M0
M0000
03010
,
2000M
000M0
00M00
000M0
,
3200M
000M0
00M00
M0000
,
03M02
M0000
000M3
00000
,
10000
00010
10000
00010
10000
01000
10000
01000
,
10000
00001
10000
00001
10000
00010
10000
00010
,
01000
00001
01000
00001
01000
10000
01000
10000
,
00010
00100
00010
00100
01000
00100
01000
00100
,
10000
00010
10000
00010
10000
01000
10000
01000
,
10000
00001
10000
00001
10000
00010
10000
00010
,
00001
00010
00001
00000
10000
01000
10000
00000
00001
00010
00001
00000
01000
10000
01000
00000
,
00200
00000
01000
01000
,
00301
00010
10000
00000
01000
00010
00100
00000
,
00001
00010
01000
00000
00100
10000
00100
00000
,
00001
01000
00010
00000
00010
10000
01000
00000
,
00101
10100
00110
01100
,
00001
10000
00100
00000
10000
00001
00100
00000
,
00010
00100
01000
00000
01010
00000
01010
00000
,
00001
00010
00100
00000
00010
00100
01000
00000
,
00100
01000
10000
00000
01001
00000
10010
00000
,
00001
00000
00010
01000
00100
00000
00010
00100
01000
00000
01000
00100
00010
00000
00001
10000
,
00100
00000
10000
00001
00100
00000
00010
00001
01000
00000
00100
10000
00001
00000
00010
01000
,
00100
00000
00010
00100
01000
00000
01000
00100
00010
00000
00001
10000
00100
00000
10000
00001
,
00100
00000
00010
00001
01000
00000
00100
10000
00001
00000
00010
01000
00100
00000
00010
00100
,
01000
10000
01000
01000
10000
10000
01000
00000
,
00010
00001
00001
00010
00010
00001
00010
10000
,
01000
00000
00010
01000
00001
00000
00100
00000
,
10001
11000
00000
10010
00000
01000
00010
01000
,
02000
00000
00000
00000
03001
00000
00000
10000
00100
00000
00000
00000
00010
00000
00000
00000
,
00002
01000
00100
00010
,
00203
10000
00001
01300
,
20000
00001
00100
00010
,
30002
00100
10000
00100
,
02003
00010
00100
00010
,
03002
00100
10000
00100
,
20003
01000
00010
00001
,
30020
00100
00001
00100
,
02030
00100
00100
00100
,
03020
00100
00100
00100
,
00032
00100
00100
00100
,
20003
32000
03200
00320
,
00032
00023
00230
02300
,
23000
32000
03200
00320
,
00032
00000
00000
00000
,
00200
00000
00000
00303
;

//--------------- pump-single - B. M'Rey ----------------
#NOTEDATA:;
#STEPSTYPE:pump-single;
#DESCRIPTION:B. M'Rey;
#CREDIT:B. M'Rey;
#DIFFICULTY:Edit;
#METER:16;
#RADARVALUES:0.689736,0.954437,0.114615,0.243556,0.702016,674,658,16,34,41,0,0.689736,0.954437,0.114615,0.243556,0.702016,674,658,16,34,41,0;
#NOTES:
00000
00000
00000
00000
,
00000
00000
00000
00000
,
00000
00000
00000
00000
,
00000
00000
00000
00000
,
10000
00010
10000
00010
10000
00010
10000
00010
10000
01000
10000
01000
10000
01000
10000
01000
,
10000
00001
10000
00001
10000
00001
10000
00001
10000
00010
10000
00010
10000
00010
10000
00010
,
01000
00001
01000
00001
01000
00001
01000
00001
01000
10000
01000
10000
01000
10000
01000
10000
,
00010
00100
00010
00100
00010
00100
01000
00100
01000
00100
01000
00100
01000
00100
01000
00000
,
00001
00010
01000
10000
00001
00010
01000
10000
00001
00010
01000
10000
00001
00010
01000
10000
,
00001
00010
01000
10000
00001
00010
01000
10000
00100
00000
00000
00000
00100
00000
00000
00000
,
10000
01000
00010
00001
10000
01000
00010
00001
10000
01000
00010
00001
10000
01000
00010
00001
,
10000
01000
00010
00001
10000
01000
00010
00001
10000
01000
00010
00001
10000
01000
00010
00001
,
00100
10000
00100
10000
00100
00001
00100
00001
00100
01000
00100
01000
00100
00010
00100
00010
,
00100
00001
00100
00001
00100
10000
00100
10000
00100
00010
00100
00010
00100
01000
00100
01000
,
00001
00010
01000
10000
01000
00010
00001
00010
01000
10000
01000
00010
00001
00010
01000
10000
,
00400
000M0
0001M
M0010
M1000
000M0
0100M
00000
,
M0301
00010
10000
00001
01000
00010
00100
10000
,
00001
00010
01000
00001
00100
10000
00100
10010
,
00001
01000
00010
01000
00010
10000
01000
00000
,
00101
10100
00110
01100
,
00001
10000
00100
00010
10000
00001
00100
01000
,
00010
00100
01000
00000
01010
00000
01010
00000
,
00001
00010
00100
10000
00010
00100
01000
00001
,
00100
01000
10000
00010
01000
10000
00010
00100
,
00001
00000
00010
01000
00100
00000
00010
00100
01000
00000
01000
00100
00010
00000
00001
10000
,
00100
00000
10000
00001
00100
00000
00010
00001
01000
00000
00100
10000
00001
00000
00010
01000
,
00100
00000
00010
00100
01000
00000
01000
00100
00010
00000
00001
10000
00100
00000
10000
00001
,
00100
00000
00010
00001
01000
00000
00100
10000
00001
00000
00010
01000
00100
00000
00010
00100
,
00001
00000
00010
01000
00100
00000
00010
00100
01000
00000
01000
00100
00010
00000
00001
10000
,
00100
00000
10000
00001
00100
00000
00010
00001
01000
00000
00100
10000
00001
00000
00010
01000
,
00100
00000
00010
00100
01000
00000
01000
00100
00010
00000
00001
10000
00100
00000
10000
00001
,
00100
00000
00010
00001
01000
00000
00100
10000
00001
00000
00010
01000
00100
00000
00010
00100
,
02000
000M0
0000M
000M0
,
03200
M0000
0M000
M0310
,
0M002
00M00
0M000
00M00
,
002M3
00000
0M000
00000
0000M
00000
10300
00010
,
0200M
000M0
M0000
03010
,
2000M
000M0
00M00
000M0
,
3200M
000M0
00M00
M0000
,
03M02
M0000
000M3
00000
,
00001
00010
01000
10000
00001
00010
01000
10000
00001
00010
01000
10000
00001
00010
01000
10000
,
00001
00010
01000
10000
00001
00010
01000
10000
00100
00000
00010
00000
00100
00000
01000
00000
,
10000
01000
00010
00001
10000
01000
00010
00001
10000
01000
00010
00001
10000
01000
00010
00001
,
10000
01000
00010
00001
10000
01000
00010
00001
10000
01000
00010
00001
10000
01000
00010
00001
,
00100
10000
00100
10000
00100
00001
00100
00001
00100
01000
00100
01000
00100
00010
00100
00010
,
00100
00001
00100
00001
00100
10000
00100
10000
00100
00010
00100
00010
00100
01000
00100
01000
,
00001
00010
01000
10000
01000
00010
00001
00010
01000
10000
01000
00010
00001
00010
01000
10000
,
00400
000M0
0000M
M0000
M1000
000M0
0100M
00000
,
M0301
00010
10000
00001
01000
00010
00100
10000
,
00001
00010
01000
00001
00100
10000
00100
10010
,
00001
01000
00010
01000
00010
10000
01000
00000
,
00101
10100
00110
01100
,
00001
10000
00100
00010
10000
00001
00100
01000
,
00010
00100
01000
00000
01010
00000
01010
00000
,
00001
00010
00100
10000
00010
00100
01000
00001
,
00100
01000
10000
00010
01000
10000
00010
00100
,
00001
00000
00010
01000
00100
00000
00010
00100
01000
00000
01000
00100
00010
00000
00001
10000
,
00100
00000
10000
00001
00100
00000
00010
00001
01000
00000
00100
10000
00001
00000
00010
01000
,
00100
00000
00010
00100
01000
00000
01000
00100
00010
00000
00001
10000
00100
00000
10000
00001
,
00100
00000
00010
00001
01000
00000
00100
10000
00001
00000
00010
01000
00100
00000
00010
00100
,
00001
00000
00010
01000
00100
00000
00010
00100
01000
00000
01000
00100
00010
00000
00001
10000
,
00100
00000
10000
00001
00100
00000
00010
00001
01000
00000
00100
10000
00001
00000
00010
01000
,
00100
00000
00010
00100
01000
00000
01000
00100
00010
00000
00001
10000
00100
00000
10000
00001
,
00100
11000
00000
10010
00000
01000
00010
01000
,
02000
00000
00000
00000
03001
00000
00000
10000
00100
00000
00000
00000
00010
00000
00000
00000
,
00002
01000
00100
00010
,
00203
10000
00001
01300
,
20000
00001
00100
00010
,
30002
00100
10000
00100
,
02003
00010
00100
00010
,
03002
00100
10000
00100
,
20003
01000
00010
00001
,
30020
00100
00001
00100
,
02030
00100
00100
00100
,
03020
00100
00100
00100
,
00032
00100
00100
00100
,
20003
32000
03200
00320
,
00032
00023
00230
02300
,
23000
32000
03200
00320
,
00032
00000
00000
00000
,
00200
00000
00000
00303
;

//--------------- smx-single - B. M'Rey ----------------
#NOTEDATA:;
#STEPSTYPE:smx-single;
#DESCRIPTION:B. M'Rey;
#CREDIT:B. M'Rey;
#DIFFICULTY:Beginner;
#METER:6;
#RADARVALUES:0.225136,0.286537,0.014327,0.207739,0,220,218,2,29,0,0,0.225136,0.286537,0.014327,0.207739,0,220,218,2,29,0,0;
#NOTES:
00000
00000
00000
00000
,
00000
00000
00000
00000
,
00000
00000
00000
00000
,
00000
00000
00000
00000
,
10000
10000
10000
10000
,
00001
00001
00001
00001
,
01000
01000
01000
01000
,
00100
00100
00100
00100
,
00100
00001
00100
00001
,
00100
00001
00100
00000
,
00100
10000
00100
10000
,
00100
01000
00100
01000
,
00100
00010
00100
00010
,
00100
00001
00100
10000
,
00100
00001
00100
00001
,
00200
00000
00000
00000
,
00310
00001
10000
01000
,
00001
00010
00200
00000
,
01300
10000
00010
01000
,
00001
00010
00001
10000
,
01000
00001
00010
00001
,
10000
01000
00200
00000
,
00310
00001
01000
10000
,
00001
10000
01000
00001
,
00100
00100
00100
00010
,
00100
00100
00100
10000
,
00100
00100
00100
00001
,
00100
00100
00100
00010
,
00100
00100
00100
01000
,
00100
00100
00100
00001
,
01100
00000
00110
00000
,
00100
01000
00100
10000
,
00200
00000
00000
00000
,
00300
00000
00000
00001
,
00002
00000
00000
00000
,
00003
00000
00000
00010
,
00020
00000
00000
01030
,
02000
00000
00000
00000
,
23000
00000
00000
00000
,
30002
00000
10003
00000
,
00100
00001
00100
00001
,
00100
00001
00100
00001
,
00100
10000
00100
10000
,
00100
01000
00100
01000
,
00100
00010
00100
00010
,
00100
00001
00100
10000
,
00100
00001
00100
00001
,
00200
00000
00000
00000
,
00310
00001
10000
01000
,
00001
00010
00200
00000
,
01300
10000
00010
01000
,
00001
00010
00001
10000
,
01000
00001
00010
00001
,
10000
01000
00200
00000
,
00310
00001
01000
10000
,
00001
10000
01000
00001
,
00100
00100
00100
00010
,
00100
00100
00100
10000
,
00100
00100
00100
00001
,
00100
00100
00100
00010
,
00100
00100
00100
01000
,
00100
00100
00100
00001
,
01000
00100
00010
00100
,
02000
00000
00000
00000
,
03200
00000
00300
00000
,
00020
00000
00030
00000
,
00002
00000
00003
00000
,
20000
00000
30000
00000
,
00020
00000
00030
00000
,
02000
00000
03000
00000
,
20000
00000
30000
00000
,
00002
00000
00003
00000
,
02000
00000
03000
00000
,
00200
00000
00300
00000
,
00002
00000
00003
00000
,
02000
00000
03000
00000
,
00200
00000
00000
00000
,
20300
00000
00000
00000
,
30020
00000
00000
00000
,
02030
00000
00000
00000
,
03000
00000
00000
00000
;

//--------------- smx-single - B. M'Rey ----------------
#NOTEDATA:;
#STEPSTYPE:smx-single;
#DESCRIPTION:B. M'Rey;
#CREDIT:B. M'Rey;
#DIFFICULTY:Easy;
#METER:7;
#RADARVALUES:0.27835,0.372498,0.078798,0.171922,0,272,261,11,24,0,0,0.27835,0.372498,0.078798,0.171922,0,272,261,11,24,0,0;
#NOTES:
00000
00000
00000
00000
,
00000
00000
00000
00000
,
00000
00000
00000
00000
,
00000
00000
00000
00000
,
10000
00010
10000
00010
,
10000
01000
00001
01000
,
00001
00010
10000
00010
,
10000
00001
01000
00001
,
01000
00100
01000
00100
,
01000
00100
01000
00000
,
00010
00100
00010
00100
,
00010
00001
00010
00001
,
00010
10000
01000
00001
,
00010
10000
01000
00001
,
00010
00100
01000
00100
,
02000
00000
00000
03000
,
10000
01000
00001
00100
,
00010
00000
01000
00000
00001
10000
00100
00000
,
01000
00010
10000
01000
,
00001
00100
10000
00100
,
10000
01000
00001
00100
,
00010
01000
00101
10100
,
01000
00010
10000
01000
,
00001
00100
10000
00100
,
01000
00001
10000
00000
00010
01000
00100
00000
,
00001
00100
00010
00000
10000
01000
10000
00000
,
00001
00100
01000
00000
00100
10000
01000
00000
,
00001
00010
00100
00000
10000
01000
00100
00000
,
00001
00001
00001
00011
,
00010
00010
00010
00110
,
00100
00100
00100
01100
,
10000
10000
10000
11000
,
02000
00000
00000
00000
,
03100
00000
00000
00010
,
00002
00000
00000
00000
,
00203
00000
00000
00000
00000
00000
10300
00010
,
02000
00000
00000
03010
,
20000
00000
00000
00000
,
32000
00000
00000
00000
,
03002
00000
00203
00000
,
01300
00100
01000
00100
,
01000
00100
01000
00100
,
00010
00100
00010
00100
,
00010
00001
00010
00001
,
00010
10000
01000
00001
,
00010
10000
01000
00001
,
00010
00100
01000
00100
,
01000
00000
00000
00000
,
10000
01000
00001
00100
,
00010
00000
01000
00000
00001
10000
00100
00000
,
01000
00010
10000
01000
,
00001
00100
10000
00100
,
10000
01000
00001
00100
,
00010
01000
00101
10100
,
01000
00010
10000
01000
,
00001
00100
10000
00100
,
01000
00001
10000
00000
00010
01000
00100
00000
,
00001
00100
00010
00000
10000
01000
10000
00000
,
00001
00100
01000
00000
00100
10000
01000
00000
,
00001
00010
00100
00000
10000
01000
00100
00000
,
00001
00001
00001
00011
,
00010
00010
00010
00110
,
00100
00100
00100
01100
,
00000
00000
00000
00000
,
20000
00000
30100
00000
,
00002
00000
00103
00010
,
00200
00000
00301
00000
,
20000
00000
30100
00000
,
00002
00000
10003
00000
,
00002
00000
00103
00000
,
02000
00000
13000
00000
,
20000
00000
30010
00000
,
00020
00000
00031
00000
,
02000
00000
03100
00100
,
00020
00000
00130
00000
,
00010
00100
00010
00100
,
00002
00000
00000
00000
,
20003
00000
00000
00000
,
32000
00000
00000
00000
,
03020
00000
00000
00000
,
10030
00000
00000
00000
;

//--------------- smx-single - B. M'Rey ----------------
#NOTEDATA:;
#STEPSTYPE:smx-single;
#DESCRIPTION:B. M'Rey;
#CREDIT:B. M'Rey;
#DIFFICULTY:Medium;
#METER:11;
#RADARVALUES:0.402175,0.520602,0.222066,0.186249,0.003582,393,362,31,26,0,0,0.402175,0.520602,0.222066,0.186249,0.003582,393,362,31,26,0,0;
#NOTES:
00000
00000
00000
00000
,
00000
00000
00000
00000
,
00000
00000
00000
00000
,
00000
00000
00000
00000
,
10000
00010
10000
00010
10000
00010
00000
00010
,
00000
00001
01000
00001
01000
00001
00000
00010
,
00000
10000
00010
10000
00010
10000
00000
00001
,
00000
10000
00001
00010
01000
00100
00001
10000
,
01000
00100
00010
00000
01000
00100
00010
00000
,
01000
00100
00010
00000
01000
00000
00000
00000
,
00010
00100
01000
00000
00010
00100
01000
00000
,
00010
00100
01000
00000
00010
00000
00001
00000
,
00010
10000
01000
00000
00010
00001
01000
00000
,
00010
10000
01000
00000
00010
00001
01000
00000
,
00010
00100
01000
00100
,
02000
00000
00010
03010
,
10000
01000
00001
00000
00001
00100
00010
00000
,
00010
01000
00001
00000
00001
10000
00100
00000
,
01000
00010
10000
00000
10000
01000
00001
00000
,
00001
00100
10000
00000
10000
00100
10000
00000
,
10000
01000
00001
00000
00001
00100
00010
00000
,
00010
01000
00100
00000
00101
00000
10100
00000
,
01000
00010
10000
00000
10000
01000
00001
00000
,
00101
10100
00101
10100
,
01000
00010
10000
00100
00001
00000
01000
00000
,
00001
00100
00010
00001
10000
01000
10000
00000
,
00001
00100
01000
00001
00100
10000
01000
00000
,
00001
00010
00100
00001
10000
01000
00100
00000
,
00001
00010
00001
00010
00001
00000
00011
00000
,
00010
00100
00010
00100
00010
00000
00110
00000
,
00101
10100
00110
01100
,
10001
11000
10010
01010
,
02000
00000
00000
00000
,
03100
00000
00000
00010
,
00002
00000
00000
00000
,
00203
00000
00000
00000
00000
00000
10300
00010
,
02000
00000
00000
03010
,
20000
00000
00000
00000
,
32000
00000
00000
00000
,
03002
00000
00003
00000
,
01000
00100
00010
00000
01000
00100
00010
00000
,
01000
00100
00010
00000
01000
00000
00001
00000
,
00010
00100
01000
00000
00010
00100
01000
00000
,
00010
00100
01000
00000
00010
00000
00001
00000
,
00010
10000
01000
00000
00010
00001
01000
00000
,
00010
10000
01000
00000
00010
00001
01000
00000
,
00010
10000
00100
00001
01000
10000
00100
00000
,
02000
00000
00010
03010
,
10000
01000
00001
00000
00001
00100
00010
00000
,
00010
01000
00001
00000
00001
10000
00100
00000
,
01000
00010
10000
00000
10000
01000
00001
00000
,
00001
00100
10000
00000
10000
00100
10000
00000
,
10000
01000
00001
00000
00001
00100
00010
00000
,
00010
01000
00100
00000
00101
00000
10100
00000
,
01000
00010
10000
00000
10000
01000
00001
00000
,
00101
10100
00101
10100
,
01000
00010
10000
00100
00001
00000
01000
00000
,
00001
00100
00010
00001
10000
01000
10000
00000
,
00001
00100
01000
00001
00100
10000
01000
00000
,
00001
00010
00100
00001
10000
01000
00100
00000
,
00001
00010
00001
00010
00001
00000
00011
00000
,
00010
00100
00010
00100
00010
00000
00110
00000
,
00101
10100
00110
01100
,
10001
11000
00000
10010
00000
01000
00010
01000
,
02000
00000
00000
00000
03001
00000
00000
10000
00100
00000
00000
00000
00010
00000
00000
00000
,
00002
01000
00100
00010
,
00203
10000
00001
01300
,
20000
00001
00100
00010
,
30002
00100
10000
00100
,
02003
00010
00100
00010
,
03002
00100
10000
00100
,
20003
01000
00010
00001
,
30020
00100
00001
00100
,
02030
00100
00100
00100
,
03020
00100
00100
00100
,
00032
00100
00100
00100
,
20003
00000
00000
00000
,
32000
00000
00000
00000
,
03002
00000
00000
00000
,
00023
00000
00000
00000
,
00200
00000
00000
00330
;

//--------------- smx-single - B. M'Rey ----------------
#NOTEDATA:;
#STEPSTYPE:smx-single;
#DESCRIPTION:B. M'Rey;
#CREDIT:B. M'Rey;
#DIFFICULTY:Hard;
#METER:15;
#RADARVALUES:0.521907,0.723058,0.157595,0.257883,0.22923,510,488,22,36,28,0,0.521907,0.723058,0.157595,0.257883,0.22923,510,488,22,36,28,0;
#NOTES:
00000
00000
00000
00000
,
00000
00000
00000
00000
,
00000
00000
00000
00000
,
00000
00000
00000
00000
,
10000
00010
10000
00010
10000
01000
10000
01000
,
10000
00001
10000
00001
10000
00010
10000
00010
,
01000
00001
01000
00001
01000
10000
01000
10000
,
00010
00100
00010
00100
01000
00100
01000
00100
,
00001
00010
00001
00000
10000
01000
10000
00000
00001
00010
00001
00000
01000
10000
01000
00000
,
00001
00010
00001
00000
10000
01000
10000
00000
00100
00000
00000
00000
00100
00000
00000
00000
,
00001
10000
00001
00000
00010
01000
00010
00000
00001
10000
00001
00000
00010
01000
00010
00000
,
00001
10000
00001
00000
00010
01000
00010
00000
00001
10000
00001
00000
00010
01000
00010
00000
,
00001
00100
00001
00000
10000
00100
10000
00000
00010
00100
00010
00000
01000
00100
01000
00000
,
00001
00010
00100
00000
00010
00100
01000
00000
00100
01000
10000
00000
01000
10000
01000
00000
,
00010
01000
00010
00000
00001
10000
00001
00000
01000
00001
01000
00000
00010
10000
00010
00000
,
00200
00000
00010
00010
01000
00000
01000
00000
,
00301
00010
10000
00000
01000
00010
00100
00000
,
00001
00010
01000
00000
00100
10000
00100
10000
,
00001
01000
00010
00000
00010
10000
01000
00000
,
00101
10100
00110
01100
,
00001
10000
00100
00000
10000
00001
00100
00000
,
00010
00100
01000
00000
01010
00000
01010
00000
,
00001
00010
00100
00000
00010
00100
01000
00000
,
00100
01000
10000
00000
01000
00000
00010
00000
,
00001
00000
00010
01000
00100
00000
00010
00100
01000
00000
01000
00100
00010
00000
00001
10000
,
00100
00000
10000
00001
00100
00000
00010
00001
01000
00000
00100
10000
00001
00000
00010
01000
,
00100
00000
00010
00100
01000
00000
01000
00100
00010
00000
00001
10000
00100
00000
10000
00001
,
00100
00000
00010
00001
01000
00000
00100
10000
00001
00000
00010
01000
00100
00000
00010
00100
,
01000
10000
01000
01000
10000
10000
01000
00000
,
00010
00000
00001
00000
00001
00000
00010
00000
00010
00000
00001
00000
00010
00000
10000
00100
,
01000
00000
01001
00000
,
10100
01100
00110
10001
,
0200M
000M0
0000M
000M0
,
03200
M0000
0M000
M0310
,
0M002
00M00
0M000
00M00
,
002M3
00000
0M000
00000
0000M
00000
10300
00010
,
0200M
000M0
M0000
03010
,
2000M
000M0
00M00
000M0
,
3200M
000M0
00M00
M0000
,
03M02
M0000
000M3
00000
,
10000
00010
10000
00010
10000
01000
10000
01000
,
10000
00001
10000
00001
10000
00010
10000
00010
,
01000
00001
01000
00001
01000
10000
01000
10000
,
00010
00100
00010
00100
01000
00100
01000
00100
,
10000
00010
10000
00010
10000
01000
10000
01000
,
10000
00001
10000
00001
10000
00010
10000
00010
,
00001
00010
00001
00000
10000
01000
10000
00000
00001
00010
00001
00000
01000
10000
01000
00000
,
00200
00000
01000
01000
,
00301
00010
10000
00000
01000
00010
00100
00000
,
00001
00010
01000
00000
00100
10000
00100
00000
,
00001
01000
00010
00000
00010
10000
01000
00000
,
00101
10100
00110
01100
,
00001
10000
00100
00000
10000
00001
00100
00000
,
00010
00100
01000
00000
01010
00000
01010
00000
,
00001
00010
00100
00000
00010
00100
01000
00000
,
00100
01000
10000
00000
01001
00000
10010
00000
,
00001
00000
00010
01000
00100
00000
00010
00100
01000
00000
01000
00100
00010
00000
00001
10000
,
00100
00000
10000
00001
00100
00000
00010
00001
01000
00000
00100
10000
00001
00000
00010
01000
,
00100
00000
00010
00100
01000
00000
01000
00100
00010
00000
00001
10000
00100
00000
10000
00001
,
00100
00000
00010
00001
01000
00000
00100
10000
00001
00000
00010
01000
00100
00000
00010
00100
,
01000
10000
01000
01000
10000
10000
01000
00000
,
00010
00001
00001
00010
00010
00001
00010
10000
,
01000
00000
00010
01000
00001
00000
00100
00000
,
10001
11000
00000
10010
00000
01000
00010
01000
,
02000
00000
00000
00000
03001
00000
00000
10000
00100
00000
00000
00000
00010
00000
00000
00000
,
00002
01000
00100
00010
,
00203
10000
00001
01300
,
20000
00001
00100
00010
,
30002
00100
10000
00100
,
02003
00010
00100
00010
,
03002
00100
10000
00100
,
20003
01000
00010
00001
,
30020
00100
00001
00100
,
02030
00100
00100
00100
,
03020
00100
00100
00100
,
00032
00100
00100
00100
,
20003
32000
03200
00320
,
00032
00023
00230
02300
,
23000
32000
03200
00320
,
00032
00000
00000
00000
,
00200
00000
00000
00303
;

//--------------- smx-single - B. M'Rey ----------------
#NOTEDATA:;
#STEPSTYPE:smx-single;
#DESCRIPTION:B. M'Rey;
#CREDIT:B. M'Rey;
#DIFFICULTY:Challenge;
#METER:17;
#RADARVALUES:0.689736,0.954437,0.114615,0.243556,0.702016,674,658,16,34,41,0,0.689736,0.954437,0.114615,0.243556,0.702016,674,658,16,34,41,0;
#NOTES:
00000
00000
00000
00000
,
00000
00000
00000
00000
,
00000
00000
00000
00000
,
00000
00000
00000
00000
,
10000
00010
10000
00010
10000
00010
10000
00010
10000
01000
10000
01000
10000
01000
10000
01000
,
10000
00001
10000
00001
10000
00001
10000
00001
10000
00010
10000
00010
10000
00010
10000
00010
,
01000
00001
01000
00001
01000
00001
01000
00001
01000
10000
01000
10000
01000
10000
01000
10000
,
00010
00100
00010
00100
00010
00100
01000
00100
01000
00100
01000
00100
01000
00100
01000
00000
,
00001
00010
01000
10000
00001
00010
01000
10000
00001
00010
01000
10000
00001
00010
01000
10000
,
00001
00010
01000
10000
00001
00010
01000
10000
00100
00000
00000
00000
00100
00000
00000
00000
,
10000
01000
00010
00001
10000
01000
00010
00001
10000
01000
00010
00001
10000
01000
00010
00001
,
10000
01000
00010
00001
10000
01000
00010
00001
10000
01000
00010
00001
10000
01000
00010
00001
,
00100
10000
00100
10000
00100
00001
00100
00001
00100
01000
00100
01000
00100
00010
00100
00010
,
00100
00001
00100
00001
00100
10000
00100
10000
00100
00010
00100
00010
00100
01000
00100
01000
,
00001
00010
01000
10000
01000
00010
00001
00010
01000
10000
01000
00010
00001
00010
01000
10000
,
00400
000M0
0001M
M0010
M1000
000M0
0100M
00000
,
M0301
00010
10000
00001
01000
00010
00100
10000
,
00001
00010
01000
00001
00100
10000
00100
10010
,
00001
01000
00010
01000
00010
10000
01000
00000
,
00101
10100
00110
01100
,
00001
10000
00100
00010
10000
00001
00100
01000
,
00010
00100
01000
00000
01010
00000
01010
00000
,
00001
00010
00100
10000
00010
00100
01000
00001
,
00100
01000
10000
00010
01000
10000
00010
00100
,
00001
00000
00010
01000
00100
00000
00010
00100
01000
00000
01000
00100
00010
00000
00001
10000
,
00100
00000
10000
00001
00100
00000
00010
00001
01000
00000
00100
10000
00001
00000
00010
01000
,
00100
00000
00010
00100
01000
00000
01000
00100
00010
00000
00001
10000
00100
00000
10000
00001
,
00100
00000
00010
00001
01000
00000
00100
10000
00001
00000
00010
01000
00100
00000
00010
00100
,
00001
00000
00010
01000
00100
00000
00010
00100
01000
00000
01000
00100
00010
00000
00001
10000
,
00100
00000
10000
00001
00100
00000
00010
00001
01000
00000
00100
10000
00001
00000
00010
01000
,
00100
00000
00010
00100
01000
00000
01000
00100
00010
00000
00001
10000
00100
00000
10000
00001
,
00100
00000
00010
00001
01000
00000
00100
10000
00001
00000
00010
01000
00100
00000
00010
00100
,
02000
000M0
0000M
000M0
,
03200
M0000
0M000
M0310
,
0M002
00M00
0M000
00M00
,
002M3
00000
0M000
00000
0000M
00000
10300
00010
,
0200M
000M0
M0000
03010
,
2000M
000M0
00M00
000M0
,
3200M
000M0
00M00
M0000
,
03M02
M0000
000M3
00000
,
00001
00010
01000
10000
00001
00010
01000
10000
00001
00010
01000
10000
00001
00010
01000
10000
,
00001
00010
01000
10000
00001
00010
01000
10000
00100
00000
00010
00000
00100
00000
01000
00000
,
10000
01000
00010
00001
10000
01000
00010
00001
10000
01000
00010
00001
10000
01000
00010
00001
,
10000
01000
00010
00001
10000
01000
00010
00001
10000
01000
00010
00001
10000
01000
00010
00001
,
00100
10000
00100
10000
00100
00001
00100
00001
00100
01000
00100
01000
00100
00010
00100
00010
,
00100
00001
00100
00001
00100
10000
00100
10000
00100
00010
00100
00010
00100
01000
00100
01000
,
00001
00010
01000
10000
01000
00010
00001
00010
01000
10000
01000
00010
00001
00010
01000
10000
,
00400
000M0
0000M
M0000
M1000
000M0
0100M
00000
,
M0301
00010
10000
00001
01000
00010
00100
10000
,
00001
00010
01000
00001
00100
10000
00100
10010
,
00001
01000
00010
01000
00010
10000
01000
00000
,
00101
10100
00110
01100
,
00001
10000
00100
00010
10000
00001
00100
01000
,
00010
00100
01000
00000
01010
00000
01010
00000
,
00001
00010
00100
10000
00010
00100
01000
00001
,
00100
01000
10000
00010
01000
10000
00010
00100
,
00001
00000
00010
01000
00100
00000
00010
00100
01000
00000
01000
00100
00010
00000
00001
10000
,
00100
00000
10000
00001
00100
00000
00010
00001
01000
00000
00100
10000
00001
00000
00010
01000
,
00100
00000
00010
00100
01000
00000
01000
00100
00010
00000
00001
10000
00100
00000
10000
00001
,
00100
00000
00010
00001
01000
00000
00100
10000
00001
00000
00010
01000
00100
00000
00010
00100
,
00001
00000
00010
01000
00100
00000
00010
00100
01000
00000
01000
00100
00010
00000
00001
10000
,
00100
00000
10000
00001
00100
00000
00010
00001
01000
00000
00100
10000
00001
00000
00010
01000
,
00100
00000
00010
00100
01000
00000
01000
00100
00010
00000
00001
10000
00100
00000
10000
00001
,
00100
11000
00000
10010
00000
01000
00010
01000
,
02000
00000
00000
00000
03001
00000
00000
10000
00100
00000
00000
00000
00010
00000
00000
00000
,
00002
01000
00100
00010
,
00203
10000
00001
01300
,
20000
00001
00100
00010
,
30002
00100
10000
00100
,
02003
00010
00100
00010
,
03002
00100
10000
00100
,
20003
01000
00010
00001
,
30020
00100
00001
00100
,
02030
00100
00100
00100
,
03020
00100
00100
00100
,
00032
00100
00100
00100
,
20003
32000
03200
00320
,
00032
00023
00230
02300
,
23000
32000
03200
00320
,
00032
00000
00000
00000
,
00200
00000
00000
00303
;
