#TITLE:Driving Through the Night;
#SUBTITLE:;
#ARTIST:M.O.V.E;
#TITLETRANSLIT:;
#SUBTITLETRANSLIT:;
#ARTISTTRANSLIT:;
#GENRE:;
#CREDIT:;
#MUSIC:Driving Through the Night.ogg;
#BANNER:Driving Through the Night-bn.png;
#BACKGROUND:Driving Through the Night-bg.png;
#CDTITLE:./CDTITLES/In The Groove Xtreme.PNG;
#SAMPLESTART:47.970;
#SAMPLELENGTH:12.000;
#SELECTABLE:YES;
#OFFSET:-0.178;
#BPMS:0.000=122.973;
#STOPS:;
#BGCHANGES:;
#FGCHANGES:;

//--------------- dance-single - M. Zuki ----------------
#NOTES:
     dance-single:
     M. Zuki:
     Beginner:
     1:
     0.172,0.202,0.017,0.198,0:
0000
0000
0000
0000
,
0000
0000
0000
0000
,
0000
0000
0000
0000
,
0000
0000
0000
0000
,
0000
0000
0000
0000
,
1000
0000
0010
0000
,
0100
0000
1000
0000
,
0010
0000
0010
2002
,
0000
0000
0000
3003
0000
0000
0100
0000
,
0000
0100
0000
0010
,
0100
0000
1000
0100
,
1000
0000
0100
0000
,
0010
0000
0100
0000
,
1000
0000
0001
0000
,
1000
0000
0010
0000
,
1000
0000
0001
0000
,
0100
0000
0100
0000
,
0100
0000
0001
0000
,
1000
0010
0200
0000
,
0000
0000
0300
1000
,
0000
0001
0000
0010
,
0000
1000
0001
0000
,
0010
0000
1000
0000
,
0001
0000
0100
2000
,
0000
0000
0000
0000
0100
3000
0000
0000
,
0001
0100
0000
0010
,
0000
0020
0030
0001
,
0000
0100
0000
0010
,
0000
0200
0000
0301
,
0000
1000
0000
0010
,
0000
0002
1000
0003
,
0010
0000
1000
0020
,
0000
0032
0000
1003
,
0000
0010
0000
0100
,
0000
0010
0000
1000
,
0000
0001
0000
0020
,
0000
2030
0000
3200
,
0000
0000
0002
0300
0003
0000
1000
0000
,
0000
0010
0000
1000
,
0000
0200
1000
0300
,
0001
0000
1000
0002
,
0000
2003
0000
3020
,
1030
0000
0001
0200
,
0000
0000
1300
0000
,
0001
0000
0010
0000
,
0100
0000
0001
0000
,
1000
0000
0010
0000
,
0010
0000
1000
0000
,
0001
0000
0100
0000
,
0001
0000
0100
0000
,
1000
0010
0000
0100
,
0000
0200
0000
1300
,
0000
0000
2000
0000
0000
3000
0001
0000
,
0000
1000
0000
0400
,
0000
0000
0000
0000
0000
0000
0000
0000
0000
0300
0000
0000
1000
0000
0000
0000
,
0010
0000
0020
0000
0000
0030
1000
0000
,
0010
0002
0000
1003
,
0000
0010
0000
1000
,
0000
0001
0000
1001
;

//--------------- dance-single - M. Zuki ----------------
#NOTES:
     dance-single:
     M. Zuki:
     Easy:
     3:
     0.264,0.278,0.026,0.198,0:
0000
0000
0000
0000
,
0000
0000
0000
0000
,
0000
0000
0000
0000
,
0000
0000
0000
0000
,
0000
0000
0000
1000
,
0100
1000
0010
0010
,
0100
0100
1000
0001
,
1000
0000
0100
0000
0010
0000
0000
2002
,
0000
0000
0000
0000
3003
0000
0100
0010
,
0100
1000
0100
0100
,
0100
0000
0000
0000
0001
0000
0100
1000
,
0001
0100
0001
0010
,
1000
0000
0010
0000
0000
0000
1000
0100
,
0001
0010
1000
0100
,
1000
0000
0100
0000
0000
0000
1000
0100
,
0100
0001
0010
0100
,
1000
0100
0000
0100
,
1000
0100
0010
1000
,
0010
0200
0000
0000
,
0000
0300
1000
0100
,
0010
0100
0001
0100
,
0100
0001
0000
0000
0100
0000
0010
0000
,
0001
1000
0100
0100
,
1000
0010
0100
2000
,
000M
000M
3100
0010
,
0001
1000
0100
0000
0010
0000
1000
0000
,
0100
0020
1030
0000
,
0100
0010
1000
0110
,
0001
0200
0000
0301
,
0001
0000
1000
0000
0100
1000
0100
0000
,
0100
0002
1003
0100
,
0010
0100
1000
0020
,
0000
0032
0000
1003
,
0100
0000
0001
0000
0100
0000
0010
1000
,
0001
0100
1000
0010
,
0100
0002
0103
0020
,
0000
2030
0000
3200
,
0000
0000
0002
0300
0003
0000
0100
0000
,
0010
0001
0100
0100
,
0001
0200
0000
1300
,
0001
0010
0100
0002
,
0000
2003
0000
3020
,
1030
0000
0100
0000
0001
0200
0000
0000
,
0000
0000
0000
0300
1000
0000
0100
0000
,
0000
0010
0001
1000
,
0100
0010
0000
0100
,
1000
0100
1000
0100
,
0010
0001
1000
0010
,
0010
0100
0001
0010
,
1000
0010
0001
0010
,
1000
0010
0100
0100
,
0001
0200
0000
1300
,
0010
0000
2000
0000
0000
3000
0001
0000
,
1000
0100
0001
0400
,
0000
0000
0000
0000
0000
0000
0000
0000
0000
0300
0000
0000
1000
0000
0000
0000
,
0010
0000
0020
0000
0000
0030
1000
0000
,
0010
0002
0000
1003
,
0010
1000
0100
0010
,
0100
0010
1000
1001
;

//--------------- dance-single - M. Zuki ----------------
#NOTES:
     dance-single:
     M. Zuki:
     Medium:
     6:
     0.404,0.41,0.069,0.206,0.129:
0000
0000
0000
0000
,
0000
0000
0000
0000
,
0000
0000
0000
0000
,
0000
0000
0000
0000
,
0000
0000
0000
0000
0000
0000
1000
0100
,
0001
1000
0000
0010
0100
0010
1000
0100
,
0010
0100
0010
0000
1000
0001
0010
1000
,
0100
0001
0010
0000
0100
0010
1000
0001
,
0020
0000
0000
0000
0000
0000
0130
0000
2000
0000
0000
3000
0100
0000
0010
0000
,
0001
0100
0001
0000
1000
0100
1000
0100
,
0010
0100
0000
0000
1000
0000
0100
1000
,
0100
0001
0000
0100
0010
0001
1000
0010
,
0100
1000
0000
0010
0000
0000
1000
0100
,
0010
0001
0000
0010
0100
1000
0001
0100
,
0010
1000
0000
0000
0001
0000
1000
0100
,
0010
0100
0000
0001
0100
0010
1000
0100
,
0010
0000
0000
2000
0000
0000
0000
0000
0000
0000
0000
3000
0100
0000
0000
0000
,
0001
1000
0000
0100
0010
0100
0000
0001
,
1000
0000
0100
0000
0010
0000
0000
2000
0000
0000
0000
0000
0000
0000
0000
0000
,
0000
3000
0110
0010
,
1000
0001
0100
1001
,
0100
0001
0000
0100
1000
0010
0000
0001
,
0100
0000
1000
0000
0001
0000
0000
0100
0000
0000
0100
0000
0010
0000
1000
0000
,
0100
0000
0010
0000
1000
0000
0100
0000
0010
0000
1000
0000
0440
M000
000M
M000
,
000M
M000
000M
M000
000M
M330
0000
0000
1001
0000
0000
0000
0100
0000
0010
0000
,
1000
0000
0001
0100
0000
0000
0000
0000
1001
0000
0100
0000
0010
0000
0001
0000
,
0010
0000
1000
0000
0000
0000
0000
0000
0100
0000
1000
0000
0001
0000
0000
0100
,
0000
0000
0010
0000
1000
0000
0000
0001
0000
0000
0110
0000
1000
0000
0001
0000
,
0100
0000
0100
0020
0000
0000
0000
0000
0000
0030
0001
0000
1000
0000
0001
0000
,
0100
0000
1000
0010
0000
0000
0000
0000
0100
0000
1000
0000
0010
0000
0100
0000
,
0001
0000
1000
0000
0000
0000
0000
0000
0100
0000
1000
0000
0001
0000
0000
1000
,
0000
0000
0100
0000
0001
0000
0000
0100
0000
0000
1000
0000
0002
0000
0000
0000
,
0000
0000
1003
0000
0200
0000
0000
0000
0000
0300
0010
0000
0100
0000
0000
0000
,
0002
0000
0203
0000
4300
0000
3001
1000
,
0100
0000
0001
0100
0000
0000
0000
0000
0010
0000
1000
0000
0100
0000
1000
0000
,
0010
0000
0001
0100
0000
0000
0000
0000
1000
0000
0001
0000
0100
0000
0000
1000
,
0000
0000
0001
0000
0100
0000
0000
0010
0000
0000
0100
0000
1000
0000
0001
0000
,
0100
0000
0010
4000
0000
0000
0000
3000
0000
0000
0100
0000
1000
0000
0010
0000
,
0100
0000
0001
0100
0000
0000
0000
0000
1000
0000
0100
0000
0010
0000
0001
0000
,
0010
0000
1000
0100
0000
0000
0000
0000
0100
0000
1000
0000
0001
0000
0000
0100
,
0000
0000
0010
0000
1000
0000
0000
0100
0000
0000
0001
0000
2000
0000
0000
0000
,
0000
3100
0002
0000
0000
1003
0010
0000
,
0200
0000
0000
0000
2300
0000
0000
0000
3100
0000
0000
0200
0000
0000
0000
0000
,
0000
0000
0000
0000
0000
0000
0000
0000
2300
0000
0000
0000
3002
0000
0000
0003
,
0000
0010
0000
0001
0110
1000
0001
0100
,
0010
0010
1000
0000
0100
0100
0010
1000
,
0000
0000
0100
0000
0010
0000
1000
0000
0001
0000
0100
0000
1000
0000
0000
0010
,
0000
0000
0001
0000
1000
0000
0000
0001
0000
0000
0010
0000
1000
0000
0000
0002
,
0000
0000
0000
0000
0000
0000
0000
0000
0000
0003
0000
0000
0001
0000
1000
0000
,
0100
0010
0100
0001
0100
0010
2002
0000
,
0000
0000
0000
0000
0000
0000
0000
3003
0000
0000
0100
0000
0010
0000
0001
0000
,
1000
0200
0000
0000
0000
1300
0001
0010
,
0100
2000
0000
0000
3000
0001
0100
1000
,
0001
0100
1000
0001
1000
0400
0000
0000
,
0000
0000
0000
0000
0000
0000
0000
0300
0000
0000
1000
0000
0001
0000
0010
0000
,
0100
0020
0000
0000
0030
1000
0100
0010
,
0100
0002
0000
0000
0000
1003
0100
0010
,
0100
0000
1000
0000
0010
0000
0100
0000
1000
0000
0010
0004
0000
0000
0000
0000
,
0000
0000
0000
0000
0000
0000
0103
0000
0010
0000
0000
2000
0000
0000
0000
0000
,
0000
0000
3000
0000
;

//--------------- dance-single - M. Zuki ----------------
#NOTES:
     dance-single:
     M. Zuki:
     Hard:
     8:
     0.558,0.666,0.361,0.232,0.645:
0000
0000
0000
0000
,
0000
0000
0000
0000
,
0000
0000
0000
0000
,
0000
0000
0000
0000
,
0000
0000
0000
0000
0000
0000
0000
0000
0000
0000
0000
0000
1000
0000
0100
1000
,
0000
0010
0000
0001
0000
1000
0000
0000
0100
0000
0010
0000
1000
0000
0100
0010
,
0000
0001
0100
1000
0010
0100
0000
0000
2020
0000
3032
0000
0113
0000
1000
0000
,
0100
1000
0000
0001
0010
0100
0000
1000
0000
0010
0100
0000
1000
0100
1000
0000
,
0010
0100
0000
1000
0000
0001
0000
0100
2000
0000
0000
3000
0100
0000
0010
0001
,
0000
0100
0000
1000
0000
0100
0000
0000
1001
0000
0100
0000
1000
0000
0100
0010
,
0000
0000
0000
1000
0000
0000
0000
0000
0000
0200
0000
0000
0000
0000
0000
0000
0000
0000
0000
0000
0000
0300
0002
0000
0000
0000
0000
0000
0000
0000
0000
0000
0000
0000
0000
0000
0103
0000
0000
0000
0000
0000
1000
0000
0000
0100
0000
0000
,
0000
0010
0000
1000
0000
0000
0100
0000
0010
0000
0001
0000
1000
0000
0010
0100
,
0000
1000
0000
0002
0000
0003
0000
0220
0000
0000
0000
0330
1000
0000
0100
0010
,
0000
0001
0000
1000
0000
0000
0010
0000
0100
0000
1000
0000
0001
0000
0100
0010
,
0000
0001
0000
2200
0000
0000
0000
0000
3301
0000
0000
0000
1000
0000
0100
0010
,
0000
0001
0000
1000
0000
0000
0001
0000
0100
0000
0010
0000
1000
0000
0100
0010
,
0000
0001
0000
2004
0000
0000
0000
0000
0000
0000
0000
3003
0100
0000
0000
0000
,
0001
1000
0000
0100
0010
0100
0000
0001
,
1000
0000
0100
0000
0010
0000
0000
4004
0000
0000
0MM0
3M03
M0MM
0M00
00M0
M00M
,
0000
MM0M
00M0
M000
000M
0000
0000
0000
0110
0000
1000
0000
0010
0000
0100
0000
,
1000
0010
0001
1000
0100
0000
1001
0000
,
0100
0001
0000
0100
1000
0010
0000
0001
,
0100
0000
1000
0000
0001
0000
0000
1000
0000
0000
0100
0000
0010
0000
1000
0000
,
0100
0000
0010
0001
0000
1000
0100
0000
0010
0000
1000
0000
0440
M000
000M
M000
,
000M
M000
000M
M000
000M
M330
0000
0000
1001
0000
0000
0000
0100
0000
0010
0000
,
1000
0000
0001
0100
0000
0000
0000
0000
1001
0000
0100
0000
0010
0100
0001
1000
,
0010
0000
1000
0001
0000
0000
0000
0000
0110
0000
1000
0000
0001
0000
0000
0100
,
0000
0000
0110
0000
1000
0000
0000
0001
0000
0000
0110
0000
1000
0000
0001
0000
,
0100
0000
0100
0020
0000
0000
0000
0000
0000
0030
0001
0000
1000
0000
0001
0000
,
0100
0000
1000
0010
0000
0000
0000
0000
0100
0000
1000
0000
0010
1000
0100
0010
,
0100
0000
1000
0010
0000
0000
0000
0000
0100
0000
1000
0000
0001
0000
0000
1000
,
0000
0000
0100
0000
0001
0000
0000
0100
0000
0000
1000
0000
0001
0000
0110
0000
,
0110
1000
0100
0011
1100
0010
0100
0000
,
4002
0000
3243
0000
4330
0000
3001
1000
,
0100
0000
0001
0100
0000
0000
0000
0000
0010
0000
1000
0000
0100
0001
1000
0100
,
0010
0000
0001
0100
0000
0000
0000
0000
1000
0000
0001
0000
0100
0000
0000
1000
,
0000
0000
1001
0000
0100
0000
0000
0010
0000
0000
0100
0000
1000
0000
0001
0000
,
0100
0000
0010
4000
0000
0000
0000
3000
0000
0000
0100
0000
1000
0000
0010
0000
,
0100
0000
0001
0100
0000
0000
0000
0000
1000
0000
0100
0000
0010
1000
0001
0100
,
0010
0000
1000
0100
0000
0000
0000
0000
0100
0000
1000
0000
0001
0000
0000
0100
,
0000
0000
0010
0000
1000
0000
0000
0100
0000
0000
0001
0000
1000
0000
0110
0000
,
0110
1000
0001
0110
0110
1000
0010
0000
,
0240
0000
0000
0000
2334
0000
0000
0000
3103
0000
0000
0110
0000
0000
0100
0000
,
1000
0000
0010
0000
0100
0010
0100
0000
1000
0001
0000
0100
0000
1000
0000
0001
,
0000
0100
0010
0100
0000
1000
0001
0000
0110
0000
1000
0000
0001
0000
0100
0000
,
0010
0100
0010
0000
1000
0001
0000
0100
0000
1000
0000
0001
0000
0100
1000
0100
,
0000
0001
0100
0000
0010
0000
1000
0000
0001
0000
0200
0000
4300
0000
0000
3020
,
0000
0000
0034
0000
2003
0000
0000
3004
0000
0000
0223
0000
4330
0000
0000
3002
,
0000
0000
1003
0000
0100
0010
0000
0001
0010
0100
0000
1000
0001
0100
0010
0100
,
0000
1000
0000
0001
0000
0100
0010
0000
1000
0001
0100
0010
2002
0000
0000
0000
,
0000
0000
0000
0000
0000
0000
0000
3003
0000
0000
0100
1000
0010
0000
0001
1000
,
0000
0001
0000
0110
0000
0000
0110
0000
0000
0000
1000
0100
0001
0000
0010
0100
,
0000
1000
0000
0110
0000
0000
0110
0000
0000
0000
1000
0010
0100
0000
1000
0000
,
0001
0000
0100
0000
1000
0000
0001
0100
1000
0001
0400
M0MM
M0MM
M0MM
M0MM
M0MM
,
M0MM
M0MM
M0MM
M0MM
M0MM
M0MM
M0MM
M3MM
M0MM
0000
1000
0100
0001
0000
0010
0100
,
0000
1000
0000
0001
0000
0110
0000
0000
0110
0000
1000
0001
0100
0000
0010
1000
,
0000
0100
0000
0001
0000
0110
0000
0000
0110
0000
1000
0001
0100
0000
0010
1000
,
0000
0001
0000
0100
0000
0000
0100
0000
1000
0000
0010
4004
0000
0000
0000
0000
,
0000
0000
0000
0000
0000
0000
3103
0000
0010
0000
0000
2002
0000
0000
0000
0000
,
0000
0000
3003
0000
;

//--------------- dance-single - M. Zuki ----------------
#NOTES:
     dance-single:
     M. Zuki:
     Challenge:
     9:
     0.604,0.666,0.284,0.232,0.731:
0000
0000
0000
0000
,
0000
0000
0000
0000
,
0000
0000
0000
0000
,
0000
0000
0000
0000
,
0000
0000
0000
0000
0000
0000
0000
0000
0000
0000
0000
0000
0100
0010
0001
0100
,
0001
1000
0000
0010
0001
0100
0000
0000
0001
0000
1000
0000
0100
0000
0001
1000
,
0100
0010
0001
0100
1000
0001
0000
0000
0200
0000
0320
0000
1030
0000
0100
0000
,
0001
0100
0000
0010
1000
0001
0000
0100
0000
1000
0001
0000
0100
0001
0100
0000
,
1000
0001
0000
0100
0000
0010
0000
0001
0200
0000
0000
0300
0001
0000
1000
0010
,
0000
0001
0000
0100
0000
0001
0000
0000
0110
0000
0001
0000
0100
0000
0001
1000
,
0001
0000
0000
0100
0000
0000
0000
0000
0000
0002
0000
0000
0000
0000
0000
0000
0000
0000
0000
0000
0000
0003
0020
0000
0000
0000
0000
0000
0000
0000
0000
0000
0000
0000
0000
0000
0031
0000
0000
0000
0000
0000
0100
0000
0000
0001
0000
0000
,
0000
1000
0000
0100
0000
0000
0001
0000
1000
0000
0010
0000
0100
0001
1000
0001
,
0000
0100
0000
0020
0000
0030
0000
2002
0000
0000
0000
3003
0100
0000
0001
1000
,
0000
0010
0000
0100
0000
0000
1000
0000
0001
0000
0100
0001
0010
0000
0001
1000
,
0000
0010
0000
0202
0000
0000
0000
0000
0313
0000
0000
0000
0100
0000
0001
1000
,
0000
0010
0000
0100
0000
0000
0010
0000
0001
0000
1000
0000
0100
0010
0001
1000
,
0000
0010
0000
0240
0000
0000
0000
0000
0000
0000
0000
0330
0001
0000
0100
0000
,
0010
0100
1000
0001
1000
0001
0100
0010
,
0100
0000
0001
0000
1000
0000
0000
0440
0000
0000
0000
0331
1000
0000
0100
0001
,
0000
0010
0001
0000
0001
1000
0000
0000
1001
0000
0400
0000
4300
0000
3040
0000
,
0430
4300
3040
0430
0304
0003
0110
0000
,
0001
0010
1000
0001
0100
1000
0100
0010
,
0001
0000
0100
0000
0010
0000
0000
0100
0000
0000
0001
0000
1000
0000
0100
0000
,
0001
0000
1000
0010
0000
0100
0001
0000
1000
0000
0100
0000
4004
0M00
00M0
0M00
,
00M0
0M00
00M0
0M00
00M0
3M03
0000
0000
0110
0000
0000
0000
0001
0000
1000
0000
,
0100
0000
0010
0001
0000
0000
0000
0000
0110
0000
0001
0000
1000
0001
0010
0100
,
1000
0000
0100
0010
0000
0000
0100
0000
1001
0000
0100
0000
0010
0000
0000
0001
,
1000
0000
1001
0000
0100
0000
0000
0010
0001
0000
1001
0000
0100
0000
0010
0000
,
0001
0000
0001
2000
0000
0000
0000
0100
0000
3100
0010
0000
0100
0000
0010
0000
,
0001
0000
0100
1000
0000
0000
0000
0000
0001
0000
0100
0000
1000
0100
0001
1000
,
0001
0000
0100
1000
0000
0000
0000
0000
0001
0000
0100
0000
0010
0000
0000
0100
,
0000
0000
0001
0000
0010
0000
0000
0001
0000
0000
0100
0000
0010
0000
1001
0000
,
1001
0000
0100
1000
0001
0000
1010
0000
0101
0000
1000
0100
0001
0000
0000
0000
,
0420
0000
4332
0000
3403
0000
0310
0100
,
0001
0000
0010
0001
0000
0000
0000
0000
1000
0000
0100
0000
0001
0010
0100
0001
,
1000
0000
0010
0001
0000
0000
0000
0000
0100
0000
0010
0000
0001
1000
0000
0100
,
0000
0000
0110
0000
0001
1000
0000
1000
0000
0000
0001
0000
0100
0000
0010
0000
,
0001
0100
1000
0400
0000
0000
0000
0300
0000
0000
0001
0000
0100
0000
1000
0000
,
0001
0000
0010
0001
0000
0000
0000
0000
0100
0000
0001
0000
1000
0100
0010
0001
,
1000
0000
0100
0001
0000
0000
0000
0000
0001
0000
0100
0000
0010
0000
0000
0001
,
1000
0000
1000
0000
0100
0000
0000
0001
1000
0000
0010
0000
0100
0000
1001
0000
,
1001
0000
0100
0001
0010
0000
1001
0000
1001
0000
0100
0010
1000
0000
0000
0000
,
4002
0000
0000
0000
3243
0000
0000
0000
0331
0000
0000
1001
0000
0100
0001
0000
,
0100
0001
1000
0000
0001
1000
0001
0000
0100
0010
0000
0001
1000
0100
0000
0010
,
0100
0001
0000
0001
0000
0100
0010
0000
1001
0000
0100
0000
0010
0000
0001
0000
,
1000
0001
1000
0000
0100
0010
0000
0001
0000
0100
0000
0010
0000
0001
0100
0001
,
0000
0010
0001
0000
1000
0000
0100
0000
0010
0000
MM02
0000
0403
000M
0000
230M
,
00M0
00M0
304M
0000
023M
0000
M000
0340
000M
0000
2M32
0000
34M3
0000
000M
0320
,
M000
0000
0130
0000
0001
1000
0000
0010
1000
0001
0000
0100
0010
0001
1000
0001
,
0000
0100
0000
0010
0000
0001
1000
0000
0100
0010
0001
1000
0224
0000
0000
0000
,
0000
0000
0000
0000
0000
0000
0000
0333
0000
0000
0001
0100
1000
0000
0010
0100
,
0000
0010
0000
1000
0100
0010
0001
0000
0000
0000
0100
0001
0010
0000
1000
0001
,
0000
0100
0000
1000
0100
0010
0001
0000
0000
0000
0100
1000
0001
0000
0100
0000
,
0010
0000
0001
0000
0100
0000
0010
0001
0100
0010
2004
0MM0
0MM0
0MM0
0MM0
0MM0
,
0MM0
0MM0
0MM0
0MM0
0MM0
0MM0
0MM0
3MM3
0MM0
0000
0100
0001
0010
0000
1000
0001
,
0000
0100
0000
0010
0000
1000
0100
0010
0001
0000
0100
0010
0001
0000
1000
0100
,
0000
0001
0000
0010
0000
1000
0100
0010
0001
0000
0100
0010
0001
0000
1000
0100
,
0000
0010
0000
0001
0000
0000
0001
0000
0100
0000
1000
0440
0000
0000
0000
0000
,
0000
0000
0000
0000
0000
0000
0331
0000
1000
0000
0000
0220
0000
0000
0000
0000
,
0000
0000
0330
0000
;
