#TITLE:オネガイ・ディスコ・ミュージック;
#SUBTITLE:;
#ARTIST:星野奏子 Prod by.uno;
#TITLETRANSLIT:Onegai disco music;
#SUBTITLETRANSLIT:;
#ARTISTTRANSLIT:Kanako Hoshino Prod by.uno;
#GENRE:;
#CREDIT:;
#MUSIC:Onegai disco music.ogg;
#BANNER:Onegai disco music.png;
#BACKGROUND:Onegai disco music-bg.png;
#CDTITLE:;
#SAMPLESTART:61.663;
#SAMPLELENGTH:15.000;
#SELECTABLE:YES;
#OFFSET:-0.000;
#BPMS:0.000=124.000;
#STOPS:;
#BGCHANGES:;
#FGCHANGES:;

//--------------- dance-single - forcednature ----------------
#NOTES:
     dance-single:
     forcednature:
     Beginner:
     3:
     0,0,0,0,0:
0000
0000
0000
0000
,
0000
0000
0000
0000
,
0000
0000
0000
0000
,
0000
0000
0000
0000
,
0000
0000
0000
0000
,
1001
0000
0000
0000
,
0010
0000
0100
0000
,
0100
0000
0000
0000
,
1001
0000
0010
0000
,
2002
0000
0000
0000
,
3003
0000
0000
0000
,
1001
0000
0001
0000
,
0100
0000
0000
0000
,
0010
0000
1000
0000
,
0001
0000
1000
0000
,
0110
0000
0001
0000
,
1000
0000
0010
0000
,
0000
0000
0100
0000
,
0010
0010
0000
0000
,
1001
0000
1000
0000
,
0100
0000
0000
0000
,
0010
0000
0001
0000
,
0100
0000
0001
0000
,
1001
0000
1000
0000
,
0010
0000
0000
0000
,
0100
0000
0100
0000
,
0010
0000
0000
0000
,
1001
0000
0000
0000
,
0010
0010
0010
0000
,
1001
0000
0000
0000
,
0100
0100
0100
0000
,
2002
0000
3003
0000
,
1001
0000
0010
0000
,
1000
0100
0010
0000
,
0100
0000
1000
0000
,
0001
0001
0001
0000
,
1001
0000
1000
0000
,
0010
0000
0100
0000
,
0001
0000
0010
0000
,
0100
0100
0100
0000
,
1001
0000
1000
0000
,
0010
0000
0000
0000
,
0100
0000
0001
0000
,
1000
1000
1000
0000
,
1001
0000
0001
0000
,
0010
0000
0100
0000
,
1000
0000
0010
0000
,
0100
0100
0100
0000
,
0110
0000
0001
0000
,
1000
0000
0000
0000
,
0100
0000
1000
0000
,
0010
0000
1000
0000
,
1001
0000
0001
0000
,
0010
0000
0100
0000
,
0000
0000
0010
0000
,
0100
0100
0000
1000
,
1001
0000
0000
0000
;

//--------------- dance-single - forcednature ----------------
#NOTES:
     dance-single:
     forcednature:
     Easy:
     6:
     0,0,0,0,0:
0000
0000
0000
0000
,
0000
0000
0000
0000
,
0000
0000
0000
0000
,
0000
0000
0000
0000
,
0000
0000
0000
0000
,
2002
0000
3003
0000
,
1001
0000
0000
0110
0000
0000
0000
2002
,
0000
0000
0000
3003
0000
0000
0000
0220
,
0000
0330
0100
0010
,
2002
0000
0000
3003
,
1000
0001
0100
0000
,
0110
1000
0001
0000
,
0010
0100
1000
0100
,
0010
0001
1000
0000
,
0001
0100
0010
1000
,
1001
0001
0010
0000
,
0100
0000
1000
0000
0010
0000
0000
0110
,
0000
0100
0001
1000
,
1001
0000
1001
0000
0000
0100
0100
0000
,
1001
1000
0001
0100
,
0020
0000
0000
0030
,
1000
0100
1000
0010
,
0200
0302
0203
0300
,
0110
0001
0010
0100
,
1000
0000
0010
0100
,
0001
0001
0000
0000
1000
1000
0000
0000
,
0010
0100
0010
0000
,
2002
0000
0000
3003
,
1000
0100
0010
0001
,
2002
0000
0000
3003
,
0001
0100
0010
1000
,
0200
0000
0000
0000
0300
0010
0010
0000
,
2002
3003
0220
0330
,
0001
1000
0010
0000
,
0100
0001
0010
0001
,
0100
0010
1000
0000
,
2002
3003
0220
0330
,
0001
0000
0100
0000
0010
0000
0000
1001
,
0000
1000
0100
0010
,
0001
0100
0010
0000
,
2002
3003
0220
0330
,
0001
1000
0010
0000
,
0100
0001
1000
0100
,
0010
0100
1000
0000
,
2002
3003
0220
0330
,
0001
0000
0100
0000
0010
0000
0000
2002
,
0000
3003
1000
0100
,
1000
0010
0100
0000
,
1001
1000
0010
0010
,
0100
1000
0100
0001
,
0010
0100
0010
0010
,
0001
1000
0010
0100
,
1001
0001
0100
0001
,
1000
0000
0100
0000
0010
0000
0000
1001
,
0000
1000
0010
0100
,
1001
0000
1001
0000
0000
0100
0100
0000
,
1001
0000
0000
0000
;

//--------------- dance-single - forcednature ----------------
#NOTES:
     dance-single:
     forcednature:
     Medium:
     9:
     0,0,0,0,0:
0000
0000
0000
0000
,
0000
0000
0000
0000
,
0000
0000
0000
0000
,
0000
0000
0000
0000
,
0000
0000
0000
0000
,
1001
0001
1000
0000
,
0101
0000
0000
1100
0000
0000
0000
2002
,
0000
0000
0000
3003
0000
1000
0001
1000
,
0000
0010
0100
0001
0010
0100
1000
0000
,
2002
0000
0000
3003
,
0001
0100
1000
0100
0010
1000
0001
0000
,
1010
0000
0101
0000
1000
0100
0001
0000
,
0100
0010
0001
1000
0001
0100
0010
0000
,
1000
1000
1000
0100
0010
0001
0100
0000
,
0001
0001
0001
0100
0010
1000
0100
0000
,
0011
0000
1100
0000
0001
0100
1000
0000
,
0110
0000
1001
0000
1000
0100
0010
0011
,
0000
0000
0100
0000
0001
1000
0010
0000
,
0101
0000
1100
0000
0000
0010
0110
0000
,
1001
0000
1000
0100
0001
0100
1000
0001
,
0200
0010
1000
0310
,
0100
0001
1000
0100
1000
0010
0000
1010
,
0000
0011
0000
2002
0000
0000
0000
3003
,
1001
0000
0001
0010
1000
0010
0100
1000
,
0010
0000
0110
0000
0001
1000
0010
0001
,
0010
1000
0000
0001
0010
1000
0000
0110
,
0000
1000
0001
0100
0020
0000
0030
0000
,
2001
0100
0001
0010
,
3001
1000
0100
1000
0010
0100
0001
0000
,
1002
0100
1000
0013
,
1000
0001
0100
0010
1000
0001
0010
0100
,
0010
0010
0010
0010
0000
0100
0100
0000
,
1001
0000
0000
0000
1000
0000
0001
0200
0000
0000
0300
0000
0010
0000
1000
0000
,
0001
0000
1000
0000
0100
0000
0010
0002
0000
0000
0010
0000
0013
0000
0000
0000
,
1000
0001
0100
0010
1000
0100
0010
0011
,
0000
0001
0100
1000
0100
0010
0010
0000
,
1001
0000
0000
0000
0001
0000
1000
0020
0000
0000
0030
0000
1000
0000
0100
0000
,
0010
0000
0001
0000
1000
0000
0001
0100
0000
0000
0110
0000
0000
0000
2001
0000
,
0000
0000
0010
0000
3001
1000
0100
1001
,
0000
1000
0100
0001
0100
0010
0010
0000
,
1001
0000
0000
0000
0001
0000
1000
0200
0000
0000
0300
0000
1000
0000
0001
0000
,
0100
0000
0010
0000
1000
0000
0001
0020
0000
0000
0100
0000
0130
0000
0000
0000
,
0010
0001
1000
0010
0001
0010
0100
0110
,
0000
0001
0010
1000
0010
0100
0100
0000
,
1100
0000
0000
0000
0001
0000
0100
0002
0000
0000
0003
0000
1000
0000
0010
0000
,
1000
0000
0001
0000
0010
0000
0100
1000
0000
0000
1001
0000
0000
0000
0220
0000
,
0000
0330
1000
0001
1000
0010
0100
0101
,
0000
0001
0010
0100
1000
0100
0010
0000
,
1001
0000
0101
0000
0001
0010
1000
0000
,
0010
0100
1000
0010
0001
0010
0100
0000
,
0001
0001
0001
0100
1000
0100
0001
0000
,
1000
1000
1000
0100
0001
0100
1000
0000
,
0110
0000
1001
0000
1000
0010
0001
0000
,
0010
0100
0001
0010
0100
0001
0100
0110
,
0000
0000
0001
1000
0010
0100
0001
0000
,
0101
0000
1100
0000
0000
0010
0110
0000
,
1001
0000
0000
0000
;

//--------------- dance-single - forcednature ----------------
#NOTES:
     dance-single:
     forcednature:
     Hard:
     14:
     0,0,0,0,0:
0000
0000
0000
0000
,
0000
0000
0000
0000
,
0000
0000
0000
0000
,
0000
0000
0000
0000
,
0000
0000
0000
0000
0000
0000
0000
0001
,
1001
0000
0000
0000
1000
0000
0010
0100
0000
0000
0000
0000
0001
0000
1000
0000
,
1001
0000
1000
0000
0100
0000
0010
0001
0000
0000
1001
0000
0000
0000
0220
0000
,
0000
0000
0000
0330
0000
1000
0001
1001
,
0000
0001
0100
0010
1010
1000
0100
0000
,
0120
0100
0100
0130
,
0100
0000
0000
0010
0000
0000
0001
0000
1000
0001
0000
0000
0100
0000
0010
1000
0000
0000
0200
0000
0000
0300
0000
0000
,
0110
0000
0000
0000
0000
0001
0000
0000
0100
0010
0000
0000
1000
0000
0000
0100
0000
1000
0010
0000
0000
0100
0000
0000
,
0010
0000
0000
1000
0001
0000
0010
0001
0100
0000
0010
1000
0100
0000
1000
0001
,
0010
0000
0000
0000
0000
0100
0000
0000
1000
0001
0000
0000
0100
0000
0000
0001
0000
1000
0100
0000
0000
0000
0000
0000
,
0010
0000
0000
0000
0000
0001
0000
0000
0000
0100
0000
0000
0010
0000
0100
0001
0000
0000
1000
0000
0000
0001
0000
1000
,
0100
0000
0000
0000
0000
0010
0000
0000
0001
1000
0000
0000
0010
0000
0000
0100
0000
0001
1000
0000
0000
0100
0000
0000
,
0010
0000
0000
0001
0100
0000
0010
1000
0001
0000
0010
0001
1000
0000
1001
0000
,
0000
0000
0000
0000
0000
0001
0100
0000
0010
1000
0000
0000
0001
0000
0000
1000
0000
0100
0000
0000
0000
0010
0000
0001
,
1000
0000
0000
0001
0000
0000
1001
0000
0000
1000
0000
0000
0010
0000
0010
0100
0000
0000
1001
0000
0000
0000
0000
0000
,
1000
0000
0100
0000
1000
0000
0010
0000
0100
0000
1000
0100
0000
0001
0000
0010
,
0200
0000
0010
0000
0010
0010
0310
0000
,
0010
0000
0001
1000
0010
0000
0100
0000
0001
0000
0010
0000
0100
0000
1100
0000
,
0000
0101
0000
0021
0000
1000
1000
0030
,
0110
0000
0001
1000
0010
0000
0100
0000
0001
0000
0010
0100
0000
0010
0000
0001
,
0200
0000
0000
0000
0310
0000
1000
0001
0010
0000
0100
0000
1000
0000
0001
0000
,
0011
0101
0000
1000
1010
1100
0000
1001
,
0000
0000
0000
0001
0000
0000
0100
0000
0000
1000
0000
0000
0100
0000
0010
1000
0000
0000
1000
0000
0000
0000
0000
0000
,
1002
0000
0010
0000
1003
0001
0100
0010
,
2000
0000
0100
0000
3001
1000
0010
0000
,
1002
0000
0100
0000
1003
0001
0100
0010
,
1000
0100
0001
0100
1000
0010
0001
0010
,
0200
0000
0000
0010
0000
0000
0310
0000
0000
0100
0000
0000
0000
0000
0000
0110
0000
0000
0110
0000
0000
1000
0000
0001
,
2000
0000
0000
0000
3100
0000
0010
0001
0200
0000
0000
0000
0310
0000
1000
0000
,
0001
0000
0010
0000
1000
0000
0010
0100
2000
0000
0001
0000
3001
0000
0000
0000
,
1000
0001
0100
1000
0100
0010
1000
0101
,
0000
1000
0101
1000
0101
0010
0010
0100
,
1002
0000
0000
0000
1003
0000
0010
0100
0002
0000
0000
0000
0013
0000
0100
0000
,
0010
0000
0001
0000
0100
0000
0010
1000
0001
0000
0010
0000
0100
0000
1200
0000
,
0000
0001
0001
0000
1300
0100
0010
0021
,
0000
0000
0000
1000
0000
0000
1000
0000
0000
0100
0000
0000
0031
0000
0000
0010
0000
0000
0010
0000
0000
0100
0000
1000
,
0002
0000
0000
0000
0103
0000
0010
1000
0002
0000
0000
0000
0013
0000
0100
0000
,
1000
0000
0010
0000
0001
0000
0010
0100
0002
0000
1000
0000
1003
0000
0000
0000
,
0001
0010
1000
0010
0100
1000
0001
1100
,
0000
0001
1100
0001
1100
0010
0010
0100
,
2001
0000
0000
0000
3100
0000
0010
0001
0200
0000
0000
0000
0310
0000
1000
0000
,
0001
0000
0010
0000
0100
0000
1000
0010
0100
0000
0101
0000
0000
0000
1020
0000
,
0000
0001
0031
0000
0010
1000
0001
1001
,
0000
0000
0000
1000
0000
0000
0100
0000
0000
0010
0000
0001
1000
0000
0001
0100
0000
0000
0110
0000
0000
0000
0000
0000
,
1001
0000
0000
0000
0000
1000
0010
0000
1000
0001
0000
0000
0100
0000
0000
0001
0000
1000
0100
0000
0000
0010
0000
0000
,
0001
0000
0000
1000
0001
0000
0100
0001
0010
0000
0100
1000
0001
0000
0100
0001
,
1000
0000
0000
0001
0000
0100
0001
0000
0100
0001
0000
0000
1000
0000
0100
1000
0000
0100
1000
0000
0000
0000
0000
0000
,
0010
0000
0000
1000
0000
0010
1000
0000
0010
1000
0000
0000
0001
0000
0010
0001
0000
0010
0001
0000
0000
1000
0000
0001
,
0100
0000
0000
0000
0000
0010
1000
0000
0001
0010
0000
0000
0100
0000
0000
0010
0000
0001
1000
0000
0000
0001
0000
0000
,
0100
0000
0000
0001
1000
0000
0100
0010
0001
0000
0100
0010
1000
0000
1001
0000
,
0000
0000
0000
0001
0000
1000
0010
0000
0100
0001
0000
0000
1000
0000
0001
0010
0000
0100
1000
0000
0000
0001
0000
1000
,
0001
0000
0000
0100
0000
0000
1001
0000
0000
0010
0000
0000
0100
0000
0100
0010
0000
0000
0110
0000
0000
0000
0000
0000
,
1001
0000
0000
0000
;

//--------------- dance-double - forcednature ----------------
#NOTES:
     dance-double:
     forcednature:
     Easy:
     6:
     0,0,0,0,0:
00000000
00000000
00000000
00000000
,
00000000
00000000
00000000
00000000
,
00000000
00000000
00000000
00000000
,
00000000
00000000
00000000
00000000
,
00000000
00000000
00000000
00000000
,
00022000
00000000
00033000
00000000
,
00010100
00000000
00000000
00101000
00000000
00000000
00000000
20020000
,
00000000
00000000
00000000
30030000
00000000
00000000
00000000
01100000
,
00000000
00000000
00000000
00000000
10000000
00010000
10000000
00000000
,
20020000
00000000
00000000
30030000
,
10000000
00000000
01000000
00000000
00010000
00001000
00010000
00000000
,
00000100
00001000
00000001
00000100
,
00000010
00000000
00001000
00000000
00000100
00000010
00000100
00000000
,
00001000
00000001
00000100
00001000
,
00010000
00000000
01000000
00000000
10000000
00010000
10000000
00000000
,
00100000
10000000
00010000
00100000
,
01000000
00000000
00010000
00000000
00001000
00100000
00001000
00100000
,
00000000
00001000
00010000
00000010
,
00001001
00000000
00001001
00000000
00000000
00000100
00000010
00000000
,
00001001
00000001
00000100
00001000
,
00020000
00000000
00000000
00030000
,
01000000
00100000
00010000
10000000
,
00200000
01000000
02000000
03300000
,
10000000
00010000
01000000
00001000
,
00010000
00000000
00000100
00001000
,
00002002
00003003
00000220
00000330
,
00000001
00000100
00002000
00003000
,
00012000
00000000
00000000
00000000
,
01000000
01000000
02000000
03003000
,
00021000
00000000
00000000
00000000
,
00000100
00000100
00000100
00030100
,
00000020
00000000
00000030
00000000
,
00002002
00003003
00000220
00000330
,
00000001
00000100
00002000
00003000
,
00010000
01000000
00100000
00010000
,
10000000
00010000
10000000
00010000
20000000
00000000
30000000
00000000
,
20020000
30030000
02200000
03300000
,
01000000
00000000
00001000
00000000
00010000
00000000
00000100
00002000
,
00000000
00003010
00000010
00001000
,
00000001
00000000
00000100
00000010
00000100
00000000
00000000
00000000
,
00022000
00033000
00202000
00303000
,
01000000
00010000
00200000
00300000
,
01000000
00010000
00001000
00000010
,
00000001
00001000
00000001
00001000
00000002
00000000
00000003
00000000
,
00002002
00003003
00000220
00000330
,
00000100
00000000
00001000
00000000
00010000
00000000
00100000
20000000
,
00000000
00000000
00100000
00000000
30100000
00000000
10000000
00010000
,
00000000
00100000
02000000
03000000
,
10010000
01000000
00010000
00001000
,
00010000
00000000
00000100
00000000
00001000
00000001
00001000
00000000
,
00000010
00010000
00001000
00100000
,
00010000
00000000
01000000
00000000
00001000
00010000
00001000
00000000
,
00000100
00000001
00001000
00000100
,
00000010
00000000
00000100
00000000
00010000
00001000
00010000
00001000
,
00000000
01000000
00010000
10000000
,
10010000
00000000
10010000
00000000
00000000
01000000
00100000
00000000
,
00011000
00000000
00000000
00000000
;

//--------------- dance-double - forcednature ----------------
#NOTES:
     dance-double:
     forcednature:
     Medium:
     10:
     0,0,0,0,0:
00000000
00000000
00000000
00000000
,
00000000
00000000
00000000
00000000
,
00000000
00000000
00000000
00000000
,
00000000
00000000
00000000
00000000
,
00000000
00000000
00000000
00000000
,
00011000
01000000
00000000
00000000
,
00011000
00000000
00000000
00000110
00000000
00000000
00000000
00001001
,
00000000
00000000
00000000
00000000
00000000
00000001
00000100
00001000
,
00000000
00010000
00100000
10000000
00010000
10000000
01000000
00000000
,
00110000
01000000
00010000
01000000
,
00010000
00100000
00001000
00010000
00000010
00001000
00000002
00000000
,
00000103
00000000
00000000
00000000
00000000
00001000
00000000
00000000
00000000
00010000
00000000
00000000
00100000
00000000
00000000
10000000
00000000
00010000
00000000
00000000
00000000
00000000
00000000
00000000
,
10000000
00000000
00000000
01000000
00000000
00000000
00100000
00001000
00100000
00000000
00001000
00010000
00001000
00000000
00010000
00000100
,
00010000
00000000
00000000
00000000
00000000
00000010
00000000
00000000
00000000
00001000
00000000
00000000
00000001
00000000
00000000
00000010
00000000
00000100
00000000
00000000
00000000
00000000
00000000
00000000
,
00000010
00000000
00000000
00000000
00000000
00000001
00000000
00000000
00000000
00000100
00000000
00000000
00000000
00000000
00000000
00001000
00000000
00000000
00010000
00000000
00000000
00100000
00000000
00000000
,
10000000
00000000
00000000
00000000
00000000
00010000
00000000
00000000
00000000
10000000
00000000
00000000
01000000
00000000
00000000
00100000
00000000
00001000
00000000
00000000
00000000
00000000
00000000
00000000
,
00010000
00000000
00000000
00000010
00000000
00000000
00000100
00000001
00000100
00000000
00000010
00001000
00000010
00000000
00001001
00000000
,
00000000
00000000
00000000
00000000
00000000
00000001
00000000
00000000
00000000
00000100
00000000
00000000
00001000
00000000
00000000
00001000
00000000
00010000
00000000
00000000
00000000
01000000
00000000
00000000
,
10000000
00100000
00010000
00100000
01000000
00001000
00010000
00000000
,
00011000
00000000
00000100
00000000
00010000
00001000
00000100
00000001
,
00000020
00001000
00000001
00001030
,
00000010
00000000
00000001
00000000
00000100
00001000
00010000
00200000
,
00000000
00010000
00000000
20000000
00000000
00000000
00000000
30300000
,
10010000
00000000
10000000
01000000
00100000
00001000
00010000
00100000
,
01000000
00000000
00001000
00010000
00000100
00001000
00000001
00000100
,
00001000
00010000
00000000
01000000
00010000
00001000
00000000
00012000
,
00000000
00010000
00010000
01000000
02000000
00000000
03003000
00000000
,
20010000
01000000
00010000
30100000
,
10000000
01000000
00010000
00001000
00000100
00000001
00000010
00000000
,
00001002
00000100
00001000
00000013
,
00000001
00000100
00001000
00010000
01000000
10000000
00100000
10000000
,
01000000
00010000
00001000
00010000
00000000
00100000
00100000
00000000
,
01100000
00000000
00000000
00000000
00010000
00000000
10000000
01000000
10000000
00000000
00000000
00000000
00100000
00000000
10000000
00000000
,
01000000
00000000
00010000
00000000
00001000
00000000
00000010
00000002
00000000
00000000
00000100
00000000
00000103
00000000
00000000
00000000
,
00000001
00000100
00001000
00010000
01000000
00010000
00001000
00010000
,
00000000
00100000
01000000
00100000
01000000
00000000
10010000
00000000
,
11000000
00000000
00000000
00000000
00100000
00000000
00001000
00010000
00001000
00000000
00000000
00000000
01000000
00000000
00001000
00000000
,
00010000
00000000
00000010
00000000
00001000
00000000
00000100
00000010
00000000
00000000
00000101
00000000
00000000
00000000
00002100
00000000
,
00000000
00000000
00003001
00000000
00000010
00010000
00001000
00000100
,
00000000
00001000
00010000
01000000
00100000
00010000
00010000
00000000
,
10010000
00000000
00000000
00000000
10000000
00000000
00100000
01000000
00100000
00000000
00000000
00000000
10000000
00000000
01000000
00000000
,
00010000
00000000
00001000
00000000
00000100
00000000
00000001
00000020
00000000
00000000
00000100
00000000
00000130
00000000
00000000
00000000
,
00000010
00000001
00000100
00001000
00010000
01000000
00010000
00001000
,
00000000
00000010
00000100
00000010
00000100
00000000
00001001
00000000
,
00000011
00000000
00000000
00000000
00000001
00000000
00001000
00000010
00001000
00000000
00000000
00000000
00000100
00000000
00010000
00000000
,
00001000
00000000
01000000
00000000
00010000
00000000
00100000
01000000
00000000
00000000
10010000
00000000
00000000
00000000
12000000
00000000
,
00000000
00000000
03010000
00000000
01000000
00100000
00001000
00011000
,
00000000
00000010
00000100
00001000
00000100
00000001
00000010
00000000
,
00000110
00000000
00000000
00000000
00000000
00000001
00000000
00000000
00000000
00001000
00000000
00000000
00000001
00000000
00000000
00000100
00000000
00000010
00000000
00000000
00000000
00000000
00000000
00000000
,
00010000
00000000
00000000
00001000
00000000
00000000
01000000
00010000
01000000
00000000
00100000
10000000
00100000
00000000
10000000
00010000
,
10000000
00000000
00000000
00000000
00000000
01000000
00000000
00000000
00000000
00010000
00000000
00000000
00001000
00000000
00000000
00000010
00000000
00000001
00000000
00000000
00000000
00000000
00000000
00000000
,
00000001
00000000
00000000
00000000
00000000
00000100
00000000
00000000
00000000
00001000
00000000
00000000
00000000
00000000
00000000
00010000
00000000
00000000
00100000
00000000
00000000
00010000
00000000
00000000
,
00001000
00000000
00000000
00000000
00000000
00010000
00000000
00000000
00000000
01000000
00000000
00000000
00100000
00000000
00000000
00010000
00000000
10000000
00000000
00000000
00000000
00000000
00000000
00000000
,
00100000
00000000
00000000
00000000
00000000
00000000
00000000
00000000
00000000
00000000
01000000
00000000
00000000
00000000
00000000
00000000
00000000
00000000
00001000
00000000
00000000
00010000
00000000
00000000
00001000
00000000
00000000
00000000
00000000
00000000
00010000
00000000
00000000
00000010
00000000
00000000
00010000
00000000
00000000
00000000
00000000
00000000
00001010
00000000
00000000
00000000
00000000
00000000
,
00000000
00000000
00000000
00000000
00000000
00000001
00000000
00000000
00000000
00000100
00000000
00000000
00001000
00000000
00000000
00010000
00000000
00100000
00000000
00000000
00000000
00100000
00000000
00000000
,
10000000
01000000
00010000
01000000
00100000
00001000
00010000
00000000
,
00011000
00000000
00000000
00000000
;

//--------------- dance-double - forcednature ----------------
#NOTES:
     dance-double:
     forcednature:
     Hard:
     14:
     0,0,0,0,0:
00000000
00000000
00000000
00000000
,
00000000
00000000
00000000
00000000
,
00000000
00000000
00000000
00000000
,
00000000
00000000
00000000
00000000
,
00000000
00000000
00000000
00000000
,
00011000
00000000
00000000
00000000
00001000
00000000
00100000
00010000
00000000
00000000
00000000
00000000
10000000
00000000
00100000
00000000
,
00010000
00000000
00001000
00000000
00000010
00000000
00000100
00001000
00000000
00000000
00000010
00000000
00000000
00000000
00002002
00000000
,
00000000
00000000
00000000
00003003
00000000
00000001
00000100
00001000
,
00000000
00010000
01000000
10000000
00100000
01000000
00001000
00000000
,
00012000
00000010
00010000
00003100
,
00001000
00000000
00000000
00010000
00000000
00000000
01000000
00000000
10000000
01000000
00000000
00000000
00100000
00000000
00010000
00100000
00000000
00000000
00002000
00000000
00000000
00003000
00000000
00000000
,
00010010
00000000
00000000
00000000
00000000
00000001
00000010
00000000
00000100
00001000
00000000
00000000
00000010
00000000
00000000
00010000
00000000
00001000
00100000
00000000
00000000
01000000
00000000
00000000
,
00100000
00000000
00000000
00001000
00010000
00000000
00100000
10000000
01000000
00000000
00100000
00010000
01000000
00000000
00001000
00010000
,
00000010
00000000
00000000
00000010
00000000
00000100
00000001
00000000
00001000
00000001
00000000
00000000
00000010
00000000
00000100
00001000
00000000
00000100
00010000
00000000
00000000
00000000
00000000
00000000
,
00001000
00000000
00000000
01000000
00000000
00010000
10000000
00000000
01000000
10000000
00000000
00000000
00100000
00000000
01000000
00010000
00000000
01000000
00001000
00000000
00000000
00010000
00000000
00000010
,
00000100
00000000
00000000
00000000
00000000
00000100
00000001
00000000
00001000
00000100
00000000
00000000
00010000
00000000
00000000
00001000
00000000
01000000
00010000
00000000
00000000
10000000
00000000
00000000
,
01000000
00000000
00000000
00010000
00001000
00000000
00000010
00000001
00000100
00000000
00000010
00001000
00000100
00000000
00001001
00000000
,
00000000
00000000
00000000
00000000
00000000
00000001
00000010
00000000
00000100
00000010
00000000
00000000
00000001
00000000
00001000
00000010
00000000
00010000
00001000
00000000
00000000
01000000
00000000
00010000
,
10000000
00000000
00000000
01000000
00000000
00000000
00010000
00000000
00000000
00000100
00000000
00000000
00000010
00000000
00000010
00000001
00000000
00000000
00001001
00000000
00000000
00000000
00000000
00000000
,
00000001
00000000
00000100
00000000
00001000
00000000
00010000
00000000
00100000
00000000
10000000
00010000
00000000
00100000
00000000
00001000
,
00020000
00000000
00100000
00000000
00000100
00000100
00030100
00000000
,
00010000
00000000
00000010
00001000
00000100
00000000
00000001
00000000
00000100
00000000
00001000
00000000
00000010
00000000
00010000
00000000
,
00000000
00100000
00000000
20000000
00000000
01000000
01000000
30000000
,
10010000
00000000
10000000
01000000
00100000
00000000
00001000
00000000
00010000
00000000
00100000
00010000
00000000
00001000
00000000
00000010
,
00000200
00000000
00000000
00000000
00000301
00000000
00000100
00001000
00000001
00000000
00000100
00000000
00001000
00000000
00010000
00000000
,
00000010
00010010
00000000
00001000
00100000
00101000
00000000
10010000
,
00000000
00000000
00000000
10000000
00000000
00000000
01000000
00000000
00000000
00010000
00000000
00000000
00001000
00000000
00001000
00000010
00000000
00000000
00000001
00000000
00000000
00000000
00000000
00000000
,
00020100
00000000
00100000
00000000
00031000
00010000
00100000
01000000
,
00020000
00000000
00100000
00000000
10030000
00010000
00100000
00000000
,
01002000
00000000
00000100
00000000
00013000
00001000
00000010
00000001
,
00000100
00001000
00010000
01000000
00100000
00001000
00010000
00100000
,
10000000
00000000
00000000
01000000
00000000
00000000
00010000
00000000
00000000
00001000
00000000
00000000
00000000
00000000
00000000
00000010
00000000
00000000
00000010
00000000
00000000
00000001
00000000
00000001
,
00002000
00000000
00000000
00000000
00003001
00000000
00000100
00001000
00020000
00000000
00000000
00000000
00130000
00000000
10000000
00000000
,
01000000
00000000
00010000
00000000
00001000
00000000
00000010
00000001
00000200
00000000
00000010
00000000
00000310
00000000
00000000
00000000
,
00000100
00001000
00010000
01000000
00100000
00001000
00010000
00100000
,
00000000
00010000
00000010
00010000
00100000
01000000
01000000
00010000
,
10020000
00000000
00000000
00000000
10030000
00000000
01000000
00010000
00002000
00000000
00000000
00000000
00003100
00000000
00000001
00000000
,
00000010
00000000
00000100
00000000
00001000
00000000
00000001
00000100
00000010
00000000
00001000
00000000
00010000
00000000
02010000
00000000
,
00000000
10000000
10000000
00000000
03001000
00010000
00000100
00000020
,
00000000
00000000
00000000
00001000
00000000
00000000
00000100
00000000
00000000
00000001
00000000
00000000
00000130
00000000
00000000
00000010
00000000
00000000
00001000
00000000
00000000
00010000
00000000
00001000
,
00020000
00000000
00000000
00000000
00130000
00000000
10000000
00010000
00200000
00000000
00000000
00000000
01300000
00000000
00010000
00000000
,
00001000
00000000
00000100
00000000
00000010
00000000
00001000
00000001
00000020
00000000
00001000
00000000
00001030
00000000
00000000
00000000
,
00000010
00000100
00010000
00001000
00000100
00000010
00010000
00000100
,
00000000
00000000
00000000
00010000
00000000
00000000
01000000
00000000
00000000
00010000
00000000
00000000
00000100
00000000
00000000
00000010
00000000
00000000
00000010
00000000
00000000
00000001
00000000
00000001
,
00000200
00000000
00000000
00000000
00001300
00000000
00010000
00100000
20000000
00000000
00000000
00000000
31000000
00000000
00010000
00000000
,
00001000
00000000
00000010
00000000
00000001
00000000
00001000
00000010
00000100
00000000
00000001
00000000
00001000
00000000
00020100
00000000
,
00000000
01000000
01030000
00000000
00010000
00001000
00010000
00100000
,
00000000
10000000
01000000
00010000
00001000
00000100
00000001
00000000
,
00001001
00000000
00000000
00000000
00000000
00001000
00000100
00000000
00010000
00001000
00000000
00000000
00100000
00000000
00000000
00001000
00000000
00010000
00000010
00000000
00000000
00001000
00000000
00000000
,
00000100
00000000
00000000
00000010
00000001
00000000
00000100
00001000
00010000
00000000
00100000
00010000
00001000
00000000
00100000
00001000
,
00010000
00000000
00000000
00100000
00000000
10000000
00010000
00000000
10000000
01000000
00000000
00000000
00010000
00000000
00001000
00010000
00000000
00000010
00001000
00000000
00000000
00000000
00000000
00000000
,
00000001
00000000
00000000
00000010
00000000
00000100
00001000
00000000
00000100
00010000
00000000
00000000
00001000
00000000
01000000
00010000
00000000
01000000
00100000
00000000
00000000
10000000
00000000
01000000
,
00100000
00000000
00000000
00000000
00000000
00001000
00010000
00000000
00000010
00001000
00000000
00000000
00000001
00000000
00000000
00000010
00000000
00000100
00000010
00000000
00000000
00000001
00000000
00000000
,
00000100
00000000
00000000
00001000
00010000
00000000
01000000
00010000
00001000
00000000
00000010
00001000
00010000
00000000
00011000
00000000
,
00000000
00000000
00000000
00001000
00000000
00100000
00001000
00000000
01000000
00001000
00000000
00000000
00010000
00000000
00000010
00010000
00000000
00000100
00010000
00000000
00000000
00001000
00000000
00000100
,
00000001
00000000
00000000
00001000
00000000
00000000
00010000
00000000
00000000
10000000
00000000
00000000
01000000
00000000
01000000
00100000
00000000
00000000
01100000
00000000
00000000
00000000
00000000
00000000
,
00011000
00000000
00000000
00000000
;
