#TITLE:insist;
#SUBTITLE:;
#ARTIST:Tomoyuki Uchida feat. akinari;
#TITLETRANSLIT:;
#SUBTITLETRANSLIT:;
#ARTISTTRANSLIT:;
#GENRE:;
#CREDIT:;
#MUSIC:insist.ogg;
#BANNER:banner.png;
#BACKGROUND:bg.png;
#CDTITLE:;
#SAMPLESTART:60.006;
#SAMPLELENGTH:14.118;
#SELECTABLE:YES;
#OFFSET:1.318;
#BPMS:0.000=136.000;
#STOPS:;
#BGCHANGES:;
#FGCHANGES:;

//--------------- dance-single - blank ----------------
#NOTES:
     dance-single:
     blank:
     Beginner:
     3:
     0,0,0,0,0:
0000
0000
0000
0000
,
0000
0000
0000
0000
,
1001
0000
0000
0000
,
0010
0000
0000
0000
,
0100
0000
0000
0000
,
1000
0000
0001
0000
,
1000
0000
0000
0000
,
1000
0000
0000
0000
,
0001
0000
0000
0000
,
0001
0000
0010
0000
,
0100
0000
0000
0000
,
0100
0000
0000
0000
,
0010
0000
0000
0000
,
0010
0000
0000
1000
,
0001
0000
0001
0000
,
1000
0000
0000
0000
,
1000
0000
1000
0000
,
0001
0000
0000
0000
,
0100
0000
0010
0000
,
1000
0000
0100
0000
,
0010
0000
0000
0000
,
0001
0000
1000
0000
,
0010
0000
0100
0000
,
0001
0000
0010
0000
,
0100
0000
0000
0000
,
1001
0000
1000
0000
,
0001
0000
0000
0000
,
0010
0000
0000
0000
,
1000
0000
0000
0000
,
0100
0000
0000
0001
,
1000
0000
0000
0000
,
0100
0000
0000
0000
,
0001
0000
0000
0000
,
0020
0000
0000
0030
,
0000
0000
0000
0000
,
1000
0000
0001
0000
,
0100
0000
0010
0000
,
1000
0000
0001
0000
,
0010
0000
0010
0010
,
1000
0000
0100
0000
,
0001
0000
0010
0000
,
1000
0000
0001
0000
,
0100
0000
0000
0010
,
0010
0000
1000
0000
,
0001
0000
0100
0000
,
0010
0000
1000
0000
,
0001
0000
0000
0100
,
0100
0000
0001
0000
,
1000
0000
0010
0000
,
1000
0000
0001
0000
,
0200
0000
0300
0000
,
1001
0000
0000
0000
,
0001
0000
0000
0000
,
1000
0000
0000
0000
,
0010
0000
0100
0000
,
0001
0001
0001
0000
,
1000
1000
1000
0000
,
0010
0010
0010
0000
,
0100
0100
0100
0000
,
0001
0000
0100
0000
,
1000
0000
0010
0000
,
0001
0000
0100
0000
,
0010
0010
1000
1000
,
0001
0000
0000
0000
,
0110
0000
0000
1001
0000
0000
0000
0000
;

//--------------- dance-single - blank ----------------
#NOTES:
     dance-single:
     blank:
     Easy:
     9:
     0,0,0,0,0:
0000
0000
0000
0000
,
0000
0000
0000
0000
,
0000
0000
0000
0000
,
0000
0000
0000
0000
,
0000
0000
0000
0000
,
0000
0000
0000
0000
,
1001
0000
0001
0000
1000
0100
1000
0000
,
0010
0100
0010
1000
0010
0100
0010
0000
,
1000
0100
0010
0001
,
4000
0100
0100
3100
,
1000
0001
0100
0001
0000
0001
1000
0001
,
0000
0001
0010
0001
0000
0001
1000
0001
,
0100
0010
1000
0100
0000
1000
0010
1000
,
0000
1000
0001
1000
0000
0010
0100
0100
,
0001
1000
0001
0100
0000
0010
1000
0100
,
0000
0010
0001
0100
0000
0010
1000
0010
,
0100
0001
0010
0100
0000
1000
0010
0100
,
0000
0001
1000
0001
0000
0100
0010
0000
,
0110
0000
1000
0000
1000
0100
0010
0000
,
0001
1000
0001
0000
0100
0000
0010
1000
,
0100
0001
0100
0010
,
0001
1000
0001
0000
0011
0000
1100
0000
,
1000
0000
0010
0100
1000
0100
0010
0000
,
0100
0000
0001
0010
0001
0000
1000
0000
,
0001
0010
0100
0000
1000
0100
0010
0000
,
0002
0100
0010
1003
,
1001
0000
0000
0000
0000
0000
0010
0000
0000
0000
0000
0010
0000
0000
0000
0000
0000
0000
0100
0000
0000
0100
0000
0000
,
0001
0000
0000
0000
0000
0000
0100
0000
0000
0000
0000
0100
0000
0000
0000
0000
0000
0000
0010
0000
0000
0010
0000
0000
,
1000
0000
0000
0000
0000
0000
0001
0000
0000
0000
0000
0001
0000
0000
0000
0000
0000
0000
1000
0000
0000
1000
0000
0000
,
0100
0000
0000
0000
0000
0000
1000
0000
0000
0000
0000
1000
0000
0000
0000
0000
0000
0000
0010
0000
0000
0100
0000
0000
,
0001
0000
0000
0000
0000
0000
1000
0000
0000
0000
0000
1010
0000
0000
0000
0000
0000
0000
0100
0000
0000
0100
0000
0000
,
0001
0000
0000
0000
0000
0000
0010
0000
0000
0000
0000
1100
0000
0000
0000
0000
0000
0000
0001
0000
0000
0001
0000
0000
,
1000
0010
0100
0001
1000
0000
0100
0010
,
0002
1000
1000
1003
,
0000
0000
0110
0000
0000
0000
1001
0000
0000
0000
0000
0110
0000
0000
0000
0000
0000
0000
0001
0000
0000
0100
0000
0000
,
1000
0000
1000
0100
0001
0000
0001
0010
,
1000
0000
0100
0000
0100
0000
1000
0010
,
0001
0000
1000
0000
0001
0000
0001
0100
,
1000
0010
0010
1001
,
0110
0000
1000
0100
0001
0000
0001
0100
,
1000
0000
0010
0000
0010
0000
0001
0010
,
1000
0000
0001
0000
1000
0000
0001
0100
,
0020
0000
0001
0000
0100
0000
1030
0001
,
0010
0000
0010
0001
1000
0000
1000
0010
,
0001
0000
1000
0000
1000
0000
0001
0010
,
1000
0000
0001
0000
0001
0000
1000
0010
,
0001
0000
0110
0000
1001
0000
1000
0100
,
0010
0000
0001
0010
0100
0000
1000
0100
,
0001
0000
1000
0000
1000
0000
0001
0100
,
1000
0000
0001
0000
0100
0010
0100
0010
,
4000
3004
0403
0340
,
1030
1001
0000
0010
,
0100
1001
0000
0001
,
0010
0110
0000
1000
,
0100
0011
1010
0101
,
0001
1000
0001
0000
1000
0100
1000
0000
,
0010
0100
0010
0000
1000
0001
1000
0000
,
0100
0010
0001
0000
0010
0100
1000
0000
,
1000
0010
0001
0100
,
1000
0001
0100
0000
0010
1000
0001
0000
,
0010
0100
1000
0000
0010
0100
0001
0000
,
1000
0100
1000
0000
0010
1000
0100
0000
,
0010
0100
0001
0100
0010
0001
1000
0000
,
0110
0000
0000
0000
0000
1001
0000
0000
,
0011
0000
0000
2200
0000
0000
0000
0000
,
0000
0000
0000
0000
,
3300
0000
0000
0000
;

//--------------- dance-single - blank ----------------
#NOTES:
     dance-single:
     blank:
     Medium:
     12:
     0,0,0,0,0:
0000
0000
0000
0000
,
0000
0000
0000
0000
,
0000
0000
0000
0000
,
0000
0000
0000
0000
,
0000
0000
0000
0000
,
0000
0000
0000
0000
,
2000
0000
0000
0000
0000
0000
3001
0000
0000
0000
0000
0010
0000
0000
0100
1000
0000
0000
0000
0000
0000
0000
0000
0001
,
0000
0000
0000
0100
0000
0000
0001
0000
0000
1000
0000
0010
0000
0000
1000
0000
0000
0001
0000
0000
0000
0000
0000
0000
,
0000
0000
0000
1000
0000
0100
0000
0000
0010
0000
0000
0001
0000
0000
0100
0000
0000
0010
0000
0000
1000
0000
0000
0002
,
0000
0010
0100
1003
,
0001
0010
1000
0010
0001
0100
1000
0000
,
1000
0100
0010
1000
0100
0010
0001
0000
,
1000
0010
0001
0010
1000
0100
0010
0000
,
0010
0000
0000
1000
0000
0000
0010
0000
0000
0001
0000
0000
1000
0000
0000
0010
0000
0100
0010
0000
0000
0000
0000
0000
,
2001
0000
0100
0000
0010
0000
3001
0100
,
0002
0000
0010
0000
0100
0000
1003
0001
,
2000
0000
0100
0000
0010
0000
3001
0100
,
0010
0010
1000
1000
0001
0010
0110
0100
,
0000
0000
0000
1000
0000
0000
0010
0000
0000
0001
0000
0010
0000
0000
0000
0010
0000
0000
0000
0000
0000
1000
0000
0000
,
0100
0000
0000
0010
0000
0000
0100
0000
0000
0010
0000
0001
0000
0000
0000
0000
0000
0000
0100
0000
0001
0000
0000
0010
,
0000
0000
0000
0010
0000
0000
0100
0000
0000
1000
0000
0001
0000
0000
0000
0001
0000
0000
0100
0000
0000
0010
0000
0000
,
0100
0000
0000
0001
0000
0000
0000
0000
1000
0000
0000
0000
0020
0000
0000
0000
0000
0100
0000
0000
0000
0130
0000
0000
,
0000
0000
0000
0001
0000
0000
1000
0000
0000
0100
0000
1000
0000
0000
0000
0010
0000
0000
0000
0000
0000
0100
0000
0000
,
0001
0000
0000
1000
0000
0000
0100
0000
0000
0010
0000
0001
0000
0000
0000
0000
0000
0000
0001
0000
0100
0000
0000
1000
,
0000
0000
0000
1000
0000
0000
0100
0000
0000
0010
0000
0100
0000
0000
0000
0001
0000
0000
0010
0000
0000
0002
0000
0000
,
0100
0100
1000
1003
,
0011
0000
0000
0000
0000
0000
0100
0000
0000
0000
0000
0100
0000
0000
0000
1000
0000
0001
0000
0000
1000
0000
0000
0000
,
1010
0000
0000
0000
0000
0000
0100
0000
0000
0000
0000
0100
0000
0000
0000
0001
0000
1000
0000
0000
0001
0000
0000
0000
,
0101
0020
2030
3002
,
0013
0000
0000
0010
0000
0100
0010
0000
0000
0100
0000
0000
1000
0000
0000
0010
0000
0000
0000
0000
0100
0000
0000
0001
,
1000
0000
0000
0000
0000
0000
0110
0000
0000
0000
0000
1001
0000
0000
0000
0001
0000
1000
0000
0000
0001
0000
0000
0000
,
0010
0000
0000
0000
0000
0000
0110
0000
0000
0000
0000
1001
0000
0000
0000
1000
0000
0000
0100
0000
0000
0010
0000
0000
,
0001
0100
0001
0100
0001
1000
0001
1000
,
0020
0100
1000
0031
,
0000
0000
0001
0000
0000
0000
0010
0000
1000
0000
0000
0100
0000
0000
0000
0100
0000
0000
0010
0000
0000
0000
0000
1001
,
0000
0000
0000
0000
0000
0000
0100
0000
0000
0000
0000
1001
0000
0000
0000
0000
0000
0000
0001
0000
0000
0000
0000
0200
,
0000
0000
0000
0000
0000
0000
1300
0000
0000
0100
0000
0000
0010
0000
0000
1000
0000
0000
0100
0000
0000
0010
0000
0001
,
0000
0000
0000
0001
0000
0000
0100
0000
0000
1000
0000
0100
0000
0000
0000
0010
0000
0000
1000
0000
0000
0002
0000
0000
,
0000
0000
0000
0023
0000
0000
0000
0000
0000
0230
0000
0000
0000
0000
0000
0300
0000
0000
1000
0000
0000
0000
0000
0101
,
0000
0000
0000
0000
0000
0000
0001
0000
0000
0000
0000
1010
0000
0000
0000
0000
0000
0000
0001
0000
0000
0000
0000
0020
,
0000
0000
0000
0100
0000
0000
0130
0000
0000
1000
0000
0000
0001
0000
0000
1000
0000
0000
0010
0000
1000
0000
0000
0100
,
0000
0000
0000
0001
0000
0000
0100
0000
0000
0010
0000
0001
0000
0000
0000
0001
0000
0000
0010
0000
0000
0200
0000
0000
,
0001
0000
0000
0000
0000
0000
0010
0000
0000
0000
0000
0000
1000
0000
0000
0000
0000
0000
0310
0000
0001
0000
0000
1000
,
0000
0000
0000
0000
0000
0000
0010
0000
1000
0000
0000
0001
0000
0000
0000
0000
0000
0000
0100
0000
0010
0000
0000
2000
,
0000
0000
0000
0100
0000
0000
3100
0000
0000
0001
0000
0000
0100
0000
0000
1000
0000
0000
0010
0000
0100
0000
0000
1001
,
0000
0000
0000
0001
0000
0000
0001
0000
0000
0010
0000
0100
0000
0000
0000
1000
0000
0000
0010
0000
0000
2000
0000
0000
,
0000
0000
0000
3002
0000
0000
0000
0000
0000
0203
0000
0000
0000
0000
0000
0300
0000
0001
1000
0000
0001
0000
0000
0110
,
0000
0000
0000
0000
0000
1000
0001
0000
1000
0000
0000
1001
0000
0000
0000
0000
0000
0000
1000
0000
0100
0000
0000
0020
,
0000
0000
0000
1000
0000
0000
0031
0000
0000
0100
0000
0000
0100
0000
0000
0001
0000
0000
0010
0000
0001
0000
0000
1000
,
0000
0000
0000
0010
0000
0000
0010
0000
0000
0100
0000
0001
0000
0000
0000
1000
0000
0000
0100
0000
0000
0010
0000
0000
,
0002
1000
0100
0013
,
0100
0000
0000
0000
0000
0000
1001
0000
0000
0000
0000
0001
0000
0000
0200
1000
0000
0000
0001
0000
0000
0000
0000
0310
,
0000
0000
0000
1000
0000
0000
0001
0000
0000
1000
0000
0100
0000
0000
0010
0000
0000
0001
0000
0000
0000
0000
0000
0000
,
0000
0000
0000
1000
0000
0001
0000
0000
0100
0000
0000
0010
0000
0000
1000
0000
0000
0001
0000
0000
0100
0000
0000
0020
,
0000
0001
0100
1030
,
1000
0100
0010
0100
0001
1000
0010
0001
,
0100
0100
0010
1000
0001
0010
0100
0010
,
0001
1000
0010
0100
0001
1000
0100
0010
,
0001
0000
0000
0000
0000
0100
0000
0000
0000
1000
0000
0000
0000
0000
0010
0000
0000
0000
0001
0000
0000
1000
0000
0000
,
0000
0010
0010
0010
0010
1000
0001
0010
,
0100
1000
0100
0010
0001
1000
0010
0001
,
1000
0100
0010
0100
0001
0010
0100
1000
,
0001
1000
0010
0100
0001
1000
0001
1000
,
0010
0000
0010
0000
0000
0000
0000
0000
0000
0000
0000
0000
0000
0000
0000
1100
0000
0000
0000
0000
0110
0000
0000
0000
,
0011
0000
0000
0011
0000
0000
0022
0000
0000
0000
0000
0000
0000
0000
0000
0000
,
0000
0000
0000
0000
,
0033
0000
0000
0000
;

//--------------- dance-single - blank ----------------
#NOTES:
     dance-single:
     blank:
     Hard:
     14:
     0,0,0,0,0:
0000
0000
0000
0000
,
0000
0000
0000
0000
,
0000
0000
0000
0000
,
0000
0000
0000
0000
,
0000
0000
0000
0000
,
0000
0000
0000
0000
,
0011
0000
0000
0000
0000
0000
1100
0000
0000
0000
0000
0001
0000
0000
0100
0020
0000
0000
0000
0000
0001
0000
0000
1030
,
0000
0000
0000
0100
0000
0000
1000
0000
0000
0001
0000
0100
0000
0000
0100
0000
0000
0010
0000
0000
0010
0000
0000
0000
,
1000
0100
0010
0001
1000
0010
0100
0001
,
2000
0010
3020
0100
0230
0001
0302
1000
,
1003
0010
1000
0000
0001
0010
0001
0000
,
1000
0010
0100
0000
0001
0010
0100
0000
,
1000
0001
0100
0000
0010
1000
0001
0000
,
0010
0000
0000
0100
0000
0000
1000
0000
0000
0010
0000
0000
0100
0000
0000
0001
1000
0001
1000
0000
0000
0000
0000
0000
,
0001
0000
0100
0001
0000
0000
1000
0000
0000
0010
0000
0000
1000
0000
0000
0100
0000
0000
0001
0000
0000
0100
0000
0000
,
1000
0000
0010
1000
0000
0000
0001
0000
0000
0100
0000
0000
0001
0000
0000
0010
0000
0000
1000
0000
0000
0010
0000
0000
,
0001
0000
1000
0001
0000
0000
0100
0000
0000
0010
0000
0000
1000
0000
0000
0001
0000
0000
0010
0000
0000
0100
0000
0000
,
1000
0000
0001
1000
0000
0000
0010
0000
0000
0100
0000
0002
0000
0000
0000
1000
0000
0000
1000
0000
0000
1003
0000
0000
,
1001
0000
0000
0000
0000
0000
0001
0000
0000
0010
0000
0100
0000
0000
0000
1000
0000
0000
0000
0000
0000
0001
0000
0000
,
1000
0000
0000
0010
0000
0000
0100
0000
0000
0001
0000
0010
0000
0000
0000
0000
0000
0000
0001
0000
1000
0000
0000
1001
,
0000
0000
0000
0001
0000
0000
0010
0000
0000
0100
0000
1000
0000
0000
0000
0010
0000
0000
0010
0000
0000
2000
0000
0000
,
0000
0000
0000
0001
0000
0000
0000
0000
3010
0000
0000
0000
1100
0000
0000
0000
0000
0100
0010
0000
0000
0001
0000
0000
,
0100
0000
0000
1000
0000
0000
0100
0000
0000
0001
0000
0010
0000
0000
0000
0010
0000
0000
0000
0000
0000
0100
0000
0000
,
1000
0000
0000
0100
0000
0000
0010
0000
0000
0001
0000
1000
0000
0000
0000
0000
0000
0000
0001
0000
0100
0000
0000
1010
,
0000
0000
0000
1000
0000
0000
0100
0000
0000
0010
0000
0001
0000
0000
0000
0100
0000
0000
0010
0000
0000
0002
0000
0000
,
0010
0023
2030
3200
,
0310
0000
0000
0000
0000
0000
0001
0000
1000
0000
0000
1001
0000
0000
0000
0001
0000
0100
0001
0000
0000
1000
0000
0000
,
0010
0000
0000
0100
0000
0001
0000
0000
1000
0000
0000
0010
0000
0000
0000
0000
0000
0000
1000
0000
0100
0000
0000
0010
,
0000
0000
0000
1000
0000
0000
0010
0000
0000
0001
0000
1000
0000
0000
0000
0010
0000
0000
0100
0000
0000
0001
0000
0000
,
1000
0000
0000
0000
0000
0001
0010
0000
0000
0200
0000
0000
0000
0000
0000
1300
0000
1000
0000
0000
0010
0100
0000
0000
,
1002
0000
0000
0000
0000
0000
0013
0000
0100
0000
0000
1000
0000
0000
0000
0001
0000
1000
0010
0000
0000
0001
0000
0000
,
0010
0000
0000
0010
0000
1000
0000
0000
0100
0000
0000
1000
0000
0000
0000
0000
0000
0000
0001
0000
1000
0000
0000
0001
,
0010
0010
0100
0100
1000
0010
0100
0001
,
2000
0100
0100
0010
0010
0001
3001
0000
,
0000
0000
0011
0000
0000
0000
0010
0000
0100
0000
0000
1100
0000
0000
0000
0101
0000
0000
0001
0000
0010
0000
0000
0100
,
1000
0000
0000
0000
0000
0000
1000
0000
0001
0000
0000
0010
0100
0000
0000
0010
0000
0000
0001
0000
0100
0000
0000
0020
,
0000
0000
0000
0001
0000
0000
1030
0000
0000
0001
0000
1000
0001
0000
0000
0100
0000
0000
0010
0000
1000
0000
0000
1000
,
0100
0000
0000
0001
0000
0000
0100
0000
0000
1000
0000
0100
0000
0000
0000
0010
0000
0001
1000
0000
0000
0020
0000
0000
,
0031
0000
0000
2000
0000
0000
3100
0000
0000
0002
0000
0000
0013
0000
0000
0000
0000
0100
1000
0000
0010
0000
0000
0100
,
0001
0000
0000
0000
0000
0000
0001
0000
1000
0000
0000
0010
0100
0000
0000
0001
0000
0000
1000
0000
0100
0000
0000
0020
,
0000
0000
0000
1000
0000
0000
0031
0000
0000
1000
0000
0001
1000
0000
0000
0001
0000
0000
0100
0000
0010
0000
0000
0110
,
0000
0000
0000
0001
0000
0000
0010
0000
0000
0100
0000
1000
0010
0000
0000
0100
0000
0000
0001
0000
0000
1000
0000
0100
,
0010
0000
0001
0010
0000
0000
0100
0000
1000
0100
0000
0000
0010
0000
0001
0100
0000
0010
1000
0000
0001
0000
0000
1001
,
0000
0000
0000
0000
0000
0000
1000
0000
0100
0000
0000
0100
0010
0000
0000
0001
0000
0000
1000
0000
0010
0000
0000
0200
,
0000
0000
0000
1000
0000
0000
0301
0000
0000
0001
0000
1000
0001
0000
0000
0100
0000
0000
0001
0000
0010
0000
0000
0010
,
0100
0000
0000
1000
0000
0000
0001
0000
0000
0100
0000
0001
0100
0000
0000
0001
0000
0000
0010
0000
0000
0200
0000
0000
,
0001
0000
0000
0010
0000
0000
0000
0000
0000
1300
0000
0000
0001
0000
0000
0100
0010
0100
0010
0000
1000
0000
0000
0001
,
0100
0000
0000
0000
0000
0000
0001
0000
0010
0000
0000
0010
0100
0000
0000
1000
0000
0000
0100
0000
0020
0000
0000
1000
,
0000
0000
0000
0031
0000
0000
1000
0000
0000
0010
0000
0100
0001
0000
0000
0100
0000
0000
0010
0000
1000
0000
0000
0001
,
0010
0000
0000
0100
0000
0000
1000
0000
0000
0010
0000
1000
0010
0000
0000
0100
0000
0000
0001
0000
0000
1000
0000
0001
,
1000
0000
0100
0010
0000
0001
0100
0000
0010
0000
0000
1010
0000
0000
0000
1001
0000
0000
0011
0000
0000
1100
0000
0000
,
2000
0000
0000
0000
0000
0000
3200
0000
0000
0000
0000
0301
0000
0000
0100
1000
0000
0000
1010
0000
0000
0000
0000
0101
,
0000
0000
0000
0001
0000
0000
0100
0000
0000
0010
0000
0100
0000
0000
0001
1000
0000
0001
0000
0000
0011
0000
0000
0000
,
1100
0000
0000
0001
0000
0010
0000
0000
0100
0000
0000
1000
0000
0000
0001
0000
0000
0100
0000
0000
0010
0000
0000
2000
,
0000
0100
0100
0001
0001
0010
0010
3010
,
0000
0000
0000
1000
0000
0100
0000
0000
0010
0000
0000
1001
0000
0000
0001
0100
0000
0000
0010
0000
0000
1000
0000
0002
,
0000
0000
0000
0013
0000
0100
0000
0000
1000
0000
0000
0002
0000
0000
0000
0103
0000
0000
0101
0000
0000
1000
0000
0000
,
0010
0000
0000
1000
0000
0001
0000
0000
1000
0000
0000
0200
0000
0000
0000
0310
0000
0000
0001
0000
0000
0010
0000
0000
,
0110
0000
0000
0000
0000
1100
0000
0000
0000
0101
0000
0000
0000
0000
1010
0000
0000
0000
0011
0000
0000
1000
0000
0000
,
0000
0000
0000
0001
0000
0010
0100
0000
0010
0100
0000
0010
0100
0000
0010
0100
0000
2000
0001
0000
0000
3010
0000
0100
,
0001
0000
0000
1000
0000
0000
0010
0000
2000
0000
0000
0100
0000
0000
3002
0000
0000
0010
0000
0000
1003
0000
0000
0000
,
1001
0000
0000
0001
0000
0010
0000
0000
0110
0000
0000
1001
0000
0000
1000
0010
0000
0000
0100
0000
0000
0001
0000
0000
,
0010
0000
0000
0100
0000
0100
0000
0000
1000
0000
0000
0010
0000
0000
0100
0001
0010
0001
0010
0000
0001
0010
0000
0100
,
1000
0000
1001
0000
0000
0000
0001
0000
1000
0010
0000
0100
0001
0000
0000
0011
0000
0000
0000
0000
1100
0000
0000
0000
,
1001
0000
0000
0110
0000
0000
2002
0000
0000
0000
0000
0000
0000
0000
0000
0000
,
0000
0000
3003
0000
;

//--------------- dance-double - blank ----------------
#NOTES:
     dance-double:
     blank:
     Easy:
     10:
     0,0,0,0,0:
00000000
00000000
00000000
00000000
,
00000000
00000000
00000000
00000000
,
00000000
00000000
00000000
00000000
,
00000000
00000000
00000000
00000000
,
00000000
00000000
00000000
00000000
,
00000000
00000000
00000000
00000000
,
10000000
01000000
00100000
01000000
,
00100000
00000000
00010000
00000000
00100000
00001000
00010000
00000000
,
00000010
00000100
00000001
00001000
,
00000200
00000320
00000032
00002003
,
00003000
00000001
00000000
00000001
00000000
00001000
00000000
00001000
,
00000000
00010000
00000000
00010000
00000000
10000000
00000000
10000000
,
00000000
00100000
00000000
00100000
00000000
01000000
00000000
01000000
,
00000000
00001000
00000000
00001000
00000000
00010000
00000010
00000000
,
00000100
00000101
00000001
00001010
,
00010000
00000000
00101000
00000000
00010000
00000000
01000000
00010000
,
10000000
11000000
00100000
00110000
,
00001000
00010000
00000100
00000000
00000100
00000010
00000001
00000000
,
00002000
00000000
00003001
00000100
00000010
00000000
00010000
00000000
,
00001000
00010000
01000000
00000000
00100000
00000000
00010000
00000000
,
10100000
00000000
00010000
01000000
00010000
00000000
00100000
00001000
,
00100000
00001000
00011000
00010010
,
00000000
00000000
00000001
00000000
00001000
00000100
00001000
00000000
,
00100000
00000000
01000000
00000000
00010000
00000000
10000000
01000000
,
10000000
00100000
01000000
00010000
,
00200000
00302000
00003020
00000031
,
00001000
00000000
00010000
00010000
00010000
00000000
00100000
00000000
,
10000000
00000000
01000000
01000000
01000000
00000000
00100000
00010000
,
01000000
00020000
20030000
30020000
,
01030000
00001000
00010000
00000100
00000010
00000000
00001001
00000000
,
00001100
00000000
00000001
00000001
00000001
00000000
00000010
00000100
,
00001000
00000000
00000100
00000100
00000100
00000000
00010000
00001000
,
01000000
00000000
00100000
00000000
10000000
00000000
00010000
01000000
,
00200000
10000000
00010000
10300000
,
00000000
00000000
00011000
00000000
00000000
00000000
00000000
00000000
00000000
00000000
00000000
00010000
00000000
00000000
00000000
00000000
00000000
00000000
00001000
00000000
00000000
00000000
00000000
00000000
,
00000100
00000000
00010000
00000000
01000000
00000000
00001000
00010000
,
00001000
00000000
00100000
00000000
00001000
00000000
00010000
00001000
,
00010000
00000000
00000010
00000000
00010000
00000000
01000000
00100000
,
01000000
01100000
10010000
10000000
,
00100000
00000000
00010000
00000000
01000000
00000000
10000000
00100000
,
10000000
00000000
00010000
00000000
01000000
00000000
00010000
00100000
,
00010000
00000000
10000000
00000000
01000000
00000000
00100000
00001000
,
00010000
00101000
00010100
00010000
,
00000010
00000000
00001000
00000000
00100000
00000000
00010000
00001000
,
00010000
00000000
00100000
00000000
00010000
00000000
00001000
00010000
,
00001000
00000000
00000010
00000000
00001000
00000000
00010000
00001000
,
00010000
00011000
00001100
00000001
,
00000010
00000000
00001000
00000000
00000100
00000000
00000001
00000010
,
00000001
00000000
00001000
00000000
00000100
00000000
00001000
00000010
,
00001000
00010000
01000000
00100000
,
20020000
30030000
00110000
00001000
,
02020000
00000000
03030000
00000000
01000000
00001000
00010000
00000000
,
00002200
00000000
00003300
00000000
00000100
00010000
00001000
00000000
,
00202000
00000000
00303000
00000000
00100000
00001000
00010000
00000000
,
00001010
00000101
00000011
00001100
,
00001000
00010000
01000000
10000000
,
00100000
00010000
00001000
00000010
,
00000001
00000100
00000010
00010000
,
00001000
00010000
00100000
00010000
,
00001000
00100000
10000000
00100000
,
00001000
00010000
01000000
00100000
,
00001000
00010000
00000010
00000100
,
00000001
00000010
00001000
00011000
,
01100000
00000000
00011000
00000000
,
00000110
00000000
00000000
00011000
00000000
00000000
00000000
00000000
;

//--------------- dance-double - blank ----------------
#NOTES:
     dance-double:
     blank:
     Medium:
     12:
     0,0,0,0,0:
00000000
00000000
00000000
00000000
,
00000000
00000000
00000000
00000000
,
00011000
00000000
00000000
00000000
00000000
00000000
00000000
00000000
00000000
00000000
00000000
00000000
00000000
00000000
00000000
00000000
00000000
00000000
00100000
00000000
00000000
00000000
00000000
00011000
,
00000000
00000000
00000000
00000010
,
00011000
00000000
00000000
00000000
00000000
00000000
00000000
00000000
00000000
00000000
00000000
00000000
00000000
00000000
00000000
00000000
00000000
00000000
01000000
00000000
00000000
00000000
00000000
00011000
,
00000000
00000010
00001000
00000001
,
00000100
00001000
00110000
01000000
,
10000000
00100000
00010000
00001000
,
00000010
00001000
01000000
00010000
,
00011000
00100000
00011000
00000010
,
00000100
00000001
00000010
00011000
,
01000000
10000000
00100000
00011000
,
00000010
00000001
00000100
00011000
,
00100000
10000000
01000000
00011000
,
00001000
00010000
01000000
00000000
00100000
00000000
00011000
00000000
,
00010000
00001000
00000100
00000000
00000010
00000000
00001000
00001000
,
00000001
00000100
00001000
00000000
00100000
00000000
00011000
00000000
,
10000000
01000000
00010000
00000000
00001000
00000100
00000010
00000000
,
00011000
00000000
00010000
01000000
00100000
00000000
00010000
00000000
,
10000000
00100000
01000000
00100000
01000000
00000000
00010000
00100000
,
01000000
00000000
10000000
01000000
00100000
00000000
00100000
00001000
,
00010000
00000100
00101000
00010100
,
00011000
00000000
00001000
00000100
00000010
00000000
00001000
00000000
,
00000001
00000010
00000100
00000010
00000100
00000000
00001000
00000010
,
00000100
00000000
00000001
00000100
00000010
00000000
00000010
00010000
,
00001000
01001000
00010100
01010000
,
10010000
00000000
01000000
00100000
01000000
00000000
00011000
00000000
,
00001001
00000000
00000010
00000100
00000010
00000000
00001001
00000000
,
00010010
00000000
00010000
00001000
00000010
00000000
00001000
00010000
,
01000000
00000000
00100000
00010000
10000000
00000000
10010000
00000000
,
01001000
00000000
01000000
00001000
00000100
00000000
00001001
00000000
,
00010010
00000000
00000010
00010000
00100000
00000000
10000000
00010000
,
01000000
00010000
00001000
00000100
,
00000010
00001000
00010000
00100000
,
00000000
00000000
10010000
00000000
00000000
00000000
10000000
00000000
00000000
00000000
00000000
00100000
00000000
00000000
00000000
01000000
00000000
00000000
00010000
00000000
00000000
00000000
00000000
01100000
,
00000000
00000000
00000000
00000000
00000000
00000000
00001000
00000000
00000000
00000000
00000000
00000110
00000000
00000000
00000000
00000000
00000000
00000000
00000010
00000000
00000000
00000000
00000000
00022000
,
00000000
00000000
00000000
00033000
00000000
00000000
00100000
00000000
00000000
10000000
00000000
00000000
01000000
00000000
00000000
00000000
00000000
00000000
00100000
00000000
00000000
00000000
00000000
00011000
,
00000000
00000000
00000010
00001000
00000001
00000001
00000010
00000200
,
00000000
00000000
00000000
00002300
00000000
00000000
00000000
00000000
00000000
02003000
00000000
00000000
00000000
00000000
00000000
03000000
00000000
00000000
00100000
00000000
00000000
00000000
00000000
00011000
,
00000000
00000000
00000000
00000000
00000000
00000000
00000010
00000000
00000000
00000000
00000000
00011000
00000000
00000000
00000000
00000000
00000000
00000000
00100000
00000000
00000000
00001000
00000000
00000000
,
00020000
00000000
00100000
00000000
00031000
00000100
00000010
00010000
,
00002000
00000000
00000010
00000000
00013000
01000000
00100000
00010000
,
20000000
00000000
30020000
00000000
00032000
00000000
00003010
00000100
,
00010000
00000000
00100000
01000000
00001000
00000000
00000100
00000010
,
00000002
00000000
00000010
00000000
00001003
00000100
00010000
01000000
,
00200000
00000000
10000000
00000000
00310000
01000000
00001000
00000100
,
00000020
00000000
00000000
00000000
00000000
00000000
00000001
00000000
00000000
00000000
00000000
00000000
00001030
00000000
00000000
00010100
00000000
00000000
01001000
00000000
00000000
00000000
00000000
00100000
,
10000000
00000000
00000000
00000000
00000000
00000000
01010000
00000000
00000000
00000000
00000000
00001000
00010000
00000000
00000000
00000000
00000000
00000000
00001010
00000000
00000000
00000000
00000000
00000000
,
00000002
00000000
00000000
00000000
00000000
00000000
00000103
00000000
00000000
00000010
00000000
00000000
00000100
00000000
00000000
00001000
00000000
00000000
00010000
00000000
00100000
00000000
00000000
20000000
,
00000000
30100000
00010000
00001000
00000100
00000001
00000010
00001000
,
00010000
00101000
00010100
01001000
,
20000000
00000000
30100000
00000000
00010000
00001000
00000010
00000000
,
00000002
00000000
00000103
00001000
00010000
01000000
10000000
00000000
,
00200000
00000000
00310000
00001000
00010000
00100000
00010000
00001000
,
00000020
00002030
00023000
02030000
,
13000000
00010000
00100000
00001000
00000100
00000010
00000100
00000001
,
00001000
00000010
00010000
00001000
00000010
00000001
00000010
00001000
,
00010000
01000000
00100000
00010000
10000000
00100000
00010000
00100000
,
10000000
00000000
00000000
00000000
00000000
00010000
00000000
00000000
00000000
00001000
00000000
00000000
00000000
00000000
00000001
00000000
00000000
00000000
00000100
00000000
00000000
00000100
00000000
00000000
,
00000000
00000001
00000010
00001000
00010000
01000000
10000000
00000000
,
00100000
10000000
00010000
01000000
00001000
00010000
00000100
00001000
,
00000000
00000010
00000010
00000000
00011000
00000000
00001000
00010000
,
01000000
00100000
00001000
00010000
00000010
00000100
00001000
00010000
,
00100000
00000000
10000000
00000000
00000000
00000000
00200000
00000000
00000000
00000000
00000000
00000000
01300000
00000000
00000000
00001000
00000000
00000000
00000000
00000000
00000100
00000000
00000000
00000000
,
00000001
00000000
00000000
00000010
00000000
00000000
00001000
00000000
00000000
00000000
00000000
00000000
00000000
00000000
00000000
00000000
;

//--------------- dance-double - blank ----------------
#NOTES:
     dance-double:
     blank:
     Hard:
     15:
     0,0,0,0,0:
00000000
00000000
00000000
00000000
,
00000000
00000000
00000000
00000000
,
00000000
00000000
00000000
00000000
,
00000000
00000000
00000000
00000000
,
00000000
00000000
00000000
00000000
,
00000000
00000000
00000000
00000000
,
20000000
00000000
00000000
00000000
00000000
00000000
32000000
00000000
00000000
00000000
00000000
03010000
00000000
00000000
00010000
00001000
00000000
00000000
00000000
00000000
00001000
00000000
00000000
00000100
,
00000000
00000000
00000000
00000001
00000000
00000000
00000100
00000000
00000000
00001000
00000000
00000100
00000000
00000000
00000001
00000000
00000000
00000100
00000000
00000000
00000000
00000000
00000000
00000000
,
00000010
00000000
00000000
00000010
00000000
00001000
00000000
00000000
00000100
00000000
00000000
00010000
00000000
00000000
00001000
00000000
00000000
00100000
00000000
00000000
01000000
00000000
00000000
20000000
,
00000000
00100000
00010000
30001000
,
10000000
00100000
00010000
00001000
00000010
00001000
00010000
00100000
,
01000000
00100000
00010000
00001000
00000010
00000100
00001000
00000000
,
00000001
00000010
00001000
00010000
00100000
00010000
00001000
00000010
,
00000100
00000000
00000000
00001000
00000000
00000000
00010000
00000000
00000000
00100000
00000000
01000000
00000000
00000000
00000000
10000000
00000000
00010000
01000000
00000000
00000000
00110000
00000000
00000000
,
00002000
00000000
00000000
00000000
00000000
00000000
01000000
00000000
00000000
00000000
00000000
00000000
00010000
00000000
00000000
00003000
00000000
00100000
00001000
00000000
00100000
00001000
00000000
00000000
,
00020000
00000000
00000000
00000000
00000000
00000000
00000010
00000000
00000000
00000000
00000000
00000000
00000100
00000000
00000000
00030000
00000000
00000010
00010000
00000000
00000010
00010000
00000000
00000000
,
00002000
00000000
00000000
00000000
00000000
00000000
01000000
00000000
00000000
00000000
00000000
00000000
00013000
00000000
00000000
00000000
00000000
00000100
00010000
00000000
00000100
00010000
00000000
00000000
,
00000010
00000000
00001000
00000000
00000000
00000000
00000001
00000000
00000000
00000010
00000000
00000100
00000000
00000000
00000000
00010000
00000000
00000000
00001000
00000000
00010000
00100000
00000000
00000000
,
10000000
01000000
00010000
01000000
10000000
01000000
00010000
01000000
,
00100000
00000000
00000000
00001000
00000000
00000000
01000000
00000000
00000000
00100000
00000000
00010000
00001000
00000000
00000000
01000000
00000000
00000000
01000000
00000000
00000000
00001000
00000000
00000000
,
00010000
00000000
00000000
00000010
00000000
00000000
00000100
00000000
00000000
00000001
00000000
00000010
00000100
00000000
00000010
00000100
00000000
00000000
00001000
00000000
00000000
00010000
00000000
00000000
,
00100000
00000000
00000000
10000000
00000000
00000000
00100000
00000000
00010000
00000000
00000000
00000000
01000000
00000000
00000000
00000000
00000000
01000000
00010000
00000000
00000000
00001000
00000000
00000000
,
00000010
00000100
00000010
00000001
00000010
00000100
00000010
00000001
,
00000010
00000000
00000000
00001000
00000000
00000000
00000100
00000000
00000000
00000010
00000000
00001000
00010000
00000000
00000000
01000000
00000000
00000000
00100000
00000000
00000000
01000000
00000000
00000000
,
10000000
00000000
00000000
00010000
00000000
00000000
01000000
00000000
00000000
00001000
00000000
00010000
00000100
00000000
00010000
00000100
00000000
00000000
00000010
00000000
00000000
00000002
00000000
00000000
,
00000010
00000100
00001000
00010003
,
00000011
00000000
00000000
00000000
00000000
00000000
00000101
00000000
00000000
00000000
00000000
00010100
00000000
00000000
00000000
00001000
00000000
00010000
00000000
00000000
01000000
00000000
00000000
00000000
,
10100000
00000000
00000000
00000000
00000000
00000000
11000000
00000000
00000000
00000000
00000000
01001000
00000000
00000000
00000000
00010000
00000000
00001000
00000000
00000000
00000100
00000000
00000000
00000000
,
00000110
00000020
00002030
00203000
,
10300000
00000000
01000000
00100000
00000000
00010000
00100000
00000000
00000000
01000000
00000000
00000000
00010000
00000000
00000000
00001000
00000000
00000010
00000000
00000000
00000001
00000000
00000000
00000000
,
00001010
00000000
00000000
00000000
00000000
00010000
00001000
00000000
00000000
00000000
00000000
00110000
00000000
00000000
00000000
10000000
00000000
00100000
00000000
00000000
01000000
00000000
00000000
00000000
,
01010000
00000000
00000000
00000000
00000000
00001000
00010000
00000000
00000000
00000000
00000000
00001010
00000000
00000000
00000001
00000100
00000000
00000000
00000100
00000000
00000000
00001000
00000000
00000000
,
00010000
00100000
10000000
01000000
00010000
00010000
00001000
00000010
,
00000002
00000010
00000010
00000100
00000100
00001000
00001003
00000001
,
00000000
00000000
00000110
00000000
00000000
00000000
00001000
00000000
00010000
00000000
00000000
01100000
00000000
00000000
00000000
10000000
00000000
00000000
00100000
00000000
00100000
00000000
00000000
00010000
,
00001000
00000000
00000000
00000000
00000000
00000000
00000010
00000000
00000010
00000000
00000000
00001000
00010000
00000000
00000000
00100000
00000000
00000000
10000000
00000000
00010000
00000000
00000000
20000000
,
00000000
00000000
00000000
01000000
00000000
00000000
31000000
00000000
00000000
00100000
00000000
00010000
00100000
00000000
00000000
00001000
00000000
00000000
00010000
00000000
00000010
00000000
00000000
00000110
,
00000000
00000000
00000000
00001000
00000000
00000000
00000010
00000000
00000000
00000100
00000000
00001000
00000000
00000000
00000000
00010000
00000000
00000000
00100000
00000000
00000000
20000000
00000000
00000000
,
30000000
00000000
00000000
02000000
00000000
00000000
03000000
00000000
00000000
00020000
00000000
00000000
00030000
00000000
00000000
00001000
00000000
00010000
00000100
00000000
00000100
00000000
00000000
00010000
,
00001000
00000000
00000000
00000000
00000000
00000000
01000000
00000000
01000000
00000000
00000000
00001000
00010000
00000000
00000000
00000010
00000000
00000000
00000100
00000000
00000001
00000000
00000000
00000020
,
00000000
00000000
00000000
00000001
00000000
00000000
00000031
00000000
00000000
00001000
00000000
00000100
00001000
00000000
00000000
00000010
00000000
00000000
00010000
00000000
00000100
00000000
00000000
00011000
,
00000000
00000000
00000000
00100000
00000000
00000000
00001000
00000000
00000000
01000000
00000000
00010000
01000000
00000000
00000000
00100000
00000000
00000000
10000000
00000000
00000000
01000000
00000000
00000000
,
00010000
00000000
00000000
00001000
00000000
00000000
00000100
00000000
00000000
00000001
00000000
00000000
00000010
00000000
00000000
00001000
00000000
00000000
00010000
00000000
00001000
00000000
00000000
00000100
,
00000010
00000000
00000000
00000000
00000000
00000000
00001000
00000000
00010000
00000000
00000000
01000000
00100000
00000000
00000000
00010000
00000000
00000000
00100000
00000000
10000000
00000000
00000000
02000000
,
00000000
00000000
00000000
00010000
00000000
00000000
13000000
00000000
00000000
00010000
00000000
00100000
00010000
00000000
00000000
00001000
00000000
00000000
00000010
00000000
00000100
00000000
00000000
00001010
,
00000000
00000000
00000000
00000001
00000000
00000000
00000100
00000000
00000000
00000100
00000000
00000010
00010000
00000000
00000000
00001000
00000000
00000000
00001000
00000000
00000000
00000200
00000000
00000000
,
00000300
00000000
00000000
00002000
00000000
00000000
00003000
00000000
00000000
02000000
00000000
00000000
03000000
00000000
00000000
00010000
00000000
00100000
00001000
00000000
00010000
00000000
00000000
00000100
,
00000010
00000000
00000000
00000000
00000000
00000000
00001000
00000000
00010000
00000000
00000000
01000000
00100000
00000000
00000000
00010000
00000000
00000000
10000000
00000000
00100000
00000000
00000000
02000000
,
00000000
00000000
00000000
03010000
00000000
00000000
00010000
00000000
00000000
00100000
00000000
00001000
00100000
00000000
00000000
00001000
00000000
00000000
00010000
00000000
00000100
00000000
00000000
00000110
,
00000000
00000000
00000000
00000001
00000000
00000000
00001000
00000000
00000000
00000001
00000000
00000010
00000100
00000000
00000000
00001000
00000000
00000000
00000010
00000000
00000000
00001000
00000000
00000000
,
00020000
00000000
00000000
00000000
00000000
00000000
00130000
00000000
00000000
00000000
00000000
00100000
01000000
00000000
10000000
00100000
00000000
00000000
01000000
00000000
00010000
00100000
00000000
00000000
,
00022000
00000000
00000000
00033000
00000000
00000000
00000100
00000000
00000000
00000000
00000000
00000010
00000000
00000000
00000100
00001000
00000000
00000000
00011000
00000000
00000000
00000000
00000000
00100000
,
00000000
00000000
00000000
01000000
00000000
00000000
10000000
00000000
00000000
01000000
00000000
00100000
00000000
00000000
00000000
01100000
00000000
00000000
00000000
00000000
00011000
00000000
00000000
00000000
,
00000110
00000000
00000000
00000001
00000000
00000100
00000000
00000000
00001000
00000000
00000000
00010000
00000000
00000000
00100000
00000000
00000000
10000000
01000000
00000000
00100000
00000000
00000000
10010000
,
00000000
12000000
03020000
00032000
,
00003100
00000001
00000010
00000000
00001000
00010000
00100000
00000000
,
10000000
01000000
00010000
00000000
00001000
00000010
00000001
00000000
,
00000100
00001000
00010000
00000000
00100000
10000000
01000000
00000000
,
10000000
00000000
00000000
00000000
00000000
00010000
00000000
00000000
00000000
00001000
00000000
00000000
00000000
00000000
00010000
00000000
00000000
00000000
10000000
00000000
00000000
10000000
00000000
00000000
,
00100000
01000000
00010000
00000000
00001000
00000010
00000100
00000000
,
00000001
00000010
00001000
00000000
00010000
01000000
10000000
00000000
,
01000000
00000000
00000000
10000000
00000000
00000000
00100000
00000000
00000000
00000000
00100000
00000000
00000000
00000000
00010000
00001000
00000000
00000000
00000100
00000000
00000000
00000001
00000000
00000000
,
00000010
00000000
00000000
00000100
00000000
00000010
00000000
00000000
00000001
00000000
00000000
00000100
00000000
00000000
00001000
00010000
00000000
00001000
00010000
00000000
00001000
00010000
00000000
00000000
,
00002000
00000000
00023000
00000000
00030000
00000000
00100000
00000000
10000000
01000000
00000000
00010000
00001000
00000000
00000000
00011000
00000000
00000000
00000000
00000000
00000110
00000000
00000000
00000000
,
00001010
00000000
00000000
00000000
00000000
00011000
00000000
00000000
00000000
02020000
00000000
00000000
00000000
00000000
00000000
00000000
00000000
00000000
00000000
00000000
00000000
00000000
00000000
00000000
,
03030000
00000000
00000000
00000000
;
