#TITLE:beatAffection;
#SUBTITLE:;
#ARTIST:ビートまりお;
#TITLETRANSLIT:;
#SUBTITLETRANSLIT:;
#ARTISTTRANSLIT:;
#GENRE:;
#CREDIT:;
#MUSIC:beatAffection.ogg;
#BANNER:beatAffection.png;
#BACKGROUND:beatAffection-bg.png;
#CDTITLE:;
#SAMPLESTART:64.066;
#SAMPLELENGTH:15.000;
#SELECTABLE:YES;
#OFFSET:1.618;
#BPMS:0.000=95.000
,24.000=190.000
,248.000=95.000
,252.000=190.000
;
#STOPS:;
#BGCHANGES:2.000=beatAffection.avi=1.000=0=0=0=StretchNoLoop====,
99999.000=-nosongbg-=1.000=0=0=0=StretchNoLoop====
;
#FGCHANGES:;

//--------------- dance-single - chrononical ----------------
#NOTES:
     dance-single:
     chrononical:
     Beginner:
     5:
     0,0,0,0,0:
0000
0000
0000
0000
,
0000
0000
0000
0000
,
0000
0000
0000
0000
,
0000
0000
0000
0000
0000
0000
1000
0001
,
2001
3001
0100
0110
,
0010
1001
0100
1001
,
0001
0000
1000
0000
,
0001
0001
0001
0000
,
0010
0000
0100
0000
,
1000
0001
1000
0100
,
1000
0000
0001
0000
,
0100
0100
0100
0000
,
0010
0100
0001
0100
,
0010
1000
0001
0000
,
2001
0000
3001
0000
,
1000
0100
0020
0000
,
0031
0000
0010
0000
,
1000
0000
0100
0000
,
1002
0000
1003
0000
,
0100
1000
0200
0000
,
1300
0001
0100
0010
,
1000
0000
1000
0000
,
1002
0000
1003
0000
,
0100
0010
0002
0000
,
1003
0000
0010
0000
,
0001
0000
0100
0000
,
2001
0000
3001
0000
,
0100
0010
0100
0000
,
0001
0000
1001
0000
,
1001
0000
0110
0000
,
0010
1000
0002
0000
,
0013
0100
2000
0000
,
3001
0100
0010
1000
,
0001
1000
0001
0000
,
1000
0001
0002
0000
,
0103
0001
2000
0000
,
3010
0100
0001
1000
,
0100
0010
0002
0000
,
2003
0000
3100
0000
,
0001
0000
0100
0000
,
1000
0000
1001
0000
,
0001
1000
0002
0000
,
0103
0010
0020
0000
,
1030
0100
0010
0100
,
2000
0000
3001
0000
,
1001
0000
1000
0000
,
2001
0000
3001
0000
,
0001
0010
0100
0000
,
1000
0000
0010
0000
,
0100
0001
1000
0000
,
1002
0000
0103
0000
,
0001
1000
1000
0000
,
0100
0000
1000
0000
,
0001
0010
0001
0000
,
1002
0000
0103
0000
,
0010
1000
0001
0000
,
1000
0000
0010
0000
,
1000
0100
0010
0000
,
2001
0000
3010
0000
,
1000
0010
0100
0000
,
0110
0000
0010
0000
,
1000
0001
1000
0000
,
1002
0000
1003
0000
,
0010
0100
0001
1000
,
0010
0000
0010
0000
,
1000
0001
0010
0100
,
0010
0000
0100
0000
,
0120
0000
0130
0000
,
1000
0010
0100
0010
,
1000
0000
0001
0000
,
1002
0000
1003
0001
,
0020
0000
0130
1000
,
0001
0010
0100
0000
,
1000
0010
0100
0001
,
2000
0000
3010
0010
,
0020
0000
1030
0001
,
0010
0100
1000
0010
,
0100
0000
1000
0000
,
0100
0000
0001
0000
,
2002
0000
0000
0000
,
3003
0000
1000
0000
,
0002
0000
0000
0000
,
0000
0000
0000
0000
,
0003
0000
0001
0000
,
0010
0100
1000
0000
,
1001
0000
0001
0000
,
1000
1000
1000
0000
,
0010
0000
0100
0000
,
0010
0100
0001
1000
,
0010
0000
0100
0000
,
0001
0001
0001
0000
,
1000
0000
0100
0000
,
0010
0001
1000
0010
,
0100
0000
0001
0000
,
1000
1000
1000
0000
,
0010
1000
0001
0010
,
0100
1000
0001
0000
,
2002
0000
0000
0000
,
0000
0000
0000
0000
,
3003
0000
0000
0000
;

//--------------- dance-single - chrononical ----------------
#NOTES:
     dance-single:
     chrononical:
     Easy:
     8:
     0,0,0,0,0:
0000
0000
0000
0000
,
0000
0000
0000
0000
,
0000
0000
0000
0000
,
0000
0000
0000
0000
0000
0000
0001
1000
,
2001
0000
3001
0000
0010
0100
0110
0000
,
0110
0000
0000
0000
1100
0000
0000
1000
0000
0000
0001
0000
0100
0000
0010
0000
,
0110
0010
1000
0001
,
0010
0100
1000
0001
,
0100
0010
1000
0001
,
1000
0100
1000
0000
0001
0100
0001
0000
,
1001
1000
0010
0100
,
0001
0010
0100
1000
,
0001
0010
1000
0100
,
0001
0000
1000
0000
0001
1000
0001
0000
,
2001
0000
3010
0010
,
0100
0001
0201
0000
,
0301
0010
0110
0000
,
0100
1000
0020
0000
,
0230
0000
0301
1000
,
0010
0001
0020
0000
,
1030
0001
1000
0001
,
1001
0000
0000
0100
0000
0000
0010
0000
,
2001
0000
3100
0100
,
1000
0001
0201
0000
,
0310
0000
1000
0100
,
0001
0100
2000
0000
,
3002
0203
0310
1000
,
0010
0100
0010
0100
,
0101
0000
1001
0000
,
1100
0000
0000
0100
0000
0000
0010
0000
,
0011
0000
0001
0010
0001
0000
1000
0000
,
0010
0100
0010
0110
,
0010
1000
0001
1000
,
0001
1000
1002
0000
,
1003
0000
0010
1000
0010
0000
0010
0000
,
0100
0001
0100
0101
,
0001
1000
0100
0010
,
0001
0100
1000
0010
,
0002
0000
0013
0001
0010
0000
0010
0000
,
0010
0001
0100
0010
,
1000
0000
0010
0100
0000
0001
1000
0000
,
0001
0100
0220
0330
,
0120
0100
0130
0010
,
1000
0100
0010
0100
,
1000
0000
0001
0000
1000
0000
0001
1000
,
0002
0003
2000
3200
,
2300
0000
3010
0000
0100
0020
0000
2030
,
0000
0000
3001
0000
0010
0200
0000
0000
,
2300
0000
0000
3200
0000
0000
1300
0200
,
0000
0000
1300
0200
0000
0000
1300
0000
,
0020
0000
0130
0000
0010
2000
0000
3002
,
0000
0000
1003
0000
1000
0020
0000
0000
,
0230
0000
0310
0200
0000
0000
0310
0200
,
0000
0000
0301
2000
0000
0000
3001
0000
,
0100
0010
1000
0001
,
0010
1000
0010
0001
,
2000
0000
3010
0100
0000
0100
0001
0000
,
1000
0100
0010
0100
,
1000
0001
0100
0001
,
0100
1000
0100
0001
,
2000
0000
3100
0010
0000
0010
0100
0000
,
1000
0000
0001
2000
0000
0000
3001
0000
,
1002
1003
0100
0010
,
0001
1000
0001
1000
,
0001
0010
1000
0010
,
0100
0001
0100
1000
,
0001
0100
1000
0010
,
0002
0000
0103
0010
,
0100
1000
0100
0010
,
1000
0001
0010
1000
,
0020
0000
0230
2300
,
3002
0000
0103
0010
,
1000
0001
0010
0100
,
0010
0000
0100
0000
1000
0001
1000
0000
,
0002
0000
0103
0010
,
0210
0000
0310
1000
,
0001
0010
1000
0100
,
0001
0000
0000
1000
0000
0000
0010
0000
,
0200
0000
0301
1000
,
2002
0000
0000
0000
,
3003
0000
1000
0100
,
0020
0000
0000
0000
,
0000
0000
0000
0000
,
0030
0001
1000
0010
,
0100
0000
0001
1000
0001
0000
0100
0000
,
0110
0010
1000
0001
,
0010
0100
1000
0001
,
1000
0010
0001
0100
,
1000
0001
0100
0010
,
0110
1000
0001
0010
,
0100
1000
0001
0100
,
0010
1000
0001
1000
,
0010
0100
0010
0000
1000
0001
1000
0000
,
1001
0001
1000
0001
,
0010
0100
1000
0001
,
1000
0100
0001
0010
,
1000
0000
0100
0000
1000
0001
1000
0000
,
2002
0000
0000
0000
,
0000
0000
0000
0000
,
3003
0000
0000
0000
;

//--------------- dance-single - chrononical ----------------
#NOTES:
     dance-single:
     chrononical:
     Medium:
     13:
     0,0,0,0,0:
0000
0000
0000
0000
,
0000
0000
0000
0000
,
0000
0000
0000
0000
,
0000
0000
0000
0000
0000
0000
1000
0001
,
2001
0000
0000
0000
0000
0000
0000
0000
0000
0000
3001
0000
0000
0010
0000
0000
0200
0000
0000
0000
0000
0000
0000
0000
0000
0000
1300
0000
0010
0000
0100
0000
,
0002
0000
1003
0100
0000
0110
0000
2001
0000
0000
3001
0000
0100
0000
1000
0000
,
0100
0000
0101
0000
0001
0010
0100
1000
,
0001
0000
1001
0000
1000
0010
0100
0001
,
1000
0000
0001
0010
1000
0010
0100
0000
,
0100
1000
0010
0100
0001
1000
0001
0000
,
1001
0000
0011
0000
0001
0100
0010
1000
,
0010
0000
0000
0000
1010
0000
0000
0000
1000
0000
0000
0010
0000
0000
0100
0000
,
0001
0000
0000
1000
0010
0000
0000
0100
0001
0000
0000
1000
0100
0000
0000
0010
,
0001
1000
0010
0100
0010
0100
0001
1000
,
0002
0000
0000
1003
0100
0001
0100
1000
,
0001
0100
1000
0100
0020
0000
1030
0001
,
2000
0000
0000
0000
3001
0000
1000
0000
0002
0000
0000
0103
0010
0000
1000
0000
,
0100
0110
0220
0330
,
0020
0000
0000
0031
1000
0010
0001
0010
,
1000
0100
0001
0100
2000
0000
3001
0100
,
0001
0000
0000
1000
0010
0000
1000
0000
0001
0000
0100
0000
0010
0000
0000
0000
,
0110
0000
0000
1010
0000
0000
1001
0000
,
0002
0000
0000
0013
0100
0010
1000
0010
,
0100
0010
0001
1000
0020
0000
0130
0010
,
2000
0000
0000
0000
3001
0000
0010
0000
0002
0000
0000
0013
0100
0000
1000
0000
,
0002
0000
0103
0010
0200
0000
0000
0000
,
0320
0000
2030
0000
3001
0010
1000
0010
,
0100
1000
0001
0100
0020
0000
1030
0000
,
0101
0001
1100
1000
,
1010
0000
0000
0011
0000
0000
1010
0000
,
2000
0000
3010
0100
0020
0000
0000
0000
,
1030
0000
0000
0001
0100
0000
0010
0000
2000
0000
0000
0000
3001
0000
0000
0000
,
0001
0000
0000
0010
0100
0000
0010
0000
0100
0000
0000
1000
0001
0000
1000
0000
,
0001
0100
0210
0000
,
0320
0000
1030
0001
0020
0000
0000
0000
,
0130
0000
0000
1000
0001
0000
0100
0000
0020
0000
0000
0000
1030
0000
0000
0000
,
1000
0000
0000
0010
0100
0000
0001
0000
1000
0000
0000
0100
0010
0000
0001
0000
,
0010
1000
0010
0001
2000
0000
3002
0000
,
2003
0000
3010
0100
0010
0100
0001
0000
,
1000
0100
0010
0100
0010
0001
1000
1000
,
0001
0000
0100
1000
0000
0100
0001
0010
,
0100
1000
0001
0100
0020
0000
0000
1030
,
0001
0000
0010
0000
0110
0000
0000
0100
,
1000
0000
0001
0100
0010
0000
1000
0001
,
1000
0000
1001
0000
0001
0000
0100
0010
,
0100
0000
0110
0000
0010
1000
0001
0010
,
0200
0000
1300
0010
0100
0002
0000
2003
,
0000
3100
0010
0001
1000
0020
0000
1030
,
0200
0000
0301
0200
0000
0310
0100
2000
,
0000
3001
0100
0020
0000
0000
1030
0100
,
0020
0000
0130
1000
0001
0200
0000
0310
,
0000
1000
0001
0100
0010
2000
0000
3001
,
0200
0000
1300
0200
0000
0310
1000
0002
,
0000
1003
0001
0020
0000
0000
0130
1000
,
0002
0000
0103
0010
1000
0010
0000
1020
,
0000
1030
0100
0010
0100
2000
0000
0001
,
3020
0000
1030
0020
0000
0130
1000
0002
,
0000
1003
0010
0200
0000
0000
0301
1000
,
0002
0000
1003
0100
0010
0100
0000
1200
,
0000
1300
0010
0010
0100
0002
0000
1003
,
0020
0000
0031
0020
0000
1030
0001
1000
,
0001
0100
0010
2000
0000
0000
0000
0000
,
3001
0000
0100
0000
0110
0000
0000
0010
0100
0000
0010
0000
1010
0000
0020
0000
,
1030
0100
0010
0100
1000
0001
0100
0010
,
0100
0000
0000
0010
1000
0000
0000
0001
0010
0000
0100
0000
1000
0000
0001
0000
,
0100
0000
0000
0010
1000
0000
0000
0100
1000
0000
0100
0000
0010
0000
0100
0000
,
1000
0000
0000
0010
0100
0000
0000
0010
0100
0000
0010
0000
1000
0000
0010
0000
,
0200
0000
0000
0301
0010
0100
1000
0000
,
0010
1000
0001
0100
0020
0000
2030
0000
,
3001
0010
0001
1000
0010
0100
0010
1000
,
0002
0000
2003
3200
,
0320
0000
0000
0130
1000
0001
0100
0010
,
1000
0001
0200
0000
0310
1000
0001
0010
,
0200
0000
1300
0001
0100
1000
0100
0001
,
2000
0000
3002
0023
,
0230
0000
0000
1300
0001
0100
0010
1000
,
0010
0001
0010
1000
0100
0001
0100
1000
,
0001
0000
0000
0100
0010
0000
0100
0000
0000
0000
0001
0000
0010
0000
0100
0000
,
2000
0000
3020
0230
,
0302
0000
0000
0000
0000
0000
0003
1000
,
0001
0000
0000
0000
0000
0000
0000
0000
1000
0000
0000
0100
0000
0000
0010
0000
,
0200
0010
1000
0001
,
1000
1000
0001
0010
,
1300
0000
0010
0100
0000
0001
1000
0001
,
0100
1000
0100
0001
1000
0000
0001
0000
,
1001
0000
0000
0000
1000
0000
0000
0000
0010
0000
0100
0000
0000
0100
0000
0000
,
0001
1000
0100
0010
0000
0001
1000
0000
,
1001
0000
1000
0010
0000
0100
0000
0001
,
1000
1100
0100
0110
,
0010
0000
0011
0000
0001
0100
0010
0100
,
0010
0000
0110
0000
0100
0010
1000
0001
,
0010
0000
0100
0001
0100
1000
0001
0000
,
0001
0100
1000
0100
0010
0100
0001
0000
,
1001
0000
1100
0000
0100
0010
0100
1000
,
0001
0000
1001
0000
0001
0100
0010
0100
,
0001
0000
0000
0010
0100
0000
0000
1000
0001
0000
0000
0100
0010
0000
0000
1000
,
0001
0000
0100
0000
1000
0000
0100
0000
0001
0000
0000
1000
0010
0000
0000
0000
,
0220
0000
0000
0000
,
0000
0000
0000
0000
,
0330
0000
0000
0000
;

//--------------- dance-single - chrononical ----------------
#NOTES:
     dance-single:
     chrononical:
     Hard:
     15:
     0,0,0,0,0:
0000
0000
0000
0000
,
0000
0000
0000
0000
,
0000
0000
0000
0000
,
0000
0000
0000
0000
0000
0000
1000
0010
,
0210
0000
0000
0000
0000
0000
0000
0000
0301
0000
0010
0000
0000
0001
0000
0000
0012
0000
0000
0000
0000
0000
0000
0000
0000
0000
1003
0000
0010
0000
0100
0000
,
0010
0000
0100
0010
0000
0110
0000
0101
0000
0000
0011
0000
0110
0000
1100
0000
,
1000
0001
1000
0100
0010
0001
0000
0010
,
0100
1000
0001
0100
0010
1000
0000
0001
,
0100
0010
1000
0100
0001
0100
0010
0100
,
1000
0010
0001
0010
1000
0010
0100
0001
,
0100
0001
0010
0100
0010
0100
0000
0100
,
1000
0010
0100
0010
1000
0001
0000
0001
,
0010
0000
0100
0010
0100
0000
1000
0100
1000
0000
0001
0100
0001
0000
1000
0000
,
0001
0010
1000
0010
0100
0010
0001
1000
,
2001
0000
0000
0000
0000
0000
3010
0000
0100
0000
0001
0010
0001
0000
0010
0000
,
0100
0000
1000
0100
1000
0000
0001
0000
0020
0000
0000
0000
0130
0000
1000
0000
,
0010
0000
0000
0000
0010
0000
1000
0000
0100
0000
0000
1000
0010
0000
0100
0001
,
0100
0101
0220
0330
,
0201
0000
0000
0000
0000
0000
0301
0000
0010
0000
0100
1000
0100
0000
1000
0000
,
0001
0100
0001
0000
1000
0000
1000
0000
0020
0000
0000
0000
0130
0000
0001
0000
,
0010
0000
0000
0010
0001
0000
0100
0010
0100
0000
1000
0000
0100
0000
0001
0000
,
1000
0010
0000
0100
0010
0000
0100
0001
,
2000
0000
0000
0000
0000
0000
3010
0000
0100
0000
0001
0010
0001
0000
0100
0000
,
0001
0000
0010
0100
0010
0000
0100
0000
2000
0000
0000
0000
3100
0000
1000
0000
,
0010
0000
0000
0000
0010
0000
1000
0000
0100
0000
0000
0010
0001
0000
1000
0010
,
1000
0000
0001
0100
0220
0000
0330
0000
,
2010
0000
0000
0000
3200
0000
0000
0000
0310
0000
0001
1000
0001
0000
0010
0000
,
0100
0000
1000
0010
1000
0000
0001
0000
0200
0000
0000
0000
0310
0000
1000
0000
,
2010
0000
3010
0000
0120
0000
0130
0001
,
0100
0010
0000
1000
0100
0000
0010
0001
,
2000
0000
3010
0100
0010
0000
0120
0000
,
0130
0000
0000
0001
0010
0000
0100
1000
0100
0000
0000
0000
2100
0000
0000
0000
,
3100
0000
0000
0100
0010
0000
0001
0000
0100
0000
0000
0100
0010
0000
1000
0000
,
0010
1010
0220
0330
,
0201
0000
0301
0010
0100
0000
0120
0000
,
0130
0000
0000
1000
0001
0000
0100
0010
0100
0000
0000
0000
0210
0000
0000
0000
,
0310
0000
0000
0010
1000
0000
0100
0000
0010
0000
0000
0010
0001
0000
0100
0000
,
0010
0000
1000
0000
0010
0000
0001
0000
0020
0000
0000
0000
1030
0001
1000
0000
,
0001
0000
0001
0010
1000
0010
0001
1000
,
0001
0000
1000
0010
1000
0000
0010
0000
0100
0000
0001
0010
0001
0000
1000
0000
,
0001
1000
0001
0000
0100
0000
0010
0100
0010
0000
1000
0000
0001
0100
0001
0000
,
0010
0000
0100
0000
1000
0000
0001
0010
0002
0000
0000
0000
0000
0000
1003
0010
,
2000
0000
0000
0000
0001
0000
0000
0000
0002
0000
0000
0000
3003
0000
0001
0100
,
0001
0010
0100
1000
0001
0100
0010
1000
,
0001
0000
0010
0000
1000
0000
0010
0000
0100
0000
1000
0000
0001
1000
0001
1000
,
0002
0000
1003
0000
1000
0010
0001
0010
,
2000
0000
3010
0100
1000
0100
0000
0210
,
0000
0310
1000
0100
0010
0002
0000
0013
,
0100
0000
0100
2000
0000
3001
0010
0002
,
0000
1003
0010
2000
0000
3010
0100
0010
,
0210
0000
0310
0001
0010
0100
0000
0210
,
0000
0310
1000
0100
0010
0200
0000
1300
,
0010
0000
0010
0100
0000
0100
0001
0010
,
0000
0010
0001
0200
0000
0310
1000
0001
,
0020
0000
0130
1000
0001
1000
0000
2010
,
0000
3010
0100
0001
0100
0002
0000
1003
,
2000
0000
3100
0010
0000
0010
0100
2000
,
0000
3001
0100
0020
0000
1030
0001
0100
,
0210
0000
0310
1000
0100
0010
0000
0210
,
0000
0310
0001
0100
0010
2000
0000
3001
,
0001
0000
0000
0000
0010
0000
0002
0000
0000
0000
0103
0000
0010
0000
1000
0010
,
1000
0001
0200
0002
0000
0000
0303
0000
,
2001
0000
0000
0000
0000
0000
0000
0000
3000
0000
0001
0000
0000
0010
0000
0000
0100
0000
0000
0000
1000
0000
0000
0000
0001
0000
0000
0100
0000
0000
0010
0000
,
1000
0010
0100
0000
0001
0000
0010
0100
1000
0000
0001
0000
0100
0000
0010
0100
,
0001
0000
1000
0100
1000
0000
0100
0010
0001
0000
0100
0000
0010
0000
0100
0000
,
0010
0000
1000
0100
1000
0000
0001
0100
0001
0000
1000
0000
0100
0000
0010
0000
,
0100
0000
1000
0100
0010
0000
0001
0000
0100
0000
0010
0000
0100
0000
0001
0000
,
0202
0000
0000
0000
0303
0000
0100
0010
1000
0000
0001
0000
0010
0100
0000
1000
,
0000
0010
0100
0000
0010
0000
0100
0000
0001
0000
1000
0000
0100
0000
0010
0000
,
0100
0000
1000
0001
1000
0000
0010
0000
0100
0000
0001
0000
0010
0000
0001
0000
,
0022
0033
0110
1100
,
2002
0000
0000
0000
3003
0000
1000
0010
0100
0000
0010
1000
0001
0000
0010
0000
,
0100
0000
1000
0000
0001
0100
0000
0010
0000
0100
0001
0000
0010
0000
0100
0000
,
0010
0100
1000
0001
0100
0010
0100
0010
,
2000
0001
3002
0023
,
0230
0000
0000
0000
0000
0000
1300
0001
1000
0000
0010
0000
0100
0010
0000
1000
,
0000
0001
0010
0000
0100
0000
1000
0000
0001
0000
0100
0000
0001
0000
0010
0000
,
0001
1000
0000
0010
0100
0000
0010
0000
0000
1000
0001
0000
0010
0000
0100
0000
,
2000
0000
3001
0100
,
0220
0000
0000
0000
0000
0000
0000
0000
0000
0000
0000
0000
0330
0000
0010
1000
,
0001
0000
0000
0000
0000
0000
0000
0000
0101
0000
0000
0100
0000
0000
0010
0000
,
2010
0001
0010
0001
,
0100
0001
0010
0001
,
3001
0010
0100
0010
0100
1000
0001
1000
,
0001
0100
0010
0100
0010
1000
0001
1000
,
0001
0010
0100
0010
0001
0100
0010
0100
,
0010
1000
0010
0100
0010
1000
0100
0010
,
0002
0000
0013
1000
0000
0010
0000
0001
,
1000
1010
0110
0201
,
0301
0010
0100
1000
0001
0100
0000
0010
,
0010
0100
0001
0010
0100
0010
0000
0010
,
0010
0100
1000
0010
0001
0010
0100
0010
,
1000
0100
0001
0100
0010
0100
1000
0001
,
0001
0100
0010
1000
0100
0010
0000
0010
,
0010
0001
0100
0010
1000
0001
0000
0001
,
0001
0000
0010
0100
1000
0000
0001
0100
0010
0000
1000
0100
0010
0000
0100
0000
,
1000
0000
0100
0000
0001
0000
0100
0000
1000
0000
0001
0100
0010
0000
1000
0000
,
0002
0000
0000
0000
,
0000
0000
0000
0000
,
0003
0000
0000
0000
;

//--------------- dance-single - chrononical ----------------
#NOTES:
     dance-single:
     chrononical:
     Challenge:
     18:
     0,0,0,0,0:
0000
0000
0000
0000
,
0000
0000
0000
0000
,
0000
0000
0000
0000
,
0000
0000
0000
0000
0000
0000
0001
1000
,
1001
0000
0000
0000
0000
0000
0000
0000
1010
0000
0010
0000
0000
0100
0000
0000
0001
0000
0010
0000
0001
0000
0000
0000
0011
0000
0010
0000
0100
0000
1000
0000
,
1001
0000
0001
1000
1001
0001
0000
0101
0000
0000
1001
0000
1100
0000
0011
0000
,
0001
0010
1000
0010
0001
0010
1000
0010
,
0001
0100
1000
0100
0001
0100
1000
0100
,
0001
0100
1000
0100
0010
1000
0100
0001
,
0100
1000
0001
0010
0100
1000
0001
0100
,
0010
0100
1000
0100
0010
0100
0001
1000
,
0100
0010
1000
0010
0100
0010
0001
1000
,
0001
0000
1000
0010
0100
0010
0100
0001
1000
0100
0010
0100
0010
0001
1000
0001
,
1000
0010
0000
0000
0100
0001
0000
1000
0000
0100
0000
0010
0001
0000
1000
0000
,
0001
0000
0010
0000
0100
0000
0010
0000
0001
0000
0100
0010
0100
0000
0010
0000
,
1000
0100
0010
0100
1000
0000
0100
0000
0010
0000
0001
0000
0100
0000
0010
0000
,
0110
0000
0000
0000
0100
0000
0001
0000
0101
0000
0000
0001
1000
0000
0010
1000
,
0010
1000
0100
1000
0001
0100
1000
0100
,
0001
0000
0100
0000
0010
0000
0100
0000
0001
0000
1000
0100
0010
0000
0001
0000
,
1000
0010
0100
0010
1000
0000
0001
0000
1000
0000
0100
0000
1000
0000
0001
0000
,
1000
0000
0000
0001
0100
0000
0001
0010
0001
0000
0010
0000
1000
0000
0010
0000
,
0001
0000
1000
0000
0001
0000
1001
0000
1000
0000
0100
0000
1100
0000
1000
0001
,
1000
0000
0100
0000
0010
0000
0100
0000
1000
0000
0010
0100
0010
0000
1000
0000
,
0100
0010
0100
0010
0001
0000
0100
0000
0010
0000
0100
0000
0010
0000
1000
0000
,
1001
0000
0000
0000
1000
0000
0100
0000
1100
0000
0000
1000
0001
0000
1000
0001
,
1000
0100
0001
0100
0010
0100
1000
0001
,
2000
0000
0000
0000
3100
0000
0000
0000
1000
0000
0100
0010
0100
0000
1000
0000
,
0100
1000
0010
0100
0001
0000
1000
0000
0001
0000
0100
0000
0010
0000
0100
0000
,
0101
0000
0100
0000
1001
0000
0001
0010
,
0011
0001
0000
0011
0010
0000
0110
0100
,
2000
0000
3001
0010
2000
0000
3001
0100
,
1000
0000
0000
0010
0100
0000
0001
1000
0010
0000
0000
0000
0101
0000
0001
0000
,
1000
0000
0000
1000
0010
0000
0100
0000
0100
0000
0000
0100
0001
0000
0010
0000
,
0010
0100
0110
0100
1200
0000
1300
0001
,
2000
0000
3010
0001
0020
0000
0130
0010
,
1000
0000
0000
0100
0010
0000
0001
1000
0001
0000
1000
0000
1001
0000
0000
0000
,
0001
0000
0000
0001
0010
0000
0010
0000
0100
0000
0000
0100
1000
0000
1000
0000
,
0001
0000
0001
0000
0100
0000
0100
0000
0010
0000
1000
0010
1000
0010
0100
0001
,
1000
0010
0100
0001
1000
0100
0001
0100
,
1000
0000
0001
0010
0100
0000
1000
0000
0001
0000
1000
0100
0010
0000
0001
0000
,
1000
0010
1000
0010
0100
0000
0010
0100
0001
0100
0001
0000
1000
0001
1000
0100
,
0010
0100
1000
0000
0001
0000
1000
0001
1000
0000
0010
0000
0100
0000
0001
1000
,
0100
0000
0001
0000
0100
0000
0010
0000
0100
0000
1000
0000
0001
0000
1000
0001
,
0100
0000
1000
0000
0100
0000
0010
0000
0100
0000
0001
0000
1000
0000
0001
1000
,
0001
0100
0010
0100
0010
1000
0001
1000
0001
0010
0100
0010
0100
1000
0001
1000
,
0002
0000
0000
0000
1003
0000
0000
0000
1000
0000
0010
0000
1000
0001
1000
0001
,
1000
0100
0001
0100
1000
0010
1000
0001
,
1000
0000
0010
0000
0001
0000
0010
0000
1000
0000
0001
1000
0001
0000
1000
0000
,
1001
0000
0001
0011
0000
0010
0110
0100
,
1000
0000
0100
0000
0001
0000
0100
0000
1000
0000
0001
0100
0001
0000
1000
0000
,
0001
0100
1000
0100
0001
0100
0010
1000
,
0001
0000
0010
0000
1000
0000
0010
0000
0001
0000
1000
0001
0100
0000
0001
0000
,
0101
0000
0100
0110
0000
0010
1010
1000
,
0001
0010
0100
0000
1000
0000
0001
0100
0000
0010
0000
0100
0001
0000
1000
0000
,
0001
0100
0010
0100
1000
0100
0010
0100
,
0001
0000
0010
0000
0100
0000
0010
0000
1000
0000
0010
0001
1000
0000
0001
0000
,
1001
0000
1000
1100
0000
0100
0110
0010
,
0001
0000
0010
0000
1000
0000
0010
0000
0001
0000
1000
0010
0100
0000
0010
0000
,
1000
0100
0010
0100
1000
0100
0001
0100
,
0010
0000
0100
0000
1000
0000
0010
0000
1000
0000
0010
0100
0001
0000
1000
0000
,
1010
0000
0000
0000
0010
0000
0110
0000
0000
0000
0100
0000
0101
0000
0001
1000
,
0001
0000
0010
0000
1000
0000
0020
0000
0000
0000
0130
1000
0001
0000
1000
0000
,
0001
0000
0100
0000
0101
0000
0001
0010
0000
0010
0100
0000
0110
0000
0200
0000
,
1300
0001
1000
0001
1000
0000
0010
0100
0010
0100
0001
0100
0001
0000
1000
0100
,
0010
0000
0100
0010
0100
0010
0001
1000
0001
0000
0100
0010
1000
0000
0001
0000
,
1000
0000
0010
0100
0001
0000
0100
0001
1000
0000
0100
0000
0001
0000
0100
0000
,
1000
0000
0001
0100
0001
0100
0010
0100
0010
1000
0000
0001
1000
0000
0100
0000
,
1000
0000
0010
0000
0100
0000
0001
0010
0001
0000
0010
0000
0100
1000
0000
0001
,
0100
0010
1000
0001
0100
0010
1000
0001
1000
0010
0000
0100
0001
0000
1000
0000
,
1000
0000
0100
0010
0100
0010
0100
0010
0001
0000
0100
0000
1000
0000
0100
0000
,
0001
0000
0010
0000
1000
0000
0010
0000
0001
0010
0100
0010
0100
0000
1000
0001
,
0100
0000
0100
0000
0010
0000
0100
0010
1000
0000
0100
0010
0100
1000
0001
1000
,
0001
0000
0100
0000
0010
0100
0000
0001
1000
0100
0010
0100
1000
0001
0100
0001
,
1000
0000
0010
0100
0010
1000
0001
1000
0001
0000
0010
0000
1000
0000
0010
0000
,
0001
0000
0100
0000
1000
0000
0100
0000
0001
1000
0000
0010
0100
0000
0001
0000
,
1000
0000
0100
0000
0010
0000
0001
1000
0001
0000
0100
0000
0010
0100
0000
0010
,
1000
0100
1000
0100
0010
0100
0010
0001
1000
0000
0010
0100
0010
0000
0100
0000
,
0001
0100
0010
0100
0001
1000
0000
0001
0000
1000
0100
0010
0001
1000
0001
0100
,
0001
0000
0100
0000
1000
0000
0100
0000
0010
0000
0100
0001
1000
0000
0001
0000
,
2002
0000
0000
0000
0000
0000
0000
0000
0000
0000
0000
0000
3003
0000
0001
1000
,
0001
0000
0000
0000
0000
0000
0000
0000
1010
0000
0000
0010
0000
0000
0100
0000
,
0101
0001
1000
0100
0010
0100
1000
0001
,
0100
0000
0010
0000
0100
0000
0001
0000
1000
0000
0100
0010
0001
0000
1000
0000
,
0001
0010
0100
0001
0100
1000
0001
1000
,
0010
0100
0001
0100
0010
0100
0110
0000
,
0101
0001
1000
0100
0010
0100
0010
0001
,
0100
0000
0010
0000
0100
0000
0010
0000
1000
0000
0010
0100
0001
0000
0010
0000
,
0100
0001
0100
0010
0100
1000
0001
1000
,
1001
1010
0110
0101
,
1001
0001
0010
0100
0010
1000
0010
0001
,
1000
0001
1000
0010
0001
0010
0100
0001
,
1000
0100
0010
1000
0010
0100
0001
0100
,
1000
0001
0100
1000
0100
0010
1000
0001
,
1000
0100
0010
0100
0010
0001
1000
0001
,
1000
0010
0100
0010
0100
0001
1000
0001
,
1000
0000
0010
0100
0010
0100
0001
1000
0001
0010
0100
0010
0100
1000
0100
1000
,
0001
0000
0100
0000
1000
0000
0100
0000
0001
0000
1000
0100
1000
0000
0001
0000
,
2002
0000
0000
0000
,
0000
0000
0000
0000
,
3003
0000
0000
0000
;

//--------------- dance-double - forcednature ----------------
#NOTES:
     dance-double:
     forcednature:
     Easy:
     9:
     0,0,0,0,0:
00000000
00000000
00000000
00000000
,
00000000
00000000
00000000
00000000
,
00000000
00000000
00000000
00000000
,
00000000
00000000
00000000
00000000
00000000
00000000
00001000
00001000
,
00002000
00000000
00000000
00000000
00000000
00010000
00000000
00000000
00023000
00000000
00000000
00000000
00030000
00000000
00000000
00000000
,
00001000
00000000
00000000
00000000
00000100
00000000
00000000
00000110
00000000
00000000
00000000
00000000
00000100
00000000
00000100
00000000
,
00001001
00000000
00000001
00000000
00000100
00000000
00000010
00001000
,
00000010
00000100
00000001
00000010
,
00000100
00000000
00010000
00002000
00000000
00000000
00000000
00000000
,
00003000
00000000
00100000
00010000
,
10010000
00000000
10000000
00000000
00100000
00000000
10000000
01000000
,
10000000
00010000
01000000
00001000
,
00010000
00000100
00001000
00000100
,
00000010
00000001
00001000
00001000
,
00001001
00000001
00000100
00000010
,
00010000
00000000
00001000
01000000
00001000
00000000
00100000
00000000
,
00010000
00100000
01000000
10000000
,
10010000
01100000
10010000
00000000
,
10000000
01000000
00010000
00001000
,
00000100
00000000
00000001
00000010
00000001
00000000
00000100
00000000
,
00000010
00001000
00000100
00000010
,
00000110
00000000
00000000
00001001
00000000
00000000
00000110
00000000
,
00000001
00000100
00001000
00010000
,
01000000
00000000
10000000
00010000
10000000
00000000
00100000
00000000
,
01000000
00001000
00010000
00000100
,
00001100
00010100
00011000
00000000
,
00100000
00001000
00010000
00100000
,
01000000
00000000
00010000
10000000
00010000
00000000
00100000
00000000
,
01000000
00010000
00001000
00000100
,
00000110
00000000
00000000
00001001
00000000
00000000
00000110
00000000
,
00000001
00000100
00000020
00000030
,
00001000
00000100
00020000
00030000
,
00100000
01000000
00010000
10000000
,
02000000
03020000
00032000
00003000
,
00001000
00010000
00000200
00000300
,
00001000
00000010
00000200
00000300
,
00001000
00010000
01000000
00100000
,
00020000
20030000
30020000
00030000
,
01010000
00010000
10000000
01000000
,
10000000
00010000
01000000
00001000
,
00010000
00000100
00001000
00000010
,
00001000
00000001
00000010
00000000
,
00000110
00000100
00001000
00000001
,
00000100
00000100
00000010
00000010
,
00001000
00000001
00001000
00000000
00000001
00001000
00000001
00000000
,
00001001
00000000
00001000
00000100
,
00011000
01000000
00010000
10000000
,
01000000
00100000
01000000
10000000
,
00020000
00000000
00030000
02000000
00000000
03000000
00002000
00000000
,
00003000
00010000
00001000
00020000
00000000
00030000
00000100
00000000
,
00001000
00000001
00000100
00000010
,
00010000
00001000
00100000
00010000
,
02000000
00000000
03000000
00200000
00000000
00300000
20000000
00000000
,
30000000
00010000
10000000
00020000
00000000
00000000
00030000
00000000
,
00100000
01000000
00100000
00001000
,
00010000
00000010
00001000
00000100
,
00000020
00000000
00000030
00000002
00000000
00000003
00000200
00000000
,
00000300
00000001
00000010
00000002
00000000
00000003
00000100
00000000
,
00000010
00001000
00000100
00010000
,
00001000
01000000
00010000
10000000
,
01100000
00000000
00000000
01100000
00000000
00000000
10010000
00000000
,
00000000
10000000
00010000
20000000
00000000
30000000
00100000
00000000
,
02000000
00000000
03002000
00023000
,
00030010
00001000
00000001
00000010
,
00000100
00000010
00000100
00010000
,
00001000
01000000
00100000
01000000
,
00010000
10000000
01000000
10000000
,
20020000
30030000
00010000
00100000
,
01000000
00100000
00001000
00010000
,
00000010
00001000
00000001
00001000
,
00000100
00000100
00000010
00000010
,
00000220
00000330
00000100
00001000
,
00000001
00000100
00000010
00010000
,
00001000
00100000
00001000
00010000
,
00000200
00000300
00010000
00001000
,
00022000
00033000
00001000
01000000
,
00010000
10000000
00100000
10000000
,
10010000
00000000
00000000
01000000
00000000
01000000
00000000
01100000
,
00000000
00000000
00001000
00010000
,
00022000
00000000
00000000
00033000
,
00000100
00000000
00001000
00000001
,
00001001
00000000
00001000
00000000
00000010
00000000
00010000
00001000
,
00010000
00000100
00010000
00001000
,
01000000
00000000
00100000
20000000
00000000
00000000
00000000
00000000
,
30000000
00000000
01000000
00100000
,
10010000
00000000
00010000
00000000
01000000
00000000
00001000
00010000
,
00001000
00100000
00010000
00100000
,
00001000
00000000
00010000
00000010
00000000
00001000
00000000
00000020
,
00000000
00000030
00001001
00001001
,
00000001
00000000
00000100
00000000
00000010
00000000
00010000
00001000
,
00010000
00000100
00001000
00000100
,
00010000
00000000
00001000
02000000
00000000
00000000
00000000
00000000
,
03000000
00000000
00100000
10000000
,
10010000
00000000
00010000
00000000
00100000
00000000
01000000
10000000
,
01000000
00100000
00001000
00010000
,
00000020
00000100
00000100
00000130
,
00000010
00001000
00000001
00000010
,
00002002
00000000
00000000
00000000
,
00000000
00000000
00000000
00000000
,
00003003
00000000
00000000
00000000
;

//--------------- dance-double - forcednature ----------------
#NOTES:
     dance-double:
     forcednature:
     Medium:
     13:
     0,0,0,0,0:
00000000
00000000
00000000
00000000
,
00000000
00000000
00000000
00000000
,
00000000
00000000
00000000
00000000
,
00000000
00000000
00000000
00000000
00000000
00000000
00002000
00023000
,
00030020
00000000
00000000
00000000
00000000
00000000
00000000
00000000
00000000
00000000
00000230
00000000
00000000
00000302
00000000
00000000
00000203
00000000
00000000
00000000
00000000
00000000
00000000
00000000
00000000
00000000
00000320
00000000
00020030
00000000
00032000
00000000
,
00023000
00000000
00230000
20300000
00000000
32000000
00000000
03200000
00000000
00000000
00300000
00000000
01100000
00000000
10010000
00000000
,
11000000
00000000
00110000
00000000
01000000
00001000
00010000
00000010
,
00001000
00000000
00001001
00000000
00001000
00000100
00000010
00000100
,
00001000
00000000
00000001
00000200
00000000
00000000
00001300
00000000
,
00010000
00001000
00101000
01010000
,
10010000
00000000
11000000
00000000
00100000
00010000
01000000
00001000
,
00010000
00000000
00000000
00000000
00001010
00000000
00000000
00000000
00000001
00000000
00000000
00000010
00000000
00000000
00000100
00000000
,
00001000
00000000
00000000
00001000
00000010
00000000
00000000
00000010
00000100
00000000
00000000
00000100
00000001
00000000
00000000
00000000
,
00000010
00000100
00000010
00000100
00001000
00000001
00001000
00000000
,
00000020
00000000
00000000
00000000
00010030
00001000
00100000
00000000
,
00001000
00010000
00100000
01000000
00010000
00000000
10000000
00000000
,
01000000
01100000
00100000
01100000
,
00101000
00011000
00020200
00030300
,
00000020
00000000
00000000
00000000
00001030
00000100
00000010
00000001
,
00000100
00000100
00000010
00000000
00001000
00000000
00000100
00010000
,
00001000
00000000
00000000
01000000
00000000
00000000
00010000
00000000
10000000
00000000
01000000
00000000
00100000
00000000
01000000
00000000
,
10000000
00000000
00000000
00010000
00000000
00000000
00001000
00000000
,
00000220
00000000
00000330
00000000
00001000
00000001
00000100
00000000
,
00000010
00001000
00000001
00000010
00000100
00000000
00010000
00001000
,
00010000
00000000
00000000
00000000
00100000
00000000
00000000
00000000
10000000
00000000
00000000
00010000
00000000
00000000
10000000
00000000
,
01000000
00000000
00100000
00001000
00010000
00000000
00000000
00000000
,
00000020
00000000
00000230
00000000
00000301
00001000
00000100
00001000
,
00000010
00000000
00010000
00001000
00100000
00000000
01000000
00000000
,
10010000
00100000
10010000
01000000
,
00011000
00000000
00000000
00011000
00000000
00000000
00011000
00000000
,
00000200
00002300
00003020
00000030
,
00000100
00000000
00000000
00000100
00000000
00000000
00000001
00000000
00002000
00000000
00000000
00000000
00003000
00000000
00000000
00000000
,
00000100
00000000
00000000
00010000
00000000
00000000
00001000
00000000
01000000
00000000
00000000
00010000
00000000
00000000
00100000
00000000
,
01000000
10000000
20020000
30030000
,
10000000
01000000
00010000
00000000
,
00001000
00000000
00000000
00001000
00000000
00000000
00000100
00000000
00000001
00000000
00000000
00000000
00000000
00000000
00000000
00000000
,
00000010
00000000
00000000
00000010
00000000
00000000
00000100
00000000
00001000
00000000
00000000
00001000
00000000
00000000
00000001
00000000
,
00000101
00000000
00000100
00000010
00010000
00000000
00001000
00100000
,
01000000
00000000
10000000
00010000
10000000
00010000
00000000
01000000
,
00000000
00001000
00010000
00001000
00010000
00000100
00000000
00001000
,
00000100
00000100
00000000
00000010
00000010
00000000
00000001
00000001
,
00001000
00000000
00000010
00010000
00002000
00000000
01003000
00000000
,
01100000
00000000
00010000
00000000
10000000
00100000
10000000
01000000
,
00100000
00000000
01000000
10000000
00010000
00000000
01000000
00001000
,
00010000
00010000
00001000
00000000
00001000
00001000
00010000
00000000
,
00022000
00033000
00000200
00002300
,
00003001
00000000
00000100
00001000
00000100
00001000
00000000
00010000
,
00000000
01000000
00100000
01000000
00100000
00010000
00000000
10000000
,
00100000
00000000
10000000
01000000
00000000
00100000
00010000
01000000
,
00000000
00001000
00010000
00000200
00000000
00000300
00001000
00000001
,
00001000
00000000
00000010
00010000
00000010
00010000
00000000
00001000
,
00000000
00100000
00010000
00100000
00010000
01000000
00000000
00100000
,
10000000
00000000
01000000
00100000
00000000
00010000
01000000
00001000
,
00000000
00010000
00000100
00002000
00000000
00003000
00000010
00000100
,
00000001
00000000
00001000
00000100
00001000
00000100
00000000
00000010
,
00000000
00000100
00001000
00000100
00001000
00000001
00000000
00000100
,
00000010
00000000
00001000
00000001
00000000
00000010
00000100
00001000
,
00000000
00000010
00010000
00002000
00000000
00003000
00100000
00010000
,
00100000
00000000
01000000
10000000
01000000
10000000
00000000
00010000
,
00000000
01000000
00001000
01000000
00001000
00010000
00000000
00000100
,
00001000
00000000
00000010
00010000
00000000
00001000
00000010
00000100
,
00001000
00000001
00001000
00000010
00000000
00000100
00000100
00000000
,
00002002
00000000
00000000
00000000
00000000
00000000
00000000
00000000
00003003
00000000
00000002
00000000
00000000
00000203
00000000
00000000
00002300
00000000
00000000
00000000
00023000
00000000
00000000
00000000
02030000
00000000
00000000
23000000
00000000
00000000
30200000
00000000
,
10300000
01000000
00100000
00000000
01000000
10000000
00010000
00000000
,
01000000
00001000
00010000
00000010
00010000
00001000
00100000
00000000
,
00001000
00010000
00000100
00000000
00001000
00000010
00010000
00000000
,
00001000
00010000
00000100
00001000
00000001
00000100
00000010
00000000
,
00000220
00000000
00000000
00000000
00000330
00000000
00000000
00000000
00000001
00000000
00001000
00000000
00000001
00000000
00000000
00000100
,
00000000
00000010
00010000
00001000
00100000
01000000
10000000
00000000
,
00010000
00000000
01000000
00010000
00100000
00001000
00010000
00000000
,
00020020
00030030
00010100
00101000
,
00011000
00000000
00001000
01000000
00010000
10000000
00100000
00000000
,
10000000
01000000
00100000
01000000
10000000
00000000
00010000
01000000
,
00001000
00000000
00010000
00000100
00001000
00000100
00000010
00000001
,
00000200
00000300
00000010
00010000
,
00022000
00000000
00000000
00000000
00033000
00000000
00001000
00000000
00100000
00000000
00010000
00000000
00100000
00000000
00000000
01000000
,
00000000
10000000
00010000
10000000
00100000
01000000
00010000
00000000
,
01001000
00000000
00000000
00010010
00000000
00001001
00000000
00000110
,
00000000
00000001
00001000
00000100
00000010
00000000
00000100
00000000
,
00002002
00000000
00000000
00000000
00000000
00000000
00003003
00000001
,
00000100
00000000
00000000
00000000
00000000
00000000
00000000
00000000
00001000
00000000
00000000
00010000
00000000
00000000
00001000
00000000
,
00100000
00000000
01100000
00000000
01000000
10000000
00010000
01000000
,
00001000
00000000
00011000
00000000
00010000
00000100
00001000
00000001
,
00000100
00000000
00000010
00020000
00000000
00000000
00130000
00000000
,
10000000
01000000
01100000
00101000
,
00011000
00000000
00000000
00000000
00010010
00000000
00000000
00000000
00000010
00000000
00001000
00000000
00000000
00000001
00000000
00000000
,
00000010
00000000
00000110
00000000
00000100
00001000
00000001
00000100
,
00000010
00000000
00010000
00001000
00000000
00101000
00000000
02200000
,
00000000
03300000
10010000
01100000
,
10010000
00000000
11000000
00000000
01000000
00100000
00001000
00010000
,
00000100
00000000
00000110
00000000
00000100
00001000
00000001
00000100
,
00000010
00000000
00010000
00002000
00000000
00000000
00003100
00000000
,
00001000
00010000
01100000
10010000
,
01001000
00000000
00010100
00000000
00000100
00001000
00000001
00000100
,
00000010
00000000
00000000
00000000
00010010
00000000
00000000
00000000
00010000
00000000
00000000
00001000
00000000
00000000
00000010
00000000
,
00000100
00001000
00000001
00000100
00000010
00001000
00000100
00000000
,
00010000
00001000
01000000
00010000
00100000
01000000
10000000
00000000
,
20020000
00000000
00000000
00000000
,
00000000
00000000
00000000
00000000
,
30030000
00000000
00000000
00000000
;

//--------------- dance-double - forcednature ----------------
#NOTES:
     dance-double:
     forcednature:
     Hard:
     16:
     0,0,0,0,0:
00000000
00000000
00000000
00000000
,
00000000
00000000
00000000
00000000
,
00000000
00000000
00000000
00000000
,
00000000
00000000
00000000
00000000
00000000
00000000
00002000
00023000
,
02030000
00000000
00000000
00000000
00000000
00000000
00000000
00000000
00000000
00000000
23000000
00000000
00000000
30020000
00000000
00000000
02030000
00000000
00000000
00000000
00000000
00000000
00000000
00000000
00000000
00000000
03002000
00000000
00023000
00000000
00030200
00000000
,
00020300
00000000
00032000
00003200
00000000
00000320
00000030
00000220
00000000
00000000
00000330
00000000
00011000
00000000
01100000
00000000
,
00010000
10000000
00010000
01000000
10000000
01000000
00100000
10000000
,
01000000
00010000
00001000
00000100
00001000
00010000
00000100
00000000
,
00010000
00001000
00100000
00010000
01000000
10000000
01000000
00100000
,
10000000
01000000
00010000
00001000
00000100
00000001
00000010
00000000
,
00000100
00000001
00000100
00001000
00000010
00010000
00001000
00100000
,
01000000
00000000
00010000
00000000
01000000
00000000
10000000
00000000
00100000
00000000
00000000
00100000
00000000
00000000
10000000
00000000
,
01000000
00000000
00000000
01000000
00100000
00000000
00010000
00100000
00010000
00000000
00100000
00001000
00100000
00000000
00010000
00000000
,
01000000
00000000
00001000
00000000
00010000
00000000
00000100
00000000
00010000
00000000
00000000
00001000
00000000
00000000
00001000
00000000
,
00000020
00000000
00000000
00000000
00000000
00000000
00000130
00000000
00001000
00000000
00000001
00000100
00000001
00000000
00000010
00000000
,
00000100
00000000
00010000
00001000
00010000
00000000
00100000
00000000
20000000
00000000
00000000
00000000
31000000
00000000
00010000
00000000
,
00001000
00000000
00000000
00000000
00000100
00000000
00001000
00000000
00010000
00000000
00000000
00010000
00100000
00000000
01000000
00010000
,
01000000
00011000
00000220
00000330
,
00000002
00000000
00000000
00000000
00000000
00000000
00000013
00000000
00000100
00000000
00000010
00000001
00000010
00000000
00001000
00000000
,
00000010
00000100
00001000
00000000
00000001
00000000
00000100
00000000
00002000
00000000
00000000
00000000
00013000
00000000
01000000
00000000
,
10000000
00000000
00000000
10000000
00010000
00000000
01000000
00001000
01000000
00000000
00100000
00000000
00010000
00000000
00100000
00000000
,
01100000
00000000
00000000
00000000
00000000
00000000
00011000
00000000
00000000
00000000
00000000
00000000
00000001
00001000
00000001
00001000
,
00000200
00000000
00000000
00000000
00000000
00000000
00010300
00000000
00001000
00000000
00000100
00000010
00000100
00000000
00001000
00000000
,
00010000
00000000
01000000
00100000
01000000
00000000
10000000
00000000
00020000
00000000
00000000
00000000
01030000
00000000
00001000
00000000
,
00100000
00000000
00000000
00000000
00000100
00000000
00010000
00000000
00000010
00000000
00000000
00000010
00001000
00000000
00000100
00000010
,
00000001
00000000
00000100
00001000
00020000
00000000
00030000
00000000
,
00200000
00000000
00000000
00000000
20300000
00000000
00000000
00000000
31000000
00000000
00010000
00001000
00010000
00000000
00000010
00000000
,
00000100
00000000
00001000
00010000
00001000
00000000
00100000
00000000
02000000
00000000
00000000
00000000
03010000
00000000
00001000
00000000
,
00102000
01003000
00020010
00030100
,
00010100
00000000
00000000
00000000
00000000
00000000
01001000
00000000
00000000
00000000
00000000
00000000
00001000
00010000
00001000
00010000
,
00002000
00000000
00003100
00000010
00020000
00000000
00030000
00000000
,
01000000
00000000
00000000
01000000
10000000
00000000
00010000
01000000
00002000
00000000
00000000
00000000
00003000
00000000
00000000
00000000
,
00000010
00000000
00000000
00000010
00000001
00000000
00000100
00000000
00000010
00000000
00000000
00000010
00010000
00000000
00001000
00000000
,
01001000
00010100
00022000
00033000
,
02010000
00000000
03100000
10000000
00020000
00000000
00030000
00000000
,
00100000
00000000
00000000
00100000
00001000
00000000
00010000
00000100
00002000
00000000
00000000
00000000
00003000
00000000
00000000
00000000
,
00000001
00000000
00000000
00000100
00001000
00000000
00010000
00000000
00100000
00000000
00000000
10000000
00010000
00000000
00100000
00000000
,
01000000
00000000
00010000
00000000
00001000
00000000
00010000
00000000
00000020
00000000
00000000
00000000
00000130
00000001
00000100
00000001
,
00000020
00000000
00000130
00010000
00001000
00010000
00100000
10000000
,
01000000
00000000
00100000
00010000
00100000
00000000
00001000
00000000
00010000
00000000
00000010
00001000
00000010
00000000
00000100
00000000
,
00000001
00000010
00000001
00000010
00000100
00000000
00001000
00000010
00001000
00000010
00000100
00000000
00001000
00010000
00001000
00010000
,
00000100
00000000
00001000
00000000
00000010
00000000
00010000
00001000
00200000
00000000
00000000
00000000
00300000
00000000
01000000
10000000
,
00020000
00000000
00000000
00000000
01000000
00000000
00000000
00000000
00100000
00000000
00000000
00000000
00030000
00000000
00010000
01000000
,
00010000
00000000
00010000
00000000
00100000
00000000
00100000
00000000
00001000
00000000
00010000
00000000
00000100
00000000
00001000
00000001
,
00000100
00000000
00001000
00000000
00010000
00000000
01000000
00000000
10000000
00010000
10000000
00010000
10000000
00010000
10000000
00010000
,
20000000
00000000
00000000
00000000
30000000
00000000
00000000
00000000
02000000
00000000
00000000
00000000
03010000
00001000
00010000
00001000
,
00000200
00000000
00000301
00001000
00000100
00010000
00000000
00201000
,
00000000
01300000
00010000
01000000
10000000
00200000
00000000
01300000
,
01010000
00000000
00001000
00021000
00000000
00030100
00001000
00000020
,
00000000
00000130
00001000
00020000
00000000
00130000
10000000
00100000
,
20100000
00000000
31000000
00010000
00001000
00000010
00000000
00001002
,
00000000
00000103
00001000
00010000
00100000
20100000
00000000
31000000
,
10000000
00100000
10000000
01000000
00010000
00001000
00000100
00000001
,
00000010
00000001
00000010
00000000
00000010
00000000
00000100
00010000
00000000
00001000
00000000
01000000
00010000
00000000
00100000
00000000
,
01200000
00000000
01300000
10000000
00010000
02000000
00000000
03200000
,
00000000
00310000
00001000
00000010
00000100
00020000
00000000
00031000
,
00000100
00000001
00000100
00001000
00010000
01000000
10000000
00010000
,
01000000
00100000
00010000
00200000
00000000
01300000
00001000
00010000
,
00012000
00000000
00003100
00000001
00001000
00000200
00000000
00000320
,
00000000
00000031
00000100
00001000
00010000
00200000
00000000
10300000
,
10010000
00000000
00000000
00000000
00000000
00000000
00021000
00000000
00000000
00000000
00030100
00000000
00001000
00000000
00000001
00000100
,
00000010
00001000
00010000
00020000
00000000
01000000
01030000
00010000
,
00200000
00000000
00000000
00000000
00000000
00000000
00000000
00000000
00000000
00000000
00302000
00000000
00000000
00023000
00000000
00000000
00030020
00000000
00000000
00000000
00000230
00000000
00000000
00000000
00000302
00000000
00000000
00002003
00000000
00000000
00003200
00000000
,
00000301
00000000
00000100
00000000
00001000
00000000
00000001
00000000
00000100
00000000
00001000
00000000
00010000
00000000
00100000
10000000
,
00100000
00000000
10000000
01000000
10000000
00000000
01000000
00100000
00010000
00000000
01000000
00000000
01000000
00000000
00001000
00000000
,
00010000
00000000
00000100
00001000
00000100
00000000
00000010
00000001
00000010
00000000
00001000
00000000
00010000
00000000
00001000
00000000
,
01000000
00000000
00100000
10000000
00100000
10000000
00100000
10000000
01000000
00000000
00100000
00000000
00001000
00000000
00010000
00000000
,
00022000
00000000
00000000
00000000
00033000
00000000
00000100
00001000
00000100
00000000
00000010
00000000
00000001
00001000
00000000
00001000
,
00000000
00001000
00000010
00000000
00000100
00000000
00001000
00000000
00010000
00000000
01000000
00000000
00100000
00000000
00010000
00000000
,
10010000
00000000
00000000
10000000
01000000
00000000
00010000
00000000
00001000
00000000
00000100
00000000
00001000
00000000
00010000
00000000
,
00022000
00033000
00010100
01001000
,
00022000
00000000
00000000
00000000
00033000
00000000
00001000
01000000
00001000
00000000
00010000
00000100
00010000
00000000
00000010
00000000
,
00001000
00000000
00000001
00000000
00000010
00000100
00000000
00000100
00000000
00000100
00010000
00000000
00001000
00010000
00001000
00000000
,
01000000
00010000
01000000
10000000
01000000
00100000
10000000
01000000
,
00020000
00000000
00032000
00003020
,
00000032
00000000
00000000
00000000
00000000
00000000
00000103
00000001
00000100
00000000
00000010
00000000
00010000
00001000
00000000
00001000
,
00000000
00001000
00100000
00000000
01000000
00000000
00010000
00000000
01000000
00000000
10000000
00000000
00010000
00000000
01000000
00000000
,
00001000
00010000
00001000
00010000
00001000
00010000
00000000
00000100
00000000
00001000
00000001
00000000
00000100
00000001
00000100
00000000
,
00000020
00000000
00010030
00001000
,
00022000
00000000
00000000
00000000
00000000
00000000
00000000
00000000
00000000
00000000
00000000
00000000
00033000
00000000
00001000
00100000
,
00001000
00000000
00000000
00000000
00000000
00000000
00000000
00000000
02000000
00000000
00000000
03020000
00000000
00000000
20030000
00000000
,
31000000
00010000
01000000
00100000
00001000
00010000
00100000
00010000
,
00001000
00000010
00000100
00001000
00000001
00000100
00000010
00000000
,
00010000
00001000
00000010
00001000
00010000
00100000
00010000
00001000
,
01000000
00010000
01000000
10000000
01000000
00100000
10000000
00000000
,
01000000
00010000
00001000
00000100
00001000
00010000
00000100
00001000
,
00000010
00000001
00000010
00001000
00000100
00000010
00000001
00000100
,
00002000
00000000
00023000
00230000
00000000
20300000
00000000
30020000
,
00000000
00030000
01100000
10010000
,
10000000
01000000
00100000
00001000
00010000
00100000
01000000
00010000
,
00100000
00001000
00010000
00000010
00000100
00001000
00000100
00000000
,
00000001
00001000
00000100
00000001
00000100
00001000
00000010
00010000
,
00001000
00100000
01000000
00010000
01000000
10000000
00010000
00000000
,
01000000
00001000
00010000
00000100
00000010
00001000
00000010
00000001
,
00000100
00000000
00001000
00000000
00010000
00000000
01000000
00000000
00100000
00000000
00000000
00001000
00000000
00000000
00001000
00000000
,
00010000
00000000
00000000
00010000
00100000
00000000
10000000
00010000
10000000
00000000
00010000
01000000
00010000
00000000
00100000
00000000
,
01000000
00000000
00010000
00000000
00001000
00000000
00000100
00000000
00000010
00000000
00001000
00000001
00001000
00000000
00000100
00000000
,
00000002
00000000
00000000
00000000
,
00000000
00000000
00000000
00000000
,
00000003
00000000
00000000
00000000
;

//--------------- dance-double - forcednature ----------------
#NOTES:
     dance-double:
     forcednature:
     Challenge:
     18:
     0,0,0,0,0:
00000000
00000000
00000000
00000000
,
00000000
00000000
00000000
00000000
,
00000000
00000000
00000000
00000000
,
00000000
00000000
00000000
00000000
00000000
00000000
00010000
00001000
,
00011000
00000000
00000000
00000000
00000000
00000000
00000000
00000000
00000100
00000000
00001000
00000000
00000000
00000001
00000000
00000000
00000100
00000000
00001000
00000000
00010000
00000000
00000000
00000000
01000000
00000000
00010000
00000000
00001000
00000000
00010000
00000000
,
00100000
00000000
10000000
01000000
00010000
00001000
00000000
00011000
00000000
00000000
00001100
00000000
00001001
00000000
00001010
00000000
,
00010000
00001000
00000100
00001000
00010000
01000000
00100000
01000000
,
10000000
00010000
01000000
10000000
01000000
00010000
00100000
00001000
,
00010000
00000010
00000100
00001000
00000100
00000001
00000010
00001000
,
00000010
00000100
00010000
00001000
01000000
00100000
00010000
00100000
,
10000000
00010000
10000000
01000000
00010000
00001000
00000100
00000001
,
00000010
00000100
00000001
00000100
00010000
00001000
00000010
00001000
,
00010000
00000000
00000100
00010000
00001000
00010000
00001000
00100000
00010000
01000000
00001000
00010000
00000010
00010000
00001000
00010000
,
00001000
00100000
00000000
00000000
01000000
10000000
00000000
00100000
00000000
00100000
00000000
01000000
00010000
00000000
00100000
00000000
,
01000000
00000000
00010000
00000000
00001000
00000000
00000010
00000000
00000100
00000000
00001000
00000001
00001000
00000000
00000010
00000000
,
00010000
00000100
00010000
00001000
01000000
00000000
00100000
00000000
10000000
00000000
01000000
00000000
00010000
00000000
01000000
00000000
,
00100000
00000000
00000000
00000000
00001000
00000000
00010000
00000000
00000010
00000000
00000000
00000010
00001000
00000000
00000100
00000010
,
00000001
00000100
00001000
00010000
01000000
10000000
00100000
00000000
,
10000000
00000000
01000000
00000000
00010000
00000000
01000000
00000000
00100000
00000000
00001000
00010000
00000010
00000000
00000100
00000000
,
00000001
00000010
00000100
00001000
00000001
00000000
00000100
00000000
00000010
00000000
00001000
00000000
00010000
00000000
01000000
00000000
,
00100000
00000000
00000000
00100000
10000000
00000000
01000000
00100000
00010000
00000000
01000000
00000000
00001000
00000000
00010000
00000000
,
00010100
00000000
00000000
00000000
00001000
00000000
00001001
00000000
00000000
00000000
00000010
00000000
00010000
00001000
01000000
00001000
,
00010000
00000000
00000010
00000000
00010000
00000000
00001000
00000000
00100000
00000000
01000000
10000000
00100000
00000000
01000000
00000000
,
00001000
00010000
00000100
00001000
00000100
00000000
00000010
00000000
00000001
00000000
00000100
00000000
00001000
00000000
00000100
00000000
,
00000010
00000000
00000000
00000000
00010000
00000000
00001000
00000000
00100000
00000000
00000000
01000000
10000000
00000000
00010000
01000000
,
00001000
00010000
00001000
00000010
00000001
00001000
00000010
00000000
,
00000200
00000000
00000000
00000000
00002300
00000000
00000000
00000000
00013000
00000000
00000100
00001000
00000100
00000000
00010000
00000000
,
00001000
01000000
00010000
01000000
00100000
00000000
10000000
00000000
01000000
00000000
00010000
00000000
00001000
00000000
00000100
00000000
,
00000110
00011000
01100000
00011000
,
00010100
00000100
00000000
01001000
01000000
00000000
00011000
00000000
,
02000000
00000000
03001000
00010000
00200000
00000000
00300000
00000000
,
10000000
00000000
00000000
10000000
01000000
00000000
00010000
00001000
00000020
00000000
00000000
00000000
00000030
00000000
00000000
00000000
,
00000001
00000000
00000000
00000001
00000100
00000000
00001000
00000000
00010000
00000000
00000000
00010000
01000000
00000000
10000000
00000000
,
00010000
01000000
00010000
00100000
00002000
00000000
00003010
00000001
,
00000200
00000000
00000310
00010000
02000000
00000000
03000000
00000000
,
00100000
00000000
00000000
00100000
00001000
00000000
00010000
00100000
02000000
00000000
00000000
00000000
03000000
00000000
00000000
00000000
,
00010000
00000000
00000000
10000000
01000000
00000000
00010000
00000000
00001000
00000000
00000000
00010000
00001000
00000000
00000100
00000000
,
00000001
00000000
00000010
00000000
00000001
00000000
00000100
00000000
00001000
00000000
00010000
00001000
01000000
00010000
10000000
00100000
,
10000000
01000000
00010000
00001000
01000000
00001000
00010000
00000100
,
00000010
00000000
00000001
00000100
00000010
00000000
00001000
00000000
00000100
00000000
00010000
00001000
01000000
00000000
00100000
00000000
,
10000000
01000000
00100000
00010000
00100000
00000000
00001000
00010000
00001000
00100000
00010000
00000000
01000000
00001000
00010000
00000010
,
00001000
00000010
00000100
00000000
00000001
00000000
00000010
00000100
00001000
00000000
00000100
00000000
00000001
00000000
00000100
00001000
,
00000010
00000000
00000100
00000000
00001000
00000000
00010000
00000000
01000000
00000000
00100000
00000000
00010000
00000000
10000000
00010000
,
01000000
00000000
10000000
00000000
01000000
00000000
00010000
00000000
00100000
00000000
00001000
00000000
00010000
00000000
00000010
00001000
,
00000001
00000010
00000001
00000010
00000100
00010000
00000100
00010000
00001000
01000000
00001000
01000000
00100000
10000000
00100000
10000000
,
02000000
00000000
00000000
00000000
03000000
00000000
00000000
00000000
10000000
00000000
01000000
00000000
00010000
00001000
00010000
00001000
,
00000010
00001000
00010000
00001000
00000100
00000001
00001000
00000100
,
00000010
00000000
00001000
00000000
00000010
00000000
00000001
00000000
00000100
00000000
00000010
00001000
00000100
00000000
00010000
00000000
,
00011000
00000000
00100000
00110000
00000000
00010000
01010000
01000000
,
10000000
00000000
01000000
00000000
00100000
00000000
10000000
00000000
00010000
00000000
10000000
01000000
00100000
00000000
00010000
00000000
,
01000000
00001000
00010000
00000100
00010000
00001000
00010000
00100000
,
01000000
00000000
10000000
00000000
01000000
00000000
00010000
00000000
10000000
00000000
01000000
00100000
00010000
00000000
00010000
00000000
,
10010000
00000000
00001000
01001000
00000000
00010000
00010100
00000100
,
00000010
00000001
00000100
00000000
00000010
00000000
00000001
00000010
00000000
00000100
00000000
00000010
00010000
00000000
00001000
00000000
,
00100000
01000000
00010000
01000000
10000000
00010000
01000000
10000000
,
01000000
00000000
00010000
00000000
00100000
00000000
00001000
00000000
00010000
00000000
00000010
00001000
00000100
00000000
00000010
00000000
,
00000110
00000000
00001000
00001001
00000000
00000010
00010010
00010000
,
00001000
00000000
00000010
00000000
00000100
00000000
00010000
00000000
00001000
00000000
01000000
00010000
00100000
00000000
01000000
00000000
,
10000000
01000000
00010000
01000000
00100000
00001000
00010000
00000010
,
00000100
00000000
00001000
00000000
00000100
00000000
00000001
00000000
00000010
00000000
00000100
00010000
00001000
00000000
01000000
00000000
,
01001000
00000000
00000000
00000000
00100000
00000000
01100000
00000000
00000000
00000000
10000000
00000000
10010000
00000000
00010000
00100000
,
00001000
00000000
00010000
00000000
00000010
00000000
00000200
00000000
00000000
00000000
00000301
00001000
00000001
00000000
00000010
00000000
,
00000200
00000000
00000000
00000000
00000000
00000000
00000000
00000000
00000000
00000000
00010300
00000000
00000000
00100000
00000000
00000000
20000000
00000000
00000000
00000000
30020000
00000000
00000000
00000000
00031000
00000000
00000000
00000001
00000000
00000000
00000100
00000000
,
00000010
00010000
00000100
00010000
00001000
00000000
00100000
00010000
10000000
00010000
01000000
00100000
10000000
00000000
00010000
01000000
,
00001000
00000000
00010000
00000010
00001000
00000010
00010000
00001000
00010000
00000000
00100000
01000000
00010000
00000000
00100000
00000000
,
01000000
00000000
00010000
00001000
01000000
00000000
00001000
00010000
00000100
00000000
00000010
00000000
00000001
00000000
00000100
00000000
,
00000010
00000000
00010000
00001000
00100000
00010000
10000000
00100000
01000000
00010000
00000000
00010000
00100000
00000000
00001000
00000000
,
00000020
00000000
00000000
00000000
00000031
00000000
00000100
00000001
00001000
00000000
00000010
00000000
00010000
00001000
00000000
00010000
,
00001000
01000000
00010000
01000000
00100000
10000000
00010000
10000000
01000000
00100000
00000000
00100000
00010000
00000000
00001000
00000000
,
00001000
00000000
00000100
00000010
00000100
00000010
00000100
00000010
00000001
00000000
00000100
00000000
00001000
00000000
01000000
00000000
,
00200000
00000000
00000000
00000000
10000000
00000000
00000000
00000000
01300000
00100000
10000000
00010000
10000000
00000000
01000000
00010000
,
00001000
00000000
00001000
00000000
00000010
00000000
00000100
00001000
00000001
00000000
00000100
00000010
00001000
00000010
00010000
00001000
,
00010000
00000000
00000100
00000000
00000010
00000001
00000000
00000001
00000100
00000010
00001000
00000010
00010000
00001000
00100000
00010000
,
00100000
00000000
01000000
10000000
00010000
01000000
00100000
10000000
01000000
00000000
00010000
00000000
00000100
00000000
00010000
00000000
,
00002000
00000000
00000000
00000000
00000100
00000000
00000000
00000000
00013000
00001000
00000000
00100000
00010000
00000000
01000000
00000000
,
10000000
00000000
01000000
00000000
00100000
00000000
10000000
01000000
00100000
00000000
00001000
00000000
00010000
00000010
00000000
00000010
,
00001000
00000010
00001000
00000100
00000010
00000100
00000010
00000001
00000100
00000000
00000010
00010000
00001000
00000000
00100000
00000000
,
01000000
10000000
00010000
01000000
00010000
10000000
00000000
01000000
00000000
00010000
00001000
00010000
00000100
00001000
00000100
00000010
,
00000001
00000000
00000100
00000000
00001000
00000000
00010000
00000000
01000000
00000000
10000000
00010000
01000000
00000000
00001000
00000000
,
00022000
00000000
00000000
00000000
00000000
00000000
00000000
00000000
00000000
00000000
00000000
00000000
00033000
00000000
00010000
00000100
,
00001000
00000000
00000000
00000000
00000000
00000000
00000000
00000000
00000001
00000000
00000000
00001000
00000000
00000000
00010000
00000000
,
10000000
01000000
10000000
00100000
00010000
00001000
00100000
00001000
,
00000010
00000000
00000100
00000000
00001000
00000000
00000001
00000000
00000100
00000000
00000010
00001000
00010000
00000000
01000000
00000000
,
00100000
10000000
01000000
00010000
01000000
10000000
00100000
00010000
,
00001000
00000010
00000001
00000100
00001000
00000100
00000110
00000000
,
00000001
00000100
00001000
00010000
01000000
00010000
00000100
00001000
,
00000010
00000000
00010000
00000000
00001000
00000000
01000000
00000000
00100000
00000000
10000000
01000000
00100000
00000000
00001000
00000000
,
00000100
00000001
00000100
00001000
00010000
01000000
10000000
00100000
,
10100000
01010000
00001100
00000011
,
00000001
00000100
00001000
00010000
00000100
00001000
00000010
00010000
,
00001000
00100000
00010000
00100000
01000000
10000000
00010000
01000000
,
00001000
00100000
01000000
00100000
00001000
00010000
00000100
00000010
,
00000001
00000100
00001000
00010000
01000000
00010000
00001000
00100000
,
01000000
00010000
01000000
10000000
00010000
01000000
00001000
00010000
,
00000100
00000010
00000001
00000010
00001000
00010000
00100000
10000000
,
01000000
00000000
00100000
00010000
00100000
00001000
00010000
00000010
00001000
00000010
00010000
00001000
00010000
00000100
00001000
00000100
,
00000010
00000000
00000001
00000000
00000100
00000000
00001000
00000000
00010000
00000000
00100000
10000000
01000000
00000000
00100000
00000000
,
20020000
00000000
00000000
00000000
,
00000000
00000000
00000000
00000000
,
30030000
00000000
00000000
00000000
;
