#TITLE:XENON II -TOMOYUKIの野望-;
#SUBTITLE:;
#ARTIST:Mr.T;
#TITLETRANSLIT:;
#SUBTITLETRANSLIT:;
#ARTISTTRANSLIT:;
#GENRE:;
#CREDIT:;
#BANNER:XENON II -TOMOYUKI no yabou-.png;
#BACKGROUND:XENON II -TOMOYUKI no yabou--bg.png;
#LYRICSPATH:;
#CDTITLE:;
#MUSIC:XENON II -TOMOYUKI no yabou-.ogg;
#OFFSET:-0.031000;
#SAMPLESTART:25.531000;
#SAMPLELENGTH:23.625000;
#SELECTABLE:YES;
#BPMS:0.000000=160.000000
;
#STOPS:
;
#BGCHANGES:0.000=XENON II -TOMOYUKI no yabou-.avi=1.000=0=0=0=StretchNoLoop====,
99999=-nosongbg-=1.000=0=0=0 // don't automatically add -songbackground-
;
#KEYSOUNDS:;
#ATTACKS:;

//---------------dance-single - ----------------
#NOTES:
     dance-single:
     :
     Beginner:
     4:
     0.129503,0.291953,0.053325,0.000000,0.000000,102.000000,96.000000,6.000000,0.000000,0.000000,0.000000,0.129503,0.291953,0.053325,0.000000,0.000000,102.000000,96.000000,6.000000,0.000000,0.000000,0.000000:
0000
0000
0000
0000
,
0000
0000
0000
0000
,
0000
0000
0000
0000
,
0000
0000
0000
0000
,
0000
0000
0000
0000
,
0001
0000
0000
0000
,
1000
0000
0000
0000
,
0001
0000
1000
0000
,
0001
1000
0001
1000
,
0010
0000
0000
0000
,
0000
0000
0000
0000
,
0000
0000
0000
0000
,
0000
0000
0000
0000
,
0100
0000
0000
0000
,
0010
0000
0000
0000
,
1000
0000
0000
0000
,
1001
0000
0000
0000
,
0001
0000
0001
0000
,
0001
0000
0000
0000
,
1000
0000
0010
0000
,
0100
0100
0100
0000
,
0010
0000
1000
0000
,
0100
0000
0010
0000
,
0001
0000
0100
0000
,
0010
0010
0010
0000
,
0100
0000
0000
0000
,
0010
0000
0000
0000
,
1000
0000
0001
0000
,
1000
0001
1000
0000
,
0100
0000
0000
0000
,
0010
0000
0001
0000
,
0100
0000
0000
0000
,
0010
0000
0000
0000
,
1000
0000
0000
0000
,
0000
0000
0000
0000
,
0000
0000
0000
0000
,
0000
0000
0000
0000
,
0000
0000
0001
0000
,
0000
0000
0000
0000
,
0000
0000
0000
0000
,
0100
0000
0000
0000
,
0010
0000
0000
0000
,
1000
0000
0100
0000
,
0010
0000
0000
0000
,
0001
0000
1000
0000
,
0010
0000
0000
0000
,
0100
0000
0010
0000
,
1000
0000
0000
0000
,
0001
0000
0000
0000
,
0100
0000
0010
0000
,
0100
0000
0000
0000
,
0001
0000
1000
0000
,
0100
0100
0100
0000
,
0010
0000
0001
0000
,
0100
0000
0010
0000
,
1001
0000
0110
0000
,
1001
0000
0110
0000
,
1000
0000
0000
0001
,
0001
0000
0000
0010
,
0010
0000
0100
0000
,
1000
1000
1000
0000
,
0010
0000
0000
0100
,
0010
0000
1000
0000
,
0001
0000
0000
0000
,
1000
0000
0000
0000
,
0010
0000
0000
0000
,
0100
0000
0000
0000
,
0001
0000
0000
0000
,
0010
0000
0000
0000
,
0100
0000
0000
0000
,
1000
0000
0000
0000
,
0010
0000
0000
0000
,
0100
0000
0000
0000
,
1001
0000
0000
0000
;

//---------------dance-single - ----------------
#NOTES:
     dance-single:
     :
     Easy:
     7:
     0.304713,0.426043,0.177749,0.177749,0.000000,240.000000,220.000000,20.000000,20.000000,0.000000,0.000000,0.304713,0.426043,0.177749,0.177749,0.000000,240.000000,220.000000,20.000000,20.000000,0.000000,0.000000:
0000
0000
0000
0000
,
0000
0000
0000
0000
,
0000
0000
0000
0000
,
0000
0000
0000
0000
,
0000
0000
0000
0000
,
1001
0000
0000
0000
,
0100
0000
0000
0000
,
1001
0000
0010
0000
,
1001
0000
0110
0000
1000
0001
0010
0000
,
0100
0100
0010
0010
,
0001
0001
1000
1000
,
0010
0010
0100
0100
,
0001
0001
1000
1000
,
0001
0100
0010
1000
,
0100
0010
0001
0010
,
0100
1000
0010
0100
,
2002
0000
0000
3003
,
0001
0100
0001
1000
,
0100
0000
0010
0100
,
1000
0010
0100
0000
,
0002
2003
0200
3300
,
0010
0001
0100
0001
,
1000
0100
0010
0100
,
1000
1000
0001
0001
,
1001
0110
1001
0000
,
0001
1000
0010
1000
,
0100
0010
0001
0100
,
0001
1000
0100
1000
,
0010
0100
0002
0000
,
1003
1000
0001
0010
,
0100
0100
0010
0010
,
0110
0000
0000
0000
0000
0000
0000
0100
,
2000
0000
3000
0000
,
0010
0000
0100
0000
,
0001
0000
1000
0000
,
0002
0000
0000
0013
,
0020
0000
0000
0000
,
0030
0000
0100
0000
,
0010
0000
0001
0000
,
2000
0000
0000
3001
,
2000
0000
0000
0002
0000
0000
3003
0000
,
0101
0001
1000
0100
,
1000
0001
0100
0101
,
0001
1000
0010
1000
,
0001
0010
0001
0011
,
0001
0100
0001
1000
,
0100
0010
0001
0100
,
0010
1000
0200
0000
,
0310
0001
1000
0020
,
0130
0000
0001
0000
,
0010
0000
0100
0000
,
1000
0000
0001
0000
,
2000
3020
0200
0330
,
0001
0001
1000
1000
,
0010
0010
0100
0100
,
0101
0001
0011
0010
,
0110
0100
1100
0000
,
1000
0001
0010
0100
,
0010
0001
0100
0010
,
1000
0001
0010
0001
,
0100
0100
0020
0000
,
1030
0001
0010
0011
,
0001
1000
1010
0101
,
1001
0000
0000
0000
0000
0000
0000
0001
,
0200
0000
0000
0300
,
0010
1000
0100
0010
,
0001
0010
0001
0100
,
0010
1000
0001
0010
,
0100
0010
0001
1000
,
0001
0001
0001
1000
,
0010
0010
0010
0100
,
0001
0010
0100
1000
,
0100
1000
0010
0100
,
0000
0002
0000
0000
0000
0000
0003
0000
;

//---------------dance-single - ----------------
#NOTES:
     dance-single:
     :
     Medium:
     12:
     0.462148,0.720385,0.133312,0.275511,0.453261,364.000000,349.000000,15.000000,31.000000,0.000000,0.000000,0.462148,0.720385,0.133312,0.275511,0.453261,364.000000,349.000000,15.000000,31.000000,0.000000,0.000000:
0000
0000
0000
0000
,
0000
0000
0000
0000
,
0000
0000
0000
0000
,
0000
0000
0000
0000
,
0000
0000
0000
0000
,
1000
0000
0000
1000
0000
0000
0001
0000
0000
0001
0000
0000
0100
0000
0000
0100
,
0000
0000
0010
0000
0000
0010
0000
0000
0100
0000
0001
0000
0010
0000
0001
0000
,
1000
0000
0000
1000
0000
0000
0001
0000
0000
0001
0000
0000
0100
0000
0000
0010
,
0000
0000
1000
0000
0000
0100
0000
0000
0010
0000
0001
0000
2000
0000
0000
0000
,
3010
0010
0100
0100
,
0001
0000
0001
0000
1000
0000
1000
0001
,
0010
0010
0100
0100
,
1000
0000
1000
0000
0100
0000
0100
0010
,
0001
0000
0010
0000
0000
0010
0000
0000
0001
0000
0000
0100
0000
0000
0000
0000
,
0000
0000
0010
0000
0000
1000
0000
0000
0001
0000
0000
0010
0000
0000
0000
0000
,
0000
0000
0100
0000
0000
0010
0000
0000
0001
0000
0000
1000
0000
0000
0000
0000
,
0000
0001
0100
0000
0010
0000
1000
0001
0000
0010
0100
0000
1000
0000
0001
0000
,
0100
0000
0000
0100
0000
0000
0001
0000
0010
0000
0000
0010
0000
0000
0001
0000
,
1000
0000
0000
0000
0000
0000
0001
0000
1000
0000
0000
1000
0000
0000
0100
0000
,
1000
0000
0000
1000
0000
0000
0010
0000
0100
0000
0000
0000
0010
0000
0000
0000
,
1000
0000
0000
0001
0100
0000
0000
1000
0200
0000
0000
0000
0310
0000
0001
0000
,
1000
0000
0000
1000
0000
0000
0001
0000
0010
0000
0000
0010
0000
0000
0100
0000
,
0010
0000
0000
0010
0000
0000
0001
0000
0100
0000
0000
0100
0000
0000
0010
0000
,
1000
0000
0000
1000
0000
0000
0100
0000
0010
0000
0000
0010
0000
0000
0100
0000
,
0010
0000
0000
0001
0000
0000
0100
0000
2002
0000
0000
0000
3003
0000
0000
0000
,
0001
0000
0000
1000
0000
0000
0001
0000
0000
1000
0000
0000
0100
0000
0010
0000
,
0100
0000
0000
0100
0000
0000
0010
0000
0000
0100
0000
0000
0010
0000
0100
0000
,
1000
0000
0000
1000
0000
0000
0100
0000
0010
0000
0000
0010
0000
0000
0001
0000
,
0100
0000
0000
0010
0000
0000
1000
0000
0001
0000
0010
0000
1000
0000
0010
0000
,
0001
0000
0000
0001
0000
0000
1000
0000
0000
1000
0000
0000
0001
0000
0100
0000
,
0010
0000
0000
0010
0000
0000
0100
0000
0001
0000
0000
0100
0000
0000
0010
0000
,
1010
0000
0010
0000
0100
0000
0001
0010
,
0200
0000
0000
0300
,
0012
0000
2003
0000
,
3200
0000
0320
0000
,
0032
0000
0000
2003
,
0020
0000
0000
0000
,
3030
0000
0200
0000
,
0320
0000
2030
0000
,
3002
0000
0000
0000
0000
0013
0001
0100
,
0020
0000
0000
0200
0000
0000
0330
0000
,
0001
0000
0000
1000
0000
0100
0000
0010
0000
0000
0100
0000
1000
0000
0010
0100
,
0000
0000
0010
0000
1000
0000
0100
0010
0000
0000
0100
0000
0010
0000
0001
0000
,
1000
0000
0000
0001
0000
1000
0000
0100
0000
0000
0010
0000
0000
0100
0000
0010
,
0000
0000
0001
0010
0000
0001
0000
0100
0000
0001
0000
1000
0000
0001
1000
0000
,
0100
0000
0000
0010
0000
0001
0000
1000
0000
0000
0001
0000
0100
0000
0010
0100
,
0000
0000
0001
0000
0010
0000
0100
0010
0000
0000
0100
0000
0010
0000
0100
0000
,
1000
0000
0000
0001
0000
0000
0020
0000
0000
0000
0000
0000
0030
0000
0000
0000
,
0200
0000
0000
2300
0000
0000
3020
0000
0000
0230
0000
0000
0002
0000
0000
0303
,
1010
1000
0001
0010
,
0200
0300
0010
0001
,
0100
0010
2000
3000
,
0001
0000
0000
1000
0010
0000
0000
0001
0020
0000
0000
0000
0130
0000
1000
0000
,
0001
0001
1000
1000
,
0010
0010
0100
0100
,
0110
0000
0000
0110
0000
0000
0110
0000
1001
0000
0000
1001
0000
0000
1001
0000
,
0110
0000
0000
1001
0000
0000
0110
0000
2002
0000
0000
0000
3003
0000
0000
0000
,
0001
0000
0000
0001
0000
0000
0100
0000
0000
0100
0000
0000
0010
0000
1000
0000
,
0001
0000
0000
0001
0000
0000
1000
0000
0000
1000
0000
0000
0100
0000
0010
0000
,
0100
0000
0000
1000
0000
0000
0100
0000
0010
0000
0000
0001
0000
0000
0100
0000
,
0010
0000
0000
1000
0000
0000
0001
0000
0010
0000
1000
0000
0010
0000
0001
0000
,
1000
0000
0000
1000
0000
0000
0001
0000
0000
0001
0000
0000
0100
0000
0001
0000
,
0010
0000
0000
0100
0000
0000
0010
0000
0001
0000
0000
0100
0000
0000
0010
0000
,
2010
0000
3100
0000
0010
0000
0001
0100
,
0020
0000
0000
0030
,
0000
0000
1000
0000
0000
0001
0000
0000
0010
0000
0000
0100
0000
0000
0010
0000
,
0000
0000
0100
0000
0000
1000
0000
0000
0010
0000
0000
0100
0000
0000
0001
0000
,
0000
0000
0010
0000
0000
0100
0000
0000
0010
0000
0000
0001
0000
0000
0100
0000
,
0000
0000
0010
0000
0000
0010
0000
0000
0100
0000
0000
0100
0000
0000
0010
0000
,
1000
0000
0001
0000
0000
0010
0000
0000
0100
0000
0000
1000
0000
0000
0100
0000
,
0010
0000
0001
0000
0000
0010
0000
0000
0001
0000
0000
0100
0000
0000
0010
0000
,
1000
0000
0001
0000
0000
1000
0000
0000
0001
0000
0000
0010
0000
0000
0100
0000
,
0000
0000
0010
0000
0000
0001
0000
0000
0100
0000
0000
0010
0000
0000
1000
0000
,
0000
0001
0100
0000
0010
1000
0000
0001
0010
0000
0100
0010
0000
0000
0000
0000
;

//---------------dance-single - ----------------
#NOTES:
     dance-single:
     :
     Hard:
     15:
     0.719885,0.884109,0.133312,0.284399,0.808760,567.000000,552.000000,15.000000,32.000000,0.000000,0.000000,0.719885,0.884109,0.133312,0.284399,0.808760,567.000000,552.000000,15.000000,32.000000,0.000000,0.000000:
0000
0000
0000
0000
,
0000
0000
0000
0000
,
0000
0000
0000
0000
,
0000
0000
0000
0000
,
0000
0000
0000
0000
,
0001
0000
0000
0100
0000
0000
0001
0000
0000
0010
0000
0000
0001
0000
0000
1000
,
0000
0000
0010
0000
0000
1000
0000
0000
0001
0000
0010
0000
0100
0000
0010
0000
,
0001
0000
0000
0100
0000
0000
0010
0000
0000
1000
0000
0000
0100
0000
0000
1000
,
0000
0000
0001
0000
0000
1000
0000
0000
0001
0000
0100
0000
0001
0000
0000
0000
,
1000
0100
1000
0001
1000
0010
1000
0001
,
0010
0100
0010
0001
0010
0100
0010
1000
,
0001
0100
0001
1000
0001
0010
0001
1000
,
0100
0010
0100
0001
0100
0010
0100
1000
,
0001
0100
0001
1000
0001
0010
0001
1000
,
0010
0100
0010
1000
0010
0100
0010
0001
,
1000
0100
1000
0001
1000
0010
1000
0001
,
0000
1000
0100
0000
0010
0001
0000
1000
0000
0001
0100
0000
0010
0000
0100
0000
,
0001
0000
1000
0010
0000
0100
0010
0000
1000
0000
0001
0010
0000
0001
0100
0000
,
0010
0000
0000
0000
0100
0000
0010
0000
1000
0000
0001
0010
0000
0001
1000
0000
,
0001
0000
0100
0001
0000
0010
0100
0000
0010
0000
0001
0000
0010
0000
0100
0000
,
1000
0000
0001
0100
0002
0000
1003
0100
2000
0000
0000
0000
3010
0000
0100
0000
,
0001
0000
0010
0001
0000
1000
0001
0000
0100
0000
0010
1000
0000
0100
0010
0000
,
0001
0000
0010
0001
0000
1000
0100
0000
1000
0000
0010
1000
0000
0010
0100
0000
,
0001
0000
0010
0001
0000
0010
0100
0000
1000
0000
0100
1000
0000
0100
0010
0000
,
0100
0000
1000
0010
0000
0100
0001
0000
0010
0000
0100
1000
0010
0100
0010
0100
,
0001
0000
0000
0101
0000
0000
0001
0000
0000
0011
0000
0000
0010
0000
0100
0000
,
1000
0000
0000
1010
0000
0000
1000
0000
0000
1001
0000
0000
0001
0000
0010
0000
,
0100
0000
0000
1100
0000
0000
1000
0000
0010
0000
0100
0010
0000
1000
0001
0000
,
0010
0000
0001
0010
0000
0100
1000
0000
0010
0000
0100
0010
1000
0001
2000
0000
,
3100
0000
0010
0100
0000
0100
1000
0000
1000
0001
0000
0001
0100
0000
0010
0000
,
1000
0000
0001
0010
0000
0010
0100
0000
0100
0010
0000
0010
0001
0000
1000
0000
,
0010
0000
0000
0000
0100
0000
0000
0000
0010
0000
0000
0000
1000
0000
0001
1000
,
0010
0100
0001
0000
0010
0000
0100
1000
0000
0100
0010
0000
0001
1000
0001
1000
,
0002
1003
0020
1030
,
0200
0000
0000
0000
1300
0000
0000
0000
0020
0000
0000
0000
1030
0000
0001
1000
,
0200
1000
0300
0002
,
1003
2000
3001
0200
,
0010
0300
0001
0200
,
0310
0002
1003
0020
,
1000
0000
0030
0000
0000
0100
0010
1000
,
0002
0000
0000
2000
0000
0000
3003
0000
,
0001
0100
0000
0010
0000
1000
0000
0002
0000
0000
0013
0000
0100
0000
0010
0002
,
0000
0000
1003
0000
0010
0000
0100
0020
0000
0000
0130
0000
0001
0000
1000
0000
,
0100
0010
0000
0100
0000
1000
0000
0002
0000
0000
0103
0000
0000
0010
0000
1000
,
0000
0000
0100
0010
0000
0100
0000
1000
0000
0100
0000
1000
0000
0100
0010
0000
,
0001
0010
0000
0100
0000
1000
0000
0020
0000
0000
0130
0000
0001
0000
0010
0002
,
0000
0000
0103
0000
0001
0000
0010
0200
0000
0000
0310
0000
0001
0000
1000
0000
,
0010
0000
0000
0200
0000
0000
0002
0000
0000
0000
0000
0000
0303
0000
0100
0010
,
2000
0000
0000
3020
0000
0000
0230
0000
0000
0302
0000
0000
2003
0000
0000
0000
,
3001
0000
0000
0001
0000
0000
0100
0000
0010
0000
0000
0010
0000
0000
0100
0000
,
0010
0000
0000
0000
0000
0000
0100
0000
0010
0000
0000
0010
0000
0000
1000
0000
,
0001
0000
0000
0001
0000
0000
1000
0000
0100
0000
0010
0000
0001
0000
1000
0000
,
0100
0000
1000
0010
2000
0000
3001
0010
0002
0000
0000
0000
1003
0000
0100
0000
,
1000
0000
0000
1000
0000
0000
0010
0000
0100
0000
0000
0100
0000
0000
0001
0000
,
0010
0000
0000
0010
0000
0000
0100
0000
0010
0000
0000
0010
0000
0000
0001
0000
,
0011
0000
0000
0101
0000
0000
1001
0000
1100
0000
0000
0011
0000
0000
1001
0000
,
1100
0000
0000
0110
0000
0000
1001
0000
0011
0000
0100
1000
0001
1000
0010
1000
,
0001
0000
0100
0001
0000
0100
0010
0000
0100
0001
0000
0100
0010
0000
1000
0000
,
0001
0000
1000
0100
0000
0010
0100
0000
1000
0100
0000
1000
0010
0000
0100
0000
,
0001
0000
1000
0100
0000
0001
0100
0000
0010
0000
1000
0010
0000
0001
0010
0000
,
0100
0000
1000
0100
0000
0010
0001
0000
0100
0000
0010
0100
0001
0100
0001
0010
,
0001
0000
0001
0010
0000
0010
0100
0000
0100
1000
0000
1000
0001
0000
0100
0000
,
0010
0000
1000
0010
0000
0010
0100
0000
0100
0001
0000
0001
1000
0000
0001
0000
,
0010
0000
0000
0000
0001
0000
0000
0000
0100
0000
0000
0000
0010
0000
1000
0001
,
0010
0100
0010
0000
0100
0000
1000
0001
0000
0100
0001
0000
1000
0000
0001
0000
,
1000
0100
1000
0000
0001
0100
0000
1000
0100
0000
0001
0100
0000
1000
0100
0000
,
1000
0001
1000
0000
0001
0010
0000
1000
0010
0000
0001
0010
0000
1000
0010
0000
,
0001
0100
0010
0000
1000
0010
0000
0100
0001
0000
1000
0010
0000
0100
0001
0000
,
1000
0001
0100
0000
0001
0010
0000
0100
1000
0000
0001
0010
0000
0100
1000
0000
,
0001
0100
0010
0000
1000
0100
0000
0100
0001
0000
0001
0100
0000
0100
1000
0000
,
0001
1000
0001
0000
1000
0010
0000
0010
0001
0000
0001
0010
0000
0010
1000
0000
,
0001
0010
0100
0000
1000
0100
0000
0010
0001
0000
0001
0100
0000
0100
0010
0000
,
0100
0010
1000
0000
0001
0010
0000
0100
1000
0000
0100
0010
0000
0100
1000
0000
,
0000
0001
1000
0000
1000
0001
0000
0001
1000
0000
1000
0010
0000
0000
0000
0000
;

//---------------dance-double - ----------------
#NOTES:
     dance-double:
     :
     Easy:
     6:
     0.255197,0.425682,0.142199,0.168862,0.004444,201.000000,185.000000,16.000000,19.000000,0.000000,0.000000,0.255197,0.425682,0.142199,0.168862,0.004444,201.000000,185.000000,16.000000,19.000000,0.000000,0.000000:
// measure 0
00000000
00000000
00000000
00000000
,  // measure 1
00000000
00000000
00000000
00000000
,  // measure 2
00000000
00000000
00000000
00000000
,  // measure 3
00000000
00000000
00000000
00000000
,  // measure 4
00000000
00000000
00000000
00000000
,  // measure 5
10010000
00000000
00000000
00000000
,  // measure 6
01100000
00000000
00000000
00000000
,  // measure 7
10010000
00000000
01100000
00000000
,  // measure 8
10010000
01100000
10010000
01100000
,  // measure 9
01000000
00000000
00010000
00000000
,  // measure 10
00100000
00000000
00001000
00000000
,  // measure 11
00010000
00000000
00000100
00000000
,  // measure 12
00001000
00000000
00000010
00000000
,  // measure 13
00000100
00000001
00002000
00003000
,  // measure 14
00000100
00010000
00002000
00003000
,  // measure 15
01000000
00100000
20000000
30000000
,  // measure 16
20020000
00000000
00000000
30030000
,  // measure 17
00010000
00000000
10000000
00000000
,  // measure 18
00100000
00000000
01000000
00000000
,  // measure 19
00001000
00000000
00010000
00000000
,  // measure 20
00000100
00001000
00000200
00000300
,  // measure 21
00010000
00000000
00001000
00000000
,  // measure 22
01000000
00000000
00100000
00000000
,  // measure 23
10000000
00000000
01000000
00000000
,  // measure 24
00100000
01000000
00100000
00000000
,  // measure 25
01000000
10000000
01000000
10000000
,  // measure 26
01000000
00100000
01000000
00100000
,  // measure 27
00010000
00100000
00001000
00010000
,  // measure 28
00000100
00000100
00001000
00000000
,  // measure 29
00000010
00000100
00000010
00000100
,  // measure 30
00000001
00001000
00000001
00000100
,  // measure 31
00000020
00000000
00000000
00000000
00000030
00000000
00000000
00001000
,  // measure 32
00000002
00000000
00000000
00000003
,  // measure 33
00000100
00000000
00000010
00000000
,  // measure 34
00010000
00000000
00001000
00000000
,  // measure 35
02000000
00000000
03000000
00020000
,  // measure 36
20000000
00000000
00000000
00000000
,  // measure 37
30030000
00000000
10000000
00000000
,  // measure 38
00010000
00000000
00100000
00000000
,  // measure 39
00002000
00000000
00003000
00010000
,  // measure 40
00000020
00000000
00000000
00000200
00000000
00000000
00000330
00000000
,  // measure 41
00001001
00000001
00000010
00000001
,  // measure 42
00000100
00000010
00000100
00000010
,  // measure 43
00001000
00000100
00001000
00000100
,  // measure 44
00010000
00001000
01000000
00100000
,  // measure 45
10000000
01000000
10000000
01000000
,  // measure 46
00100000
00010000
00100000
00010000
,  // measure 47
00100000
00001000
00020000
00030000
,  // measure 48
00000100
00010000
00001000
01000000
,  // measure 49
00100000
00000000
01000000
00000000
,  // measure 50
00010000
00000000
10000000
00000000
,  // measure 51
01000000
00000000
00100000
00000000
,  // measure 52
00001000
00010000
00002000
00003000
,  // measure 53
00100000
00000000
00001000
00000000
,  // measure 54
00010000
00000000
00000100
00000000
,  // measure 55
00001001
00000000
00000110
00000000
,  // measure 56
00001001
00000110
00001001
00000000
,  // measure 57
00000001
00000100
00000001
00000100
,  // measure 58
00000010
00001000
00000010
00001000
,  // measure 59
00000100
00001000
00000100
00010000
,  // measure 60
00001000
00001000
00010000
00000000
,  // measure 61
00001000
01000000
00001000
01000000
,  // measure 62
00100000
01000000
00010000
10000000
,  // measure 63
20010000
00000000
00000000
00000000
30000000
00000000
00000000
01000000
,  // measure 64
00200000
00000000
00000000
00300000
,  // measure 65
00010000
00000000
00100000
00000000
,  // measure 66
00001000
00000000
00010000
00000000
,  // measure 67
00000100
00000000
00001000
00000000
,  // measure 68
00000010
00000010
00000100
00000000
,  // measure 69
00000001
00000100
00000010
00001000
,  // measure 70
00000100
00010000
00000100
00010000
,  // measure 71
00001000
01000000
00100000
10000000
,  // measure 72
00010000
00100000
00010000
00100000
,  // measure 73
00002000
00000000
00000000
00000000
00000000
00000000
00000000
00000000
00000000
00000000
00000000
00003000
00000000
00000000
00000000
00000000
;

//---------------dance-double - ----------------
#NOTES:
     dance-double:
     :
     Medium:
     11:
     0.420250,0.753130,0.239962,0.462148,0.239962,331.000000,304.000000,27.000000,52.000000,0.000000,0.000000,0.420250,0.753130,0.239962,0.462148,0.239962,331.000000,304.000000,27.000000,52.000000,0.000000,0.000000:
// measure 0
00000000
00000000
00000000
00000000
,  // measure 1
00000000
00000000
00000000
00000000
,  // measure 2
00000000
00000000
00000000
00000000
,  // measure 3
00000000
00000000
00000000
00000000
,  // measure 4
00000000
00000000
00000000
00000000
,  // measure 5
11000000
00000000
00000000
00000000
00000000
00000000
00000000
00100000
,  // measure 6
00110000
00000000
00000000
00000000
00000000
00000000
00000000
00100000
,  // measure 7
00101000
00000000
00000000
00001000
00011000
00000000
00000000
00010000
,  // measure 8
00010100
00000000
00001100
00000000
00000001
00000100
00000020
00000000
,  // measure 9
00001030
00000001
00000010
00000001
,  // measure 10
00001000
00000010
00010000
00001000
,  // measure 11
00100000
00001000
00010000
00000100
,  // measure 12
00010000
00000100
00110000
01100000
,  // measure 13
20000000
01000000
00100000
31000000
,  // measure 14
00020000
01000000
00100000
01030000
,  // measure 15
00200000
00001000
00010000
00301000
,  // measure 16
00000000
00010000
00000100
00000000
00001000
00000000
00000010
00010000
00000000
00001000
00010000
00000000
00001000
00000000
01000000
00000000
,  // measure 17
00100000
00000000
00000000
00100000
00000000
00000000
10000000
00000000
01000000
00000000
00000000
01000000
00000000
00000000
00100000
00000000
,  // measure 18
00010000
00000000
00000000
00000000
01000000
00000000
00100000
00000000
10000000
00000000
00000000
10000000
00000000
00000000
00010000
00000000
,  // measure 19
00100000
00000000
00000000
00100000
00000000
00000000
00010000
00000000
01000000
00000000
00000000
00000000
00010000
00000000
00100000
00000000
,  // measure 20
00002000
00000000
00023000
00000000
00030020
00000000
00000130
00000001
,  // measure 21
00001000
00000000
00000000
00001000
00000000
00000000
00000001
00000000
00000010
00000000
00000000
00000010
00000000
00000000
00000100
00000000
,  // measure 22
00000010
00000000
00000000
00000010
00000000
00000000
00000001
00000000
00000100
00000000
00000000
00000100
00000000
00000000
00000010
00000000
,  // measure 23
00001000
00000000
00000000
00001000
00000000
00000000
00000100
00000000
00010000
00000000
00000000
00010000
00000000
00000000
00001000
00000000
,  // measure 24
01000000
00000000
00000000
00100000
00000000
00000000
10000000
00000000
20020000
00000000
00000000
00000000
30030000
00000000
00000000
00000000
,  // measure 25
01000000
00000000
00000000
01000000
00000000
00000000
10000000
00000000
00000000
10000000
00000000
00000000
00100000
00000000
01000000
00000000
,  // measure 26
00010000
00000000
00000000
00010000
00000000
00000000
00100000
00000000
00000000
00100000
00000000
00000000
00001000
00000000
00010000
00000000
,  // measure 27
00000100
00000000
00000000
00000100
00000000
00000000
00000100
00000000
00001000
00000000
00000000
00001000
00000000
00000000
00001000
00000000
,  // measure 28
00000010
00000000
00000000
00000100
00000000
00000000
00000001
00000000
00001001
00000000
00000000
00000000
00000000
00000000
00000000
00000000
,  // measure 29
00000001
00000000
00000000
00000100
00000000
00000000
00000001
00000000
00000000
00000100
00000000
00000000
00000010
00000000
00001000
00000000
,  // measure 30
00000100
00000000
00000000
00000100
00000000
00000000
00010000
00000000
00001000
00000000
00000000
00001000
00000000
00000000
01000000
00000000
,  // measure 31
02010000
00000000
00000000
00000000
00000000
00000000
00000000
00000000
00000000
00000000
00000000
00000000
03000000
00000000
00100000
01000000
,  // measure 32
00200000
00000000
00000000
00000000
,  // measure 33
20300000
30000000
02000000
03000000
,  // measure 34
00200000
00300000
00002000
00003000
,  // measure 35
00020000
00000000
00000000
00030200
,  // measure 36
00002300
00000000
00000000
00000000
,  // measure 37
00003000
00000000
00000020
00000030
,  // measure 38
00000200
00000300
00000002
00000003
,  // measure 39
00002000
00000000
00000000
00000000
00003000
00000100
00010000
00001000
,  // measure 40
02000000
00000000
00000000
00200000
00000000
00000000
03300000
00000000
,  // measure 41
10020000
00130000
00002000
00103000
,  // measure 42
00002000
00000000
00103000
00000000
00020000
00000000
10030000
00010000
,  // measure 43
20000000
30010000
00200000
00301000
,  // measure 44
00020000
00030020
00000230
00000302
,  // measure 45
00002003
00003010
00002000
00003100
,  // measure 46
00000020
00000031
00000200
00000310
,  // measure 47
00001000
00000000
00000000
00000100
00000000
00000000
00020000
00000000
00000000
00000000
00000000
00000000
00000000
00000000
00031000
00000000
,  // measure 48
00020000
00000000
00000000
00030100
00000000
00000000
00020000
00000000
00000000
00031000
00000000
00000000
00200000
00000000
00000000
00000000
,  // measure 49
01300000
00000000
00000000
01000000
00000000
00000000
01000000
00000000
10000000
00000000
00000000
10000000
00000000
00000000
10000000
00000000
,  // measure 50
00100000
00000000
00000000
00000000
00000000
00000000
00000000
00000000
01000000
00000000
00000000
01000000
00000000
00000000
01000000
00000000
,  // measure 51
00100000
00000000
00000000
00100000
00000000
00000000
00100000
00000000
00100000
00000000
00000000
00000000
00000000
00000000
00000000
00000000
,  // measure 52
02000000
00000000
03020000
00000000
00230000
00000000
01300000
10000000
,  // measure 53
00010000
00000000
00000000
00010000
00000000
00000000
00010000
00000000
00100000
00000000
00000000
00100000
00000000
00000000
00100000
00000000
,  // measure 54
00001000
00000000
00000000
00001000
00000000
00000000
00001000
00000000
00010000
00000000
00000000
00010000
00000000
00000000
00010000
00000000
,  // measure 55
00011000
00000000
00000000
00011000
00000000
00000000
00011000
00000000
00011000
00000000
00000000
00011000
00000000
00000000
00011000
00000000
,  // measure 56
00011000
00000000
00000000
00011000
00000000
00000000
00011000
00000000
00011000
00000000
00000000
00000000
00000000
00000000
00000000
00000000
,  // measure 57
00010000
00000000
00000000
00000100
00000000
00000000
00001000
00000000
00000000
00000010
00000000
00000000
00000100
00000000
00000001
00000000
,  // measure 58
00000010
00000000
00000000
00000100
00000000
00000000
00000010
00000000
00000000
00000001
00000000
00000000
00000100
00000000
00000010
00000000
,  // measure 59
00001000
00000000
00000000
00000100
00000000
00000000
00010000
00000000
00001000
00000000
00000000
00100000
00000000
00000000
00010000
00000000
,  // measure 60
01000000
00000000
00000000
00100000
00000000
00000000
20000000
00000000
00020000
00000000
00000000
00000000
30030000
00000000
00000000
00000000
,  // measure 61
10000000
00000000
00000000
10000000
00000000
00000000
00010000
00000000
00000000
00010000
00000000
00000000
00100000
00000000
00001000
00000000
,  // measure 62
00010000
00000000
00000000
00010000
00000000
00000000
00000100
00000000
00001000
00000000
00000000
00001000
00000000
00000000
00000010
00000000
,  // measure 63
00000120
00000000
00000000
00000000
00000000
00000000
00000000
00000000
00000000
00000000
00000000
00000000
00000030
00000000
00001000
00000001
,  // measure 64
00002000
00000000
00000000
00003000
,  // measure 65
00000001
00000100
00000010
00001000
,  // measure 66
00000100
00010000
00001000
01000000
,  // measure 67
00100000
10000000
01000000
00010000
,  // measure 68
01000000
10000000
00100000
00000000
01000000
00010000
00100000
00000000
,  // measure 69
00001000
00010000
00000100
00000000
00001000
00000000
00001010
00000000
,  // measure 70
00000010
00000100
00000001
00000000
00000010
00000000
00000110
00000000
,  // measure 71
00000100
00001000
00000010
00000000
00010000
00000000
00010100
00000000
,  // measure 72
00010000
00001000
01000000
00000000
00100000
00000000
10100000
00000000
,  // measure 73
00000000
00000000
20000000
00000000
00000000
32000000
00000000
00000000
03020000
00000000
00000000
00031000
00000000
00000000
00000000
00000000
;

//---------------dance-double - ----------------
#NOTES:
     dance-double:
     :
     Hard:
     15:
     0.637358,0.884109,0.142199,0.622123,0.777653,502.000000,486.000000,16.000000,70.000000,0.000000,0.000000,0.637358,0.884109,0.142199,0.622123,0.777653,502.000000,486.000000,16.000000,70.000000,0.000000,0.000000:
// measure 0
00000000
00000000
00000000
00000000
,  // measure 1
00000000
00000000
00000000
00000000
,  // measure 2
00000000
00000000
00000000
00000000
,  // measure 3
00000000
00000000
00000000
00000000
,  // measure 4
00000000
00000000
00000000
00000000
,  // measure 5
10010000
00000000
00000000
10000000
00000000
00000000
01000000
00000000
00000000
00100000
00000000
00000000
00010000
00000000
00000000
00001000
,  // measure 6
00000000
00000000
00010000
00000000
00000000
00001000
00000000
00000000
00010000
00000000
00000010
00000000
00000100
00000000
00000001
00000000
,  // measure 7
00000011
00000000
00000000
00000010
00000000
00000000
00000100
00000000
00000000
00001000
00000000
00000000
00000100
00000000
00000000
00010000
,  // measure 8
00000000
00000000
00001000
00000000
00000000
01000000
00000000
00000000
00001000
00000000
00010000
00000000
00001000
00000000
00000000
00000000
,  // measure 9
00100000
00010000
00100000
00010000
00100000
01000000
10000000
00100000
,  // measure 10
01000000
00100000
01000000
00100000
01000000
00010000
00100000
00001000
,  // measure 11
00010000
00000100
00010000
00000100
00010000
00000100
00001000
00000010
,  // measure 12
00000100
00000001
00000100
00000001
00000100
00000010
00001000
00000100
,  // measure 13
00000010
00000000
00000001
00000000
00000100
00000010
00000000
00000100
00000001
00000000
00000100
00000010
00000000
00000100
00000001
00000000
,  // measure 14
00000100
00000000
00000001
00000000
00001000
00000100
00000000
00001000
00000010
00000000
00001000
00000100
00000000
00001000
00000010
00000000
,  // measure 15
00010000
00000000
00001000
00000000
00001000
01000000
00000000
00001000
00010000
00000000
00001000
01000000
00000000
00001000
00010000
00000000
,  // measure 16
00000000
00001000
00100000
00000000
01000000
00000000
10000000
01000000
00000000
01000000
00100000
00000000
01000000
00000000
10000000
00000000
,  // measure 17
00010000
00000000
01000000
00010000
00000000
01000000
00010000
00000000
00100000
00000000
00001000
00100000
00000000
00001000
00100000
00000000
,  // measure 18
00002000
00000000
00000000
00000000
00013000
00000000
00000010
00000000
00000100
00000000
00000100
00000001
00000000
00000100
00000001
00000000
,  // measure 19
00000010
00000000
00000100
00000010
00000000
00000100
00000010
00000000
00000002
00000000
00000000
00000000
00000103
00000000
00000010
00000000
,  // measure 20
00020000
00000000
00031000
01000000
00200000
00000000
01300000
00001000
00020000
00000000
00000000
00000000
00000100
00000000
00030100
00000000
,  // measure 21
00001000
00000000
00000100
00001000
00000000
00000100
00001000
00000000
00000010
00000000
00000100
00000001
00000000
00000100
00000001
00000000
,  // measure 22
00001000
00000000
00000001
00001000
00000000
00000001
00001000
00000000
00000100
00000000
00010000
00001000
00000000
00010000
00001000
00000000
,  // measure 23
01000000
00000000
00100000
01000000
00000000
00100000
01000000
00000000
00010000
00000000
10000000
01000000
00000000
10000000
01000000
00000000
,  // measure 24
00100000
00000000
00001000
00010000
00000000
00000100
00001000
00000000
00000010
00000000
00000100
00000010
00000100
00000001
00001000
00000001
,  // measure 25
00000020
00000000
00000000
00000130
00000000
00000000
00000200
00000000
00000000
00001300
00000000
00000000
00000100
00000000
00010000
00000000
,  // measure 26
00002000
00000000
00000000
01003000
00000000
00000000
02000000
00000000
00000000
03100000
00000000
00000000
01000000
00000000
00010000
00000000
,  // measure 27
20000000
00000000
00000000
31000000
00000000
00000000
00100000
00000000
02000000
00000000
00000000
13000000
00000000
00000000
00100000
00000000
,  // measure 28
02000000
00000000
00000000
00001000
00000000
00000000
03002000
00000000
00023000
00000000
00030100
00001000
00000100
00000010
00000001
00000000
,  // measure 29
00000020
00000000
00000000
00000130
00000000
00000000
00000020
00000000
00000000
00000130
00000000
00000000
00000100
00000000
00000010
00000000
,  // measure 30
00000002
00000000
00000000
00000103
00000000
00000000
00000010
00000000
00020000
00000000
00000000
00031000
00000000
00000000
00010000
00000000
,  // measure 31
00012000
00000000
00000000
00000000
00000000
00000000
00000000
00000000
00000000
00000000
00000000
00000000
00000000
00000000
00013000
00000100
,  // measure 32
00002000
00000000
00000000
00000000
,  // measure 33
00003020
00000000
00020030
00000000
,  // measure 34
00030200
00000000
00020300
00000000
,  // measure 35
00032000
00000000
00000000
02003000
,  // measure 36
00200000
00000000
00000000
00000000
,  // measure 37
03300000
00000000
20000000
00000000
,  // measure 38
32000000
00000000
03020000
00000000
,  // measure 39
00032000
00000000
00000000
00000000
00000000
00023000
00030020
00000230
,  // measure 40
00000302
00000000
00000000
00002000
00000000
00000000
00000000
00000003
,  // measure 41
00003001
00000010
00000000
00000010
00000000
00000001
00000000
00002000
00000000
00000000
00003100
00000000
00000100
00000000
00010000
00002000
,  // measure 42
00000000
00000000
01003000
00000000
01000000
00000000
00100000
20000000
00000000
00000000
31000000
00000000
00100000
00000000
01000000
00000000
,  // measure 43
10000000
00100000
00000000
01000000
00000000
01000000
00000000
00020000
00000000
00000000
00130000
00001000
00000000
00010000
00000000
00000020
,  // measure 44
00000000
00000000
00000130
00000001
00000000
00000010
00000000
00001000
00000000
00000010
00000000
00000001
00000000
00001000
00000001
00000000
,  // measure 45
00000100
00000010
00000000
00001000
00000000
00001000
00000000
00000200
00000000
00000000
00010300
00000000
00010000
00000000
00001000
00200000
,  // measure 46
00000000
00000000
01300000
00000000
01000000
00000000
00100000
00020000
00000000
00000000
01030000
00000000
00100000
10000000
01000000
00000000
,  // measure 47
00200000
00000000
00000000
00302000
00000000
00000000
00020000
00000000
00000000
00000000
00000000
00000000
00033000
00000000
00010000
00000010
,  // measure 48
00000200
00000000
00000000
00002300
00000000
00000000
00003200
00000000
00000000
00000302
00000000
00000000
00002000
00000000
00003003
00000000
,  // measure 49
00001001
00000000
00000000
00000001
00000000
00000000
00000001
00000000
00001000
00000000
00000000
00001000
00000000
00000000
00001000
00000000
,  // measure 50
00000100
00000000
00000000
00000000
00001000
00000000
00000010
00000000
00000100
00000000
00000000
00000100
00000000
00000000
00000010
00000000
,  // measure 51
00001000
00000000
00000000
00001000
00000000
00000000
00001000
00000000
00000100
00000000
00000010
00000000
00000001
00000000
00001000
00000000
,  // measure 52
00000020
00000000
00010030
00001000
02000000
00000000
03001000
00010000
00000200
00000000
00000000
00000000
00010000
00000000
00010300
00000000
,  // measure 53
00001000
00000000
00000000
00001000
00000000
00000000
00100000
00000000
00010000
00000000
00000000
00010000
00000000
00000000
00100000
00000000
,  // measure 54
01000000
00000000
00000000
01000000
00000000
00000000
10000000
00000000
00100000
00000000
00000000
00100000
00000000
00000000
01000000
00000000
,  // measure 55
01010000
00000000
00000000
00110000
00000000
00000000
00101000
00000000
00011000
00000000
00000000
00010100
00000000
00000000
00001100
00000000
,  // measure 56
00000110
00000000
00000000
00000011
00000000
00000000
00001100
00000000
00020100
00000000
00000000
00000000
00032000
00000000
00000000
00000000
,  // measure 57
02003000
00000000
00000000
03010000
00000000
00000000
02000000
00000000
00000000
03100000
00000000
00000000
01000000
00000000
00100000
00000000
,  // measure 58
20000000
00000000
00000000
31000000
00000000
00000000
20000000
00000000
00000000
30010000
00000000
00000000
00100000
00000000
00001000
00000000
,  // measure 59
00020000
00000000
00000000
00030100
00000000
00000000
00010000
00000000
00002000
00000000
00000000
01003000
00000000
00000000
00001000
00000000
,  // measure 60
00020000
00000000
00000000
00001000
00000000
00000000
00030100
00000000
00010100
00000000
00010000
00000100
00001000
00000010
00000100
00000000
,  // measure 61
00000002
00000000
00000000
00000013
00000000
00000000
00000002
00000000
00000000
00000013
00000000
00000000
00000100
00000000
00001000
00000000
,  // measure 62
00000200
00000000
00000000
00010300
00000000
00000000
00001000
00000000
00010000
00000100
00000000
00010000
00000000
00000000
00001000
00000000
,  // measure 63
02001000
00000000
00000000
00000000
00000000
00000000
00000000
00000000
00000000
00000000
00000000
00000000
00000000
00000000
03100000
20000000
,  // measure 64
00020000
00000000
00000000
30030000
,  // measure 65
10000000
00000000
01000000
00000000
00100000
01000000
00000000
01000000
00100000
00000000
01000000
10000000
00000000
01000000
00100000
00010000
,  // measure 66
00000000
00100000
00001000
00000000
00010000
00001000
00000000
00010000
00000010
00000000
00000100
00000010
00000000
00000100
00000001
00001000
,  // measure 67
00000000
00000001
00000010
00000000
00000100
00000010
00000000
00000001
00000100
00000000
00000010
00001000
00000000
00000100
00001000
00000010
,  // measure 68
00000000
00000100
00000010
00000000
00001000
00000100
00000000
00010000
00001000
00000000
00010000
00000100
00000000
00010000
00001000
01000000
,  // measure 69
00100000
10000000
00100000
00000000
10000000
00010000
00000000
00100000
00001000
00000000
00010000
00000100
00000000
00001000
00000100
00000010
,  // measure 70
00000000
00000001
00000100
00000000
00000010
00001000
00000000
00000100
00000010
00000000
00000100
00001000
00000000
00000100
00010000
00001000
,  // measure 71
00000000
00010000
00001000
00000000
01000000
00100000
00000000
10000000
01000000
00000000
00100000
01000000
00000000
00100000
00010000
01000000
,  // measure 72
00000000
00100000
10000000
00000000
00010000
00100000
00000000
00001000
00010000
00000000
00000100
00001000
00000000
00000010
00000100
00000001
,  // measure 73
00001000
00000010
00010000
00000100
00010000
00000010
00010000
00001000
01000000
00001000
00010000
00000100
00000000
00000000
00000000
00000000
;
