#TITLE:Tribal Trial;
#SUBTITLE:;
#ARTIST:Yooh;
#TITLETRANSLIT:;
#SUBTITLETRANSLIT:;
#ARTISTTRANSLIT:;
#GENRE:;
#CREDIT:;
#BANNER:Tribal Trial.png;
#BACKGROUND:Tribal Trial-bg.png;
#LYRICSPATH:;
#CDTITLE:;
#MUSIC:Tribal Trial.ogg;
#OFFSET:-0.175000;
#SAMPLESTART:90.357002;
#SAMPLELENGTH:11.621000;
#SELECTABLE:YES;
#BPMS:0.000000=165.000000
;
#STOPS:299.000000=0.182000,
302.500000=0.182000
;
#BGCHANGES:;
#KEYSOUNDS:;
#ATTACKS:;

//---------------dance-single - ----------------
#NOTES:
     dance-single:
     :
     Beginner:
     5:
     0.201894,0.292582,0.100350,0.000000,0.000000,169.000000,157.000000,12.000000,0.000000,0.000000,0.000000,0.201894,0.292582,0.100350,0.000000,0.000000,169.000000,157.000000,12.000000,0.000000,0.000000,0.000000:
0000
0000
0000
0000
,
0000
0000
0000
0000
,
0000
0000
0000
0000
,
0000
0000
0000
0000
,
0000
0000
0000
0000
,
0000
0000
0000
0000
,
1000
0000
0000
0000
,
0001
0000
0000
0000
,
0100
0000
0000
0000
,
0110
0000
1001
0000
,
0001
0000
1000
0000
,
0100
0000
0010
0000
,
0100
0000
1000
0000
,
0010
0010
0100
0100
,
0001
0000
1000
0000
,
0100
0000
1000
0000
,
0010
0000
0100
0000
,
0001
0001
0001
0001
,
1000
0000
0001
0000
,
0100
0000
0010
0100
,
0100
0000
0000
0000
,
0010
0010
0010
0010
,
1001
0000
0001
0000
,
1000
0000
0100
0000
,
1001
0000
1000
0000
,
0010
0010
0010
0000
,
0110
0000
0100
0000
,
0010
0000
1000
0000
,
0001
0000
0010
0000
,
1001
0000
0000
0000
,
0001
0000
1000
1000
,
0001
0000
0100
0100
,
0010
0000
1000
1000
,
0001
0001
0001
0000
,
0010
0000
0100
0100
,
0010
0000
0001
0001
,
0100
0000
0001
0000
,
1001
0000
0000
0000
,
0010
0000
0000
0000
,
0100
0000
0000
0000
,
0001
0000
0000
0000
,
1000
0000
0000
0000
,
0100
0000
0000
0000
,
1000
0000
0000
0000
,
0010
0000
0000
0000
,
0110
0000
0000
0000
,
0001
0000
1000
0000
,
0010
0000
1000
0000
,
0100
0000
1000
0000
,
0100
0000
1000
0000
,
1001
0001
0001
0001
,
1000
0000
0001
0000
,
0100
0000
0010
0000
,
1000
1000
1000
1000
,
0001
0000
1000
0000
,
0010
0000
1000
0000
,
0100
0000
0010
0000
,
0001
0000
1000
0001
,
0100
0000
0000
0000
,
0000
0000
0000
0000
,
0010
0000
0100
0000
,
0001
1000
0001
0000
,
1000
0000
0001
1000
,
0010
0000
0100
0001
,
0010
0000
0100
0010
,
0001
0000
0000
0000
,
1000
0000
0001
1000
,
0100
0000
0010
0100
,
1000
0000
0100
1000
,
0000
0000
0000
0110
,
1001
0000
1000
0001
,
0100
0000
0001
0010
,
0100
0000
0010
0010
,
0001
0000
0000
0000
,
1000
0000
0001
0000
1000
0000
0000
0001
,
0000
1000
0000
0001
0000
0000
0100
0000
,
0000
0010
0000
1000
,
0100
0010
0000
1001
;

//---------------dance-single - ----------------
#NOTES:
     dance-single:
     :
     Easy:
     9:
     0.403787,0.468298,0.401398,0.225786,0.000000,338.000000,290.000000,48.000000,27.000000,0.000000,0.000000,0.403787,0.468298,0.401398,0.225786,0.000000,338.000000,290.000000,48.000000,27.000000,0.000000,0.000000:
0000
0000
0000
0000
,
0000
0000
0000
0000
,
0000
0000
0000
0000
,
0000
0000
0000
0000
,
0000
0000
0000
0000
,
0000
0000
0000
0000
,
1000
0010
0100
0100
,
0001
0010
0100
0100
,
0010
0001
1000
1000
,
0002
0013
2000
3010
,
0100
0000
0001
0000
0010
0100
0010
0000
,
0100
0000
1000
0000
0001
0001
0100
0000
,
0001
0000
1000
0000
0010
0100
0010
0000
,
2000
3100
0020
0031
,
0010
0000
0001
0000
0100
0010
1000
0000
,
0001
0000
1000
0000
0100
0010
0010
0000
,
0100
0000
1000
0000
0010
1000
0001
0000
,
0020
0130
2000
3010
,
0201
0001
0001
0301
,
1020
1000
1000
0230
,
0302
0010
0010
0013
,
1000
1000
1000
1000
,
0101
0100
0110
0110
,
0010
1000
1001
1001
,
1000
0100
0110
0110
,
0200
1300
0200
0310
,
0100
1000
1010
0101
,
0001
1000
0011
1100
,
0001
0100
0110
1010
,
0100
1000
0010
0000
0100
0001
0010
0000
,
0100
0010
0011
0101
,
0001
1000
1010
1100
,
1000
0001
0101
0110
,
0020
1030
0020
0130
,
0010
1000
1010
1100
,
0100
0010
0011
0101
,
1000
0001
1000
0000
1000
0001
1000
0000
,
0020
0000
0000
0030
,
0100
0000
0010
0000
0000
1000
0000
0000
,
0001
0000
0000
0010
0000
0000
0100
0000
,
0000
0000
0010
0000
0000
0001
0000
0000
,
0100
0000
0000
0001
0000
0000
1000
0000
,
0000
0000
0100
0000
0000
1000
0000
0000
,
0010
0000
0000
0100
0000
0000
0001
0000
,
0000
0000
0010
0000
0000
0001
0000
0000
,
2002
0000
0000
3003
,
0110
0001
0001
0001
,
1000
0001
1000
0001
,
0010
0001
1000
0010
,
1000
0001
0010
0001
,
1001
1010
0101
1010
,
0001
0001
0001
0001
,
1000
0010
1000
0001
,
1001
0110
1001
0110
,
2000
0010
0010
3010
,
0002
0010
0010
0013
,
0002
0100
0100
0103
,
2000
0100
0100
3200
,
0320
0031
0020
0130
,
0010
0001
0100
0010
,
1000
0001
0100
1000
,
0100
0010
1000
0001
0010
0000
0000
0000
,
0100
1000
1100
0011
,
0001
0100
0101
1010
,
0001
1000
1010
0101
,
0000
0010
0000
0010
0000
0010
0000
0010
,
0100
0001
0011
1100
,
0100
0010
0011
0101
,
0001
1000
1010
1100
,
0000
0200
0000
0000
0000
0300
0000
0000
,
0010
0000
0001
0000
0100
0010
0100
0001
,
1000
0000
0001
0000
0010
0100
0010
0001
,
1000
0000
0001
0000
1000
0010
1000
0010
,
0000
0100
0000
0100
0000
0100
0000
0100
,
0010
0000
1000
0000
0001
1000
0100
0010
,
0000
0100
0000
0010
0001
0100
0010
0000
,
0100
0001
0010
0000
0100
1000
0010
0000
,
0100
0001
0000
2002
,
0000
0000
0000
0000
,
0000
0000
0000
0000
,
3003
0000
0000
0000
;

//---------------dance-single - ----------------
#NOTES:
     dance-single:
     :
     Medium:
     14:
     0.628379,0.769347,0.367948,0.058537,0.388855,526.000000,482.000000,44.000000,7.000000,0.000000,0.000000,0.628379,0.769347,0.367948,0.058537,0.388855,526.000000,482.000000,44.000000,7.000000,0.000000,0.000000:
0000
0000
0000
0000
,
0000
0000
0000
0000
,
0000
0000
0000
0000
,
0000
0000
0000
0000
,
0000
0000
0000
0000
,
0000
0000
0000
0000
,
1000
0000
0001
0000
0010
0010
0100
0000
,
0010
0000
0001
0000
0100
0001
1000
0000
,
0100
0000
0010
0000
0100
0100
1000
0000
,
0100
0000
0000
0100
0000
0000
0100
0000
0010
0000
0001
0000
0001
0000
0000
0000
,
1000
0000
0001
0000
0100
0001
0010
1000
,
0010
0000
0001
0000
0100
0010
1001
0000
,
1000
0000
0100
0000
0001
0100
0010
0010
,
0001
0000
0000
0001
0000
0000
0001
0000
1000
0000
0010
0000
0010
0000
0000
0000
,
0100
0000
0010
0000
1000
0100
0001
0100
,
0010
0000
0001
0000
1000
0001
0110
0000
,
0001
0000
0100
0000
1000
0100
0010
1000
,
0100
0000
0000
0100
0000
0000
0100
0000
0010
0000
0000
0001
0000
0000
0001
0000
,
1000
1000
1000
1000
,
0001
0001
0001
0110
,
2001
0010
0001
3010
,
1010
0101
1010
0101
,
1000
0000
0000
0100
0010
0000
0001
0000
0011
0000
0000
0000
1010
0000
0000
0000
,
0110
0000
0000
0100
0010
0000
1000
0000
1100
0000
0000
0000
0110
0000
0000
0000
,
1100
0000
0000
1000
0010
0000
0100
0000
0101
0000
0000
0000
0011
0000
0000
0000
,
0001
0100
0001
0000
0001
1000
0001
0000
0001
0010
0001
0000
1001
0000
0000
0000
,
1000
0000
0000
0001
0100
0000
0001
0000
0011
0000
0000
0000
0110
0000
0000
0000
,
0011
0000
0000
0010
0100
0000
1000
0000
1010
0000
0000
0000
0110
0000
0000
0000
,
1010
0000
0000
0010
0100
0000
0001
0000
1001
0000
0000
0000
0110
0000
0000
0000
,
1000
0100
0100
0001
0100
0100
1000
0000
,
0010
0000
1000
0010
0000
0010
0100
0000
0010
0000
0000
0000
1001
0000
0000
0000
,
0001
0000
0010
0100
0000
0100
1000
0000
1100
0000
0000
0000
0101
0000
0000
0000
,
0100
0000
0010
1000
0000
1000
0100
0000
0110
0000
0000
0000
0011
0000
0000
0000
,
1000
0100
1000
0000
1000
0010
1000
0000
1000
0001
1000
0000
1001
0000
0000
0000
,
0110
0000
0001
0010
0000
0010
0100
0000
1100
0000
0000
0000
0110
0000
0000
0000
,
1001
0000
0001
0100
0000
0100
0010
0000
0110
0000
0000
0000
1010
0000
0000
0000
,
1000
0000
0001
1000
0001
0000
1000
0000
0001
0000
1000
0001
1000
0000
0001
0000
,
0020
0000
0000
0000
,
0130
1000
0010
0100
,
0001
0000
0010
0000
0100
0000
0010
0001
,
0100
0010
1000
0100
,
0010
0000
0100
0000
1000
0000
0100
0010
,
0001
0010
0001
0100
,
0001
0000
1000
0000
0010
0000
0100
0010
,
1000
0001
0010
0100
,
2002
0000
0000
3003
,
0110
0000
1000
0001
0010
0001
1000
0010
,
1000
1000
0001
0001
1000
1000
0001
0001
,
1000
0010
0000
0100
0001
0000
1000
0000
0001
0100
0000
0010
1000
0000
0001
0000
,
1000
0010
0000
0100
0001
0000
1000
0000
0001
0100
0000
0010
1000
0000
0000
0000
,
1001
0000
0000
0000
1000
0100
1000
0000
0001
0100
0001
0000
1000
0100
1000
0000
,
0001
0100
0010
0100
0001
0010
0100
1000
,
0001
1000
0001
0010
0001
1000
0001
0100
,
0010
1000
0010
0100
0001
0100
0001
0010
0100
1000
0000
0000
,
1001
0000
0000
0001
0010
0000
0000
0010
0100
0000
0000
0100
1000
0000
0000
1000
,
0010
0000
0000
0010
0100
0000
0000
0100
0001
0000
0000
0001
0010
0000
0000
0010
,
0001
0000
0000
0001
1000
0000
0000
1000
0010
0000
0000
0010
0100
0000
0000
0100
,
0010
0000
0000
0010
1000
0000
0000
1000
0001
0000
0000
0001
0010
0000
0000
0010
,
0100
0000
0000
0100
1000
0000
0000
1000
0010
0000
0000
0010
0100
0000
0000
0100
,
0001
0100
0010
1000
0001
0100
0010
1000
,
0001
0100
1000
0100
0001
0010
0100
1000
,
0001
0100
1000
0100
0001
0000
1001
0000
,
1000
0000
0000
0100
1000
0000
0010
0000
0100
0000
0001
0000
0010
0000
0100
0000
,
1000
0000
0000
0100
0010
0000
0001
0000
1000
0000
0001
0100
0001
0000
0100
0001
,
0100
0000
0000
0010
1000
0000
0100
0000
1000
0000
0001
0000
0100
0000
0001
0000
,
0000
0000
1000
0001
0000
0000
1000
0001
0000
0000
1000
0001
0000
0000
1000
0001
,
0100
0000
0000
0010
0100
0000
0001
0000
0010
0000
0100
0000
0010
0000
0001
0000
,
1000
0000
0000
0001
0100
0000
0001
0000
0010
0000
1000
0000
0010
0000
0001
0000
,
1000
0000
0000
0001
1000
0000
0100
0000
1000
0000
0010
0000
1000
0000
0100
0000
,
0020
0000
0000
0000
0000
0000
0000
0000
0030
0000
0100
0010
0100
0000
0010
0000
,
0001
0000
0000
1000
0001
0000
0010
0000
0001
0000
0100
0000
1000
0000
0100
0000
,
0001
0000
0000
1000
0010
0000
1000
0000
0001
0000
0010
0100
0010
0000
0100
0010
,
0100
0000
0000
0010
0001
0000
1000
0000
0010
0000
0001
0000
0010
0000
0001
0000
,
0000
0000
1000
0001
0000
0000
1000
0001
0000
0000
1000
0001
0000
0000
1000
0001
,
0100
0000
0000
0010
1000
0000
0100
0000
0010
0000
0010
0000
0110
0000
0100
0000
,
0000
0010
0001
0000
0001
0000
1000
0001
0000
0001
0100
0000
0010
0000
0000
1000
,
0010
0000
0100
0000
0001
0000
0000
0100
0001
0000
0100
0000
0010
0000
1000
0000
,
0100
0010
0001
0000
0000
0000
0220
0000
,
0000
0000
0000
0000
,
0000
0000
0000
0000
,
0330
0000
0000
0000
;

//---------------dance-single - ----------------
#NOTES:
     dance-single:
     :
     Hard:
     17:
     0.878059,1.103845,0.326136,0.275961,0.781890,735.000000,696.000000,39.000000,33.000000,0.000000,0.000000,0.878059,1.103845,0.326136,0.275961,0.781890,735.000000,696.000000,39.000000,33.000000,0.000000,0.000000:
0000
0000
0000
0000
,
0000
0000
0000
0000
,
0000
0000
0000
0000
,
0000
0000
0000
0000
,
0000
0000
0000
0000
,
0000
0000
0000
0000
,
1000
0010
0010
1000
0010
0100
0001
0000
,
0010
0100
0100
0010
0001
1000
0001
0000
,
1000
0010
0010
1000
0001
0010
0100
1000
,
0001
1000
0100
1000
0001
0100
0001
0000
1000
0100
0010
0000
0100
0000
0100
0000
,
1100
0000
0100
0010
0001
0000
0100
0000
0001
0100
0010
0000
1000
0000
1000
0000
,
0001
0000
0010
0100
1000
0000
0100
0000
1000
0010
0100
0000
0002
0000
0003
0000
,
1000
0000
0100
0010
0001
0000
0010
0000
0001
0010
0100
0000
0010
0000
0001
0000
,
1000
0001
0010
0001
1000
0001
0010
0000
0100
0010
0001
0000
1001
0000
0000
0000
,
0001
0000
1000
0100
0010
0000
0100
0000
1000
0010
0100
0000
0001
0000
0001
0000
,
1000
0000
0001
0010
0100
0000
0010
0000
0100
1000
0001
0000
2000
0000
3000
0000
,
0001
0000
1000
0100
0010
0000
0100
0000
1000
0010
0100
0000
0001
0000
0001
0000
,
1000
0001
0010
0001
1000
0010
1000
0001
1000
0001
0010
0001
1000
0100
1000
0001
,
2000
0100
0100
3100
,
0002
0100
0100
0203
,
0310
0100
0010
0000
1000
0010
1000
0000
0001
0100
0001
0000
0010
0100
0010
0000
,
0002
0003
0000
0000
0002
0003
0000
0000
0002
0003
0000
0000
0002
0003
0000
0000
,
1010
0000
1000
0010
1000
0000
0010
0000
1000
0000
0100
0000
0001
0000
0100
0000
,
1000
0000
0100
0010
0100
0000
0010
0000
0001
0000
0010
0000
1000
0000
0010
0000
,
0001
0000
0100
0010
1000
0000
0001
0000
1000
0000
0100
0000
0001
0000
0100
0000
,
1000
0100
1000
0000
0001
0100
0001
0000
1000
0100
1000
0100
1000
0100
1000
0000
,
1001
0000
0001
1000
0001
0000
1000
0000
0001
0000
0010
0000
1000
0000
0010
0000
,
0001
0000
0100
0010
1000
0000
0001
0000
1000
0000
0100
0000
0001
0000
0100
0000
,
1000
0000
0010
0100
0001
0000
0010
0000
0100
0000
0001
0000
0100
0000
1000
0000
,
0010
0000
0010
0100
0001
0000
0001
0000
0010
0100
1000
0000
1000
0000
0000
0000
,
1001
0000
1000
0010
0000
0010
0100
0000
1010
0000
1000
0000
0001
0000
0010
0000
,
0110
0000
0100
0010
0000
0010
0001
0000
0011
0000
0010
0000
0100
0000
1000
0000
,
1001
0000
0001
1000
0000
1000
0100
0000
0110
0000
0100
0000
1000
0000
0010
0000
,
0100
0010
0100
0000
0001
1000
0001
0000
0010
0100
0010
0100
0010
0100
0010
0100
,
1000
0000
0100
0010
0001
0000
0100
0000
0110
0000
0010
0000
1000
0000
0001
0000
,
0011
0000
0010
0001
0100
0000
0010
0000
1010
0000
1000
0000
0001
0000
0010
0000
,
0100
0000
0100
0010
0001
0000
1000
0000
0100
0000
0100
0010
0001
0000
1000
0000
,
0001
0000
0000
0100
0001
0000
0020
0000
0000
0000
0130
0000
0100
0000
1000
0000
,
0001
1000
0100
1000
0010
1000
0100
1000
,
0010
1000
0100
1000
0100
0001
0100
1000
,
0001
0100
0010
0100
0001
0010
0001
0100
,
0010
0100
0001
0010
0001
0100
1000
0100
,
0010
1000
0010
0001
0010
1000
0100
0001
,
0100
1000
0100
0001
0100
0010
0001
1000
,
0010
0100
1000
0100
0001
1000
0001
0010
,
0100
0000
0000
1000
0000
0000
0000
0000
0000
1000
0000
0000
0000
0000
0000
0100
0000
0000
1000
0000
0001
0000
1000
0000
0001
0000
0000
1000
0000
0000
0100
0000
0000
0010
0000
0000
0200
0000
0000
0300
0000
0000
0000
0000
0000
0000
0000
0000
,
1001
0000
0000
0000
0001
1000
0001
0100
0001
1000
0001
0100
0001
1000
0001
0100
,
0001
1000
0001
0000
0001
1000
0001
0000
0001
1000
0001
0000
0001
1000
0001
0000
,
1000
0100
0000
0100
0010
0000
0001
0000
0100
0010
0000
0010
1000
0000
0001
0000
,
1000
0000
0001
0100
0010
0000
0010
1000
0100
1000
0100
1000
0100
0000
0010
0000
,
1001
0000
0000
0000
0000
0000
1000
0001
1000
0001
0000
0000
0001
1000
0001
1000
0000
0000
1000
0001
1000
0001
0000
0000
,
1000
0001
0010
0001
1000
0010
1000
0001
1000
0010
1000
0001
1000
0010
1000
0001
,
1000
0010
0100
0010
1000
0010
1000
0000
0001
0100
0001
0010
0001
0100
0001
1000
,
0001
0001
0001
1000
1000
1000
0010
0100
0001
1001
0000
0000
,
0001
0010
0001
0000
0010
0100
0010
0000
0100
1000
0100
0000
1000
0010
1000
0000
,
0010
0100
0010
0000
0100
0001
0100
0000
0001
1000
0001
0000
1000
0100
1000
0000
,
0100
1000
0010
0000
0100
0001
0010
0000
0100
0010
0001
0000
0100
0010
1000
0000
,
0100
0010
0001
0000
0100
0010
1000
0000
1000
0100
0010
0000
0001
1000
0001
1000
,
0001
0100
0001
0100
0010
1000
0010
1000
0100
1000
0100
1000
0001
0010
0001
0010
,
0100
1000
0100
1000
0100
0010
0100
0010
0001
0100
0010
1000
0001
0010
0100
1000
,
0001
0001
0100
1000
0100
0100
0010
1000
,
0001
0010
1000
0010
0001
0000
1001
0000
,
1020
0000
0000
0130
0001
0000
0010
0000
0120
0000
0130
0000
1200
0000
1300
0000
,
2001
0000
0000
3100
0010
0000
0100
0000
2100
0000
3010
0100
0010
0000
0010
0100
,
0010
0000
0000
0100
0001
0000
0010
0000
0012
0000
0013
0000
2100
0000
3100
0000
,
0000
0000
0001
0100
0000
0000
1000
0100
0000
0000
0001
0100
0000
0000
1000
0100
,
0010
0000
0000
0100
1000
0000
0010
0000
0210
0000
0310
0000
1020
0000
1030
0000
,
0102
0000
0000
0013
0100
0000
0010
0000
0010
0100
0000
0010
0001
0000
0001
0010
,
0100
0000
0000
0100
1000
0000
0010
0000
2010
0000
3010
0000
0201
0000
0301
0000
,
1000
0000
0000
0000
0000
0000
0001
0000
0000
0010
0000
0000
0001
0000
0000
0010
0000
0000
0001
0000
0000
0010
0000
0000
0001
0000
0000
0000
0000
0000
1000
0000
0001
0000
1000
0000
0001
0000
0000
0000
0000
0000
1000
0000
0000
0000
0000
0000
,
0110
0000
0000
0100
0010
0000
1000
0000
1020
0000
0130
0000
0021
0000
0130
0000
,
1200
0000
0000
0310
0100
0000
1000
0000
1200
0000
0310
0100
0010
0100
0010
0100
,
1000
0000
0000
0001
0100
0000
0001
0000
0021
0000
0130
0000
2100
0000
3010
0000
,
0000
0000
1000
0010
0000
0000
0001
0010
0000
0000
1000
0010
0100
0000
0000
0000
,
0001
0000
0000
0100
0010
0000
1000
0000
0001
0000
0001
0000
1100
0000
1001
0000
,
0000
1000
0100
0000
0010
0000
0001
0010
0000
0010
0100
0000
0020
0000
0000
0031
,
0100
0000
0010
0000
2000
0000
0000
3100
1000
0000
0010
0000
0100
0000
0100
0000
,
0010
1000
0001
0000
1000
0000
0220
0000
,
0000
0000
0000
0000
,
0000
0000
0000
0000
,
0330
0000
0000
0000
;

//---------------dance-double - ----------------
#NOTES:
     dance-double:
     :
     Easy:
     9:
     0.399009,0.535198,0.418123,0.250874,0.000000,334.000000,284.000000,50.000000,30.000000,0.000000,0.000000,0.399009,0.535198,0.418123,0.250874,0.000000,334.000000,284.000000,50.000000,30.000000,0.000000,0.000000:
// measure 0
00000000
00000000
00000000
00000000
,  // measure 1
00000000
00000000
00000000
00000000
,  // measure 2
00000000
00000000
00000000
00000000
,  // measure 3
00000000
00000000
00000000
00000000
,  // measure 4
00000000
00000000
00000000
00000000
,  // measure 5
00000000
00000000
00000000
00000000
,  // measure 6
10000000
00000000
00010000
00000000
00100000
00001000
00100000
00000000
,  // measure 7
00001000
00000000
00010000
00000000
00000100
00001000
00000100
00000000
,  // measure 8
00001000
00000000
00000010
00000000
00000100
00000001
00000100
00000000
,  // measure 9
00000002
00000000
00000000
00000003
,  // measure 10
00000020
00000100
00000100
00000130
,  // measure 11
00000200
00000000
00010000
00000000
00010300
00001000
00010000
00000000
,  // measure 12
00002000
01000000
01000000
01003000
,  // measure 13
00100000
00000000
10000000
00000000
01000000
00100000
00010000
00000000
,  // measure 14
00200000
00001000
00001000
00301000
,  // measure 15
00020000
00000000
00000100
00000000
00030100
00001000
00000100
00000000
,  // measure 16
00000020
00000001
00000001
00000031
,  // measure 17
00000021
00000031
00002100
00003100
,  // measure 18
00001000
00000100
00010000
00001000
,  // measure 19
01000000
00100000
10000000
11000000
,  // measure 20
02200000
00000000
00000000
03000000
,  // measure 21
01300000
01000000
01000000
01000000
,  // measure 22
10010000
10000000
00010000
00100000
,  // measure 23
00001000
00010000
00000100
00001000
,  // measure 24
00001010
00000001
00000010
00000100
,  // measure 25
00001100
00001100
00010100
00011000
,  // measure 26
01001000
00001000
01000000
00100000
,  // measure 27
10000000
01000000
00100000
00010000
,  // measure 28
00110000
00100000
00001000
00010000
,  // measure 29
00000100
00000000
00001000
00000000
00000010
00000100
00000010
00000000
,  // measure 30
00000200
00000301
00000011
00000011
,  // measure 31
00000020
00000130
00001100
00001100
,  // measure 32
00000200
00010300
00011000
00011000
,  // measure 33
01001000
01001000
01100000
10100000
,  // measure 34
20000000
31000000
01100000
01100000
,  // measure 35
00200000
00310000
00110000
00110000
,  // measure 36
00100000
00001000
00010000
00000000
00010000
00000100
00001000
00000000
,  // measure 37
00000020
00000000
00000000
00000030
,  // measure 38
00000100
00000000
00000010
00000000
00000000
00001000
00000000
00000000
,  // measure 39
00000100
00000000
00000000
00010000
00000000
00000000
00001000
00000000
,  // measure 40
00000000
00000000
00100000
00000000
00000000
00010000
00000000
00000000
,  // measure 41
01000000
00000000
00000000
00001000
00000000
00000000
00010000
00000000
,  // measure 42
00001000
00000000
00100000
00000000
00000000
01000000
00000000
00000000
,  // measure 43
10000000
00000000
00000000
00010000
00000000
00000000
01000000
00000000
,  // measure 44
00000000
00000000
00010000
00000000
00000000
00100000
00000000
00000000
,  // measure 45
00022000
00000000
00000000
00033000
,  // measure 46
00011000
00010000
00000100
00010000
,  // measure 47
00001000
01000000
00001000
00010000
,  // measure 48
00000100
00000100
00010000
00010000
,  // measure 49
00001000
00000000
00010000
00000000
00001000
00000000
00010000
00001000
,  // measure 50
00010000
00011000
00011000
00011000
,  // measure 51
00000100
00010000
00001000
01000000
,  // measure 52
01002000
00013000
00020100
00031000
,  // measure 53
00011000
00011000
00011000
00011000
,  // measure 54
00000100
00001000
00000010
00000100
,  // measure 55
00000001
00000010
00000100
00001000
,  // measure 56
00000100
00010000
00001000
01000000
,  // measure 57
00010000
00100000
01000000
10000000
,  // measure 58
00020000
10000000
10000000
10000000
,  // measure 59
10030000
01000000
00100000
00010000
,  // measure 60
00200000
00301000
00020000
00031000
,  // measure 61
00020000
00030200
00002300
00003010
,  // measure 62
00000100
00000001
00000011
00000011
,  // measure 63
00000010
00000100
00001100
00001010
,  // measure 64
00000010
00001000
00001100
00001100
,  // measure 65
00000000
00010000
00000000
00010000
00000000
00010000
00000000
00010000
,  // measure 66
00001000
01000000
01100000
01100000
,  // measure 67
01000000
00100000
10100000
01010000
,  // measure 68
00010000
00100000
01100000
01100000
,  // measure 69
00000000
02000000
00000000
00000000
00000000
03100000
00010000
10000000
,  // measure 70
00010000
00000000
01000000
00000000
00010000
01000000
00010000
00000000
,  // measure 71
00100000
00000000
00001000
00000000
00010000
00001000
00010000
00000000
,  // measure 72
00000100
00000000
00001000
00000000
00000010
00000100
00000010
00000000
,  // measure 73
00000000
00000100
00000000
00000100
00000000
00000100
00000000
00000100
,  // measure 74
00000010
00000000
00001000
00000000
00000100
00010000
00001000
00010000
,  // measure 75
00000000
00001000
00000000
01000000
00100000
10000000
01000000
00000000
,  // measure 76
00100000
00010000
01000000
00000000
00100000
10000000
01000000
00000000
,  // measure 77
00100000
00001000
00000000
00022000
,  // measure 78
00000000
00000000
00000000
00000000
,  // measure 79
00000000
00000000
00000000
00000000
,  // measure 80
00033000
00000000
00000000
00000000
;

//---------------dance-double - ----------------
#NOTES:
     dance-double:
     :
     Medium:
     14:
     0.608070,0.769347,0.426486,0.200699,0.271780,509.000000,458.000000,51.000000,24.000000,0.000000,0.000000,0.608070,0.769347,0.426486,0.200699,0.271780,509.000000,458.000000,51.000000,24.000000,0.000000,0.000000:
// measure 0
00000000
00000000
00000000
00000000
,  // measure 1
00000000
00000000
00000000
00000000
,  // measure 2
00000000
00000000
00000000
00000000
,  // measure 3
00000000
00000000
00000000
00000000
,  // measure 4
00000000
00000000
00000000
00000000
,  // measure 5
00000000
00000000
00000000
00000000
,  // measure 6
10000000
00100000
10000000
01000000
00100000
00010000
00100000
00000000
,  // measure 7
00001000
00010000
00000100
00001000
00000010
00000100
00000001
00000000
,  // measure 8
00000010
00000100
00001000
00000100
00010000
00001000
00100000
00000000
,  // measure 9
01000000
00000000
00000000
01000000
00000000
00000000
01000000
00000000
10000000
00010000
10000000
00000000
00010000
00000000
00000000
00000000
,  // measure 10
20000000
00100000
00010000
31000000
,  // measure 11
00200000
00000000
00010000
00000000
01300000
00100000
00110000
00000000
,  // measure 12
00200000
00010000
00001000
00010000
,  // measure 13
00301000
00000000
00000000
00010000
00000000
00000000
00000010
00000000
00000100
00000000
00000001
00000000
00000010
00000000
00000000
00000000
,  // measure 14
00002100
00000100
00000010
00003001
,  // measure 15
00000200
00000000
00000010
00000000
00000301
00000100
00000110
00000000
,  // measure 16
00000020
00001000
00010000
00001000
,  // measure 17
00000130
00000000
00000000
00000010
00000000
00000000
00010000
00000000
00001000
00000000
00000000
01000000
00000000
00000000
00100000
00000000
,  // measure 18
10100000
10100000
10100000
10100000
,  // measure 19
01010000
01010000
01010000
01020000
,  // measure 20
00230000
00001000
00010000
00001000
,  // measure 21
00300200
00002300
00003020
00000230
,  // measure 22
00000301
00000000
00000000
00000010
00000000
00000000
00000001
00000000
00000101
00000000
00000000
00000000
00001010
00000000
00000000
00000000
,  // measure 23
00001000
00000000
00000000
00000100
00000000
00000000
00010000
00000000
00011000
00000000
00000000
00000000
00101000
00000000
00000000
00000000
,  // measure 24
00010000
00000000
00000000
00100000
00000000
00000000
00010000
00000000
01010000
00000000
00000000
00000000
10100000
00000000
00000000
00000000
,  // measure 25
00010000
10000000
00010000
10000000
00010000
00100000
00001000
00010000
,  // measure 26
00000010
00000000
00000000
00000100
00000000
00000000
00000001
00000000
00000011
00000000
00000000
00000000
00000110
00000000
00000000
00000000
,  // measure 27
00000100
00000000
00000000
00001000
00000000
00000000
00000100
00000000
00010100
00000000
00000000
00000000
00011000
00000000
00000000
00000000
,  // measure 28
00001000
00000000
00000000
01000000
00000000
00000000
00100000
00000000
10100000
00000000
00000000
00000000
11000000
00000000
00000000
00000000
,  // measure 29
10000000
01000000
00010000
01000000
00100000
00010000
00110000
00000000
,  // measure 30
00100000
00000000
00000000
00001000
00000000
00000000
00010000
00000000
00011000
00000000
00000000
00000000
00010100
00000000
00000000
00000000
,  // measure 31
00000100
00000000
00000000
00001000
00000000
00000000
00000010
00000000
00000110
00000000
00000000
00000000
00000101
00000000
00000000
00000000
,  // measure 32
00000001
00000000
00000000
00000010
00000000
00000000
00000100
00000000
00000110
00000000
00000000
00000000
00001100
00000000
00000000
00000000
,  // measure 33
00000100
00010000
00000100
00010000
00000100
00010000
00001000
01000000
,  // measure 34
00100000
00000000
00000000
10000000
00000000
00000000
01000000
00000000
01100000
00000000
00000000
00000000
00110000
00000000
00000000
00000000
,  // measure 35
00100000
00000000
00000000
00001000
00000000
00000000
00010000
00000000
00011000
00000000
00000000
00000000
00010010
00000000
00000000
00000000
,  // measure 36
00000010
00001000
00000010
00000001
00000010
00001000
00000010
00000001
,  // measure 37
00000010
00000000
00000000
00000000
,  // measure 38
00000100
00000010
00001000
00000000
00000100
00010000
00000000
00010000
,  // measure 39
00001000
00000000
00001000
01000000
00000000
01000000
00100000
10000000
,  // measure 40
00000000
01000000
00100000
00000000
01000000
10000000
00000000
00010000
,  // measure 41
01000000
00000000
00010000
00100000
00000000
00010000
00100000
00001000
,  // measure 42
00010000
00000100
00001000
00000000
00001000
00000010
00000000
00000010
,  // measure 43
00000100
00000000
00000100
00000001
00000000
00000001
00000010
00000100
,  // measure 44
00000000
00000010
00000001
00000000
00001000
00000100
00000000
00000100
,  // measure 45
00010000
00001000
00000000
01000000
00000000
00100000
10000000
00000000
01000000
00000000
00100000
00000000
00110000
00000000
00000000
00000000
,  // measure 46
10010000
00000000
10000000
00010000
10000000
00010000
10000000
00010000
,  // measure 47
10000000
10000000
00010000
00010000
00100000
00100000
00001000
00001000
,  // measure 48
00010000
00000100
00000000
00010000
00000100
00000000
00001000
00000000
00000010
00001000
00000000
00000010
00001000
00000000
00000010
00000000
,  // measure 49
00001000
00000100
00010000
00001000
01000000
00100000
10000000
00010000
,  // measure 50
00110000
00000000
00000000
00000000
00001000
00010000
00000000
00000000
00010000
00001000
00000000
00000000
00001000
00010000
00000000
00000000
,  // measure 51
00000100
00001000
00000100
00001000
00000100
00001000
00000100
00001000
,  // measure 52
00000100
00000010
00000000
00000010
00000001
00000000
00000100
00000000
00000010
00001000
00000000
00001000
00000100
00000000
00010000
00000000
,  // measure 53
00001000
00000000
01000000
00000000
00100000
00000000
10000000
00000000
01000000
00000000
00100000
00000000
00001000
00000000
00010000
00000000
00000100
00000000
00001000
00000000
00000000
00000010
00000000
00000000
,  // measure 54
00002001
00003010
00002010
00003100
,  // measure 55
00001200
00010300
00102000
00013000
,  // measure 56
00021000
00030100
00012000
01003000
,  // measure 57
01200000
10300000
12000000
03100000
,  // measure 58
00210000
01000000
00010000
01000000
,  // measure 59
00310000
00000000
01000000
00000000
00001000
00000000
00010000
00000000
00000010
00000000
00000100
00000000
00000001
00001000
00000001
00001000
,  // measure 60
00000001
00000100
00001000
00000100
00000001
00000100
00000010
00001000
,  // measure 61
00000100
00010000
01000000
00010000
00100000
00000000
00011000
00000000
,  // measure 62
00001010
00000000
00000000
00000010
00001000
00000000
00000010
00000000
00000100
00000000
00000001
00000000
00000010
00000000
00000100
00000000
,  // measure 63
00001000
00000000
00000000
00000100
00001000
00000000
00000100
00000000
00010000
00000000
00000100
00000000
00010000
00000000
00001000
00000000
,  // measure 64
01000000
00000000
00000000
00100000
01000000
00000000
00010000
00000000
00100000
00000000
10000000
00000000
00100000
00000000
00010000
00000000
,  // measure 65
00000000
00000000
10000000
01000000
00000000
00000000
01000000
00100000
00000000
00000000
00100000
00010000
00000000
00000000
00001000
00010000
,  // measure 66
00001000
00000000
00000000
00010000
00000100
00000000
00001000
00000000
00000010
00000000
00000100
00000000
00000001
00000000
00000010
00000000
,  // measure 67
00000100
00000000
00000000
00000010
00000001
00000000
00001000
00000000
00000010
00001000
00000000
00001000
00000100
00000000
00000100
00010000
,  // measure 68
00000100
00000000
00000000
00010000
00001000
00000000
01000000
00000000
00100000
00000000
10000000
00000000
01000000
00000000
00100000
00000000
,  // measure 69
00000000
00000000
01000000
00000000
01000000
00000000
01000000
00000000
01000000
00000000
00100000
00001000
00010000
00000000
00000100
00000000
,  // measure 70
00001100
00000000
00000000
00001000
00000010
00000000
00000100
00000000
00000001
00000000
00000100
00000000
00001000
00000000
00000100
00000000
,  // measure 71
00000001
00000000
00000000
00001000
00000010
00000000
00001000
00000000
00000100
00000000
00010000
00000000
00001000
00000000
00100000
00000000
,  // measure 72
01000000
00000000
00000000
10000000
01000000
00000000
10000000
00000000
00100000
00000000
00010000
00000000
00100000
00000000
10000000
00000000
,  // measure 73
00000000
00000000
10000000
01000000
00000000
00000000
01000000
00100000
00000000
00000000
00100000
00010000
00000000
00000000
00001000
00010000
,  // measure 74
00001000
00000000
00000000
00010000
00000100
00000000
00001000
00000000
00000010
00000000
00000100
00000000
00000101
00000000
00000001
00000000
,  // measure 75
00000000
00000001
00000100
00000000
00000010
00000000
00001000
00000100
00000000
00000100
00010000
00000000
00001000
00000000
00000000
00100000
,  // measure 76
01000000
00000000
10000000
00000000
00100000
00000000
00000000
01000000
00010000
00000000
00100000
00000000
00001000
00000000
00010000
00000000
,  // measure 77
00000010
00010000
00002000
00000000
00013000
00000000
00022000
00000000
,  // measure 78
00000000
00000000
00000000
00000000
,  // measure 79
00000000
00000000
00000000
00000000
,  // measure 80
00033000
00000000
00000000
00000000
;

//---------------dance-double - ----------------
#NOTES:
     dance-double:
     :
     Hard:
     17:
     0.863723,1.103845,0.434848,0.209062,0.781890,723.000000,671.000000,52.000000,25.000000,0.000000,0.000000,0.863723,1.103845,0.434848,0.209062,0.781890,723.000000,671.000000,52.000000,25.000000,0.000000,0.000000:
// measure 0
00000000
00000000
00000000
00000000
,  // measure 1
00000000
00000000
00000000
00000000
,  // measure 2
00000000
00000000
00000000
00000000
,  // measure 3
00000000
00000000
00000000
00000000
,  // measure 4
00000000
00000000
00000000
00000000
,  // measure 5
00000000
00000000
00000000
00000000
,  // measure 6
01000000
00100000
00100000
10000000
00010000
00100000
00100000
00001000
,  // measure 7
00010000
00000000
00000100
00000000
00000100
00000000
00001000
00000000
00000010
00000100
00000001
00000000
00000010
00000000
00000000
00000000
,  // measure 8
00000100
00000010
00000010
00000001
00001000
00001000
00000010
00001000
,  // measure 9
00000100
00010000
00000100
00010000
00000100
00010000
00000100
00000000
00010000
00001000
01000000
00000000
00100000
00000000
00000000
00000000
,  // measure 10
10000000
00000000
01000000
00100000
01000000
00000000
00100000
00000000
00010000
00100000
00010000
00000000
00100000
00000000
00001000
00000000
,  // measure 11
00010000
00000000
00000100
00001000
00000100
00000000
00001000
00000000
00000010
00000100
00000001
00000000
00000011
00000000
00000000
00000000
,  // measure 12
00000001
00000000
00001000
00000010
00001000
00000000
00000010
00000000
00000100
00000010
00000100
00000000
00000010
00000000
00001000
00000000
,  // measure 13
00000100
00010000
00001000
00010000
00000100
00010000
00001000
00000000
00010000
00001000
01000000
00000000
01100000
00000000
00000000
00000000
,  // measure 14
10000000
00000000
00010000
00100000
00010000
00000000
00100000
00000000
00001000
00010000
00001000
00000000
00010000
00000000
00000100
00000000
,  // measure 15
00001000
00000000
00000010
00000100
00000010
00000000
00000100
00000000
00000001
00000100
00000010
00000000
00001010
00000000
00000000
00000000
,  // measure 16
00000100
00000000
00000010
00000100
00000010
00000000
00001000
00000000
00000100
00001000
00000100
00000000
00010000
00000000
00010000
00000000
,  // measure 17
00001000
01000000
00010000
01000000
00001000
01000000
00010000
10000000
01000000
00100000
00010000
10000000
01000000
00100000
00010000
00100000
,  // measure 18
02000000
10000000
10000000
13000000
,  // measure 19
00210000
00010000
00010000
00302000
,  // measure 20
00023000
00000100
00001000
00030100
,  // measure 21
00001100
00000101
00001100
00000101
,  // measure 22
00001001
00000000
00000001
00000010
00000000
00000010
00000001
00000000
00000011
00000000
00000000
00000000
00001001
00000000
00000000
00000000
,  // measure 23
00001010
00000000
00000010
00001000
00000000
00001000
00000100
00000000
00001100
00000000
00000000
00000000
00011000
00000000
00000000
00000000
,  // measure 24
01001000
00000000
01000000
00010000
00000000
00010000
01000000
00000000
01100000
00000000
00000000
00000000
10100000
00000000
00000000
00000000
,  // measure 25
10000000
01000000
10000000
00000000
00010000
01000000
00010000
00000000
10000000
01000000
10000000
01000000
10000000
01000000
10000000
01000000
,  // measure 26
10000000
00000000
01000000
00100000
00000000
00100000
00010000
00000000
10010000
00000000
00000000
00000000
01001000
00000000
00000000
00000000
,  // measure 27
00010100
00000000
00010000
00000100
00000000
00000100
00001000
00000000
00001100
00000000
00000000
00000000
00000110
00000000
00000000
00000000
,  // measure 28
00000011
00000000
00000001
00000100
00000000
00000100
00000010
00000000
00000110
00000000
00000000
00000000
00001010
00000000
00000000
00000000
,  // measure 29
00001100
00000000
00000100
00010000
00001000
00000000
00001000
00000000
00001000
01000000
00100000
00000000
00100000
00000000
00000000
00000000
,  // measure 30
01010000
00000000
01000000
00001000
00000000
00010000
00000100
00000000
00001100
00000000
00001000
00000000
00001010
00000000
00000010
00000000
,  // measure 31
00000110
00000000
00000100
00000001
00000000
00000010
00000100
00000000
00001100
00000000
00000100
00000000
00010100
00000000
00010000
00000000
,  // measure 32
00011000
00000000
00001000
01000000
00000000
01000000
00100000
00000000
01100000
00000000
00100000
00000000
10100000
00000000
10000000
00000000
,  // measure 33
00010000
00100000
00001000
00000000
00001000
00100000
00010000
00000000
00100000
00001000
00010000
00001000
00100000
00010000
00100000
00001000
,  // measure 34
00010000
00000000
00001000
00010000
00000000
00010000
00000100
00000000
00001100
00000000
00000100
00000000
00000110
00000000
00000010
00000000
,  // measure 35
00000011
00000000
00000001
00000010
00000000
00000100
00001000
00000000
00001100
00000000
00000100
00000000
00010100
00000000
00010000
00000000
,  // measure 36
00011000
00000000
00001000
01000000
00100000
00000000
00100000
00000000
10000000
00000000
00100000
10000000
01000000
00000000
01000000
00000000
,  // measure 37
00100000
00000000
00000000
00000000
,  // measure 38
01000000
10000000
00100000
01000000
00010000
00100000
01000000
00100000
,  // measure 39
00010000
01000000
00100000
10000000
00010000
00100000
00001000
00100000
,  // measure 40
00001000
00010000
00000100
00001000
00000010
00000100
00000001
00000010
,  // measure 41
00001000
00000010
00000001
00000100
00000010
00001000
00000100
00010000
,  // measure 42
00001000
01000000
10000000
01000000
00010000
00100000
10000000
00100000
,  // measure 43
00010000
01000000
00001000
00010000
00000100
00001000
00000100
00000001
,  // measure 44
00001000
00000010
00000001
00000010
00001000
00000010
00000100
00000010
,  // measure 45
00010000
00000000
00000000
00001000
00000000
00000000
00010000
00000000
00000000
00000100
00000000
00000000
00010000
00000000
00000000
00000000
00001000
00000000
00010000
00000000
00001000
00000000
00010000
00000000
00001000
00000000
00000000
00010000
00000000
00000000
00001000
00000000
00000000
00010000
00000000
00000000
00000020
00000000
00000000
00000030
00000000
00000000
00000000
00000000
00000000
00000000
00000000
00000000
,  // measure 46
00010010
00000000
00000000
00000000
00001000
00100000
00010000
00100000
00001000
00100000
00010000
00100000
00001000
00100000
00010000
00100000
,  // measure 47
00001000
01000000
00001000
00000000
00001000
01000000
00001000
00000000
00001000
01000000
00001000
00000000
00001000
01000000
00001000
00000000
,  // measure 48
00001000
00100000
00000000
01000000
10000000
00000000
00100000
00000000
01000000
00001000
00000000
00010000
00000100
00000000
00001000
00000000
,  // measure 49
00000010
00000000
00000100
00000001
00000010
00000000
00000100
00001000
00000010
00000100
00000001
00000010
00000100
00000000
00000100
00000000
,  // measure 50
00010100
00000000
00000000
00000000
00000000
00000000
00001000
00010000
00001000
00010000
00000000
00000000
00001000
00010000
00001000
00010000
00000000
00000000
00001000
00010000
00001000
00010000
00000000
00000000
,  // measure 51
00001000
00100000
00001000
00100000
00001000
00100000
00001000
00100000
00001000
00010000
00001000
00010000
00000100
00010000
00001000
00010000
,  // measure 52
00000100
00001000
00000100
00010000
00001000
00010000
00001000
00000000
00010000
00000100
00010000
00000100
00010000
00001000
00010000
00000000
,  // measure 53
00001000
01000000
10000000
01000000
00001000
00010000
00000100
00001000
00000010
00000110
00000000
00000000
,  // measure 54
00000001
00000100
00000001
00000000
00000100
00000010
00000100
00000000
00000010
00001000
00000010
00000000
00001000
00000100
00001000
00000000
,  // measure 55
00000100
00010000
00000100
00000000
00010000
00001000
00010000
00000000
00001000
01000000
00001000
00000000
00001000
00100000
00001000
00000000
,  // measure 56
00100000
01000000
10000000
00000000
01000000
00100000
00010000
00000000
01000000
00010000
00100000
00000000
00100000
00001000
00010000
00000000
,  // measure 57
00000100
00001000
00000010
00000000
00000100
00000001
00000010
00000000
00000100
00001000
00000010
00000000
00000100
00000010
00001000
00000000
,  // measure 58
00000100
00010000
00000100
00010000
00000100
00010000
00000100
00010000
00000100
00010000
00000100
00010000
00000100
00010000
00000100
00010000
,  // measure 59
00000100
00010000
00001000
00010000
00001000
01000000
00001000
01000000
00100000
01000000
00100000
10000000
01000000
00100000
00001000
00010000
,  // measure 60
00001000
01000000
00001000
00010000
00000100
00001000
00000010
00001000
,  // measure 61
00000001
00000100
00001000
00010000
00000100
00000000
00011000
00000000
,  // measure 62
00010010
00000000
00000000
00000010
00001000
00000000
00000100
00000000
00020000
00000000
00031000
00000000
00002000
00000000
01003000
00000000
,  // measure 63
01100000
00000000
00000000
00100000
10000000
00000000
01000000
00000000
01000000
00000000
00100000
00010000
00100000
00000000
00100000
00010000
,  // measure 64
00100000
00000000
00000000
00001000
00010000
00000000
00000100
00000000
00002000
00000000
00003010
00000000
00000020
00000000
00000130
00000000
,  // measure 65
00000000
00000000
00000010
00001000
00000000
00000000
00001000
00000100
00000000
00000000
00000100
00010000
00000000
00000000
00010000
00001000
,  // measure 66
01000000
00000000
00000000
00010000
10000000
00000000
10000000
00000000
00020000
00000000
00130000
00000000
00200000
00000000
01300000
00000000
,  // measure 67
10000000
00000000
00000000
01000000
10000000
00000000
00100000
00000000
01000000
00010000
00000000
00100000
00010000
00000000
00010000
00100000
,  // measure 68
00010000
00000000
00000000
00100000
00001000
00000000
00010000
00000000
00000200
00000000
00001300
00000000
00000020
00000000
00000130
00000000
,  // measure 69
00000000
00000000
00000000
00000000
00000000
00000000
00000001
00000000
00000000
00001000
00000000
00000000
00000001
00000000
00000000
00001000
00000000
00000000
00000001
00000000
00000000
00001000
00000000
00000000
00000001
00000000
00000000
00000000
00000000
00000000
00000100
00000000
00000010
00000000
00000100
00000000
00000010
00000000
00000000
00000000
00000000
00000000
00000100
00000000
00000000
00000000
00000000
00000000
,  // measure 70
00001010
00000000
00000000
00000100
00010000
00000000
00001000
00000000
02000000
00000000
13000000
00000000
02000000
00000000
03010000
00000000
,  // measure 71
00110000
00000000
00000000
00100000
00001000
00000000
00010000
00000000
00000100
00000000
00001000
00000010
00000100
00000001
00000100
00000001
,  // measure 72
00000010
00000000
00000000
00000100
00000010
00000000
00000001
00000000
00000200
00000000
00001300
00000000
00000200
00000000
00000301
00000000
,  // measure 73
00000000
00000000
00001000
00000010
00000000
00000000
00000010
00010000
00000000
00000000
00010000
00001000
00000000
00000000
00001000
01000000
,  // measure 74
00100000
00000000
00000000
10000000
00100000
00000000
01000000
00000000
00010000
00000000
00010000
00000000
00101000
00000000
00100000
00000000
,  // measure 75
00000000
00000100
00010000
00000000
00010000
00000000
00000100
00010000
00000000
00001000
01001000
00000000
02000000
00000000
00000000
03001000
,  // measure 76
00020000
00000000
00030200
00000000
00002300
00000000
00000000
00003010
00000200
00000000
00000302
00000000
00000013
00000000
00001000
00000000
,  // measure 77
00000010
00000001
00001000
00000000
00000000
00000000
00000220
00000000
,  // measure 78
00000000
00000000
00000000
00000000
,  // measure 79
00000000
00000000
00000000
00000000
,  // measure 80
00000330
00000000
00000000
00000000
;
