#TITLE:刹那;
#SUBTITLE:;
#ARTIST:HuΣeR feat.Fernweh;
#TITLETRANSLIT:Setsuna;
#SUBTITLETRANSLIT:;
#ARTISTTRANSLIT:;
#GENRE:;
#CREDIT:;
#MUSIC:Setsuna.ogg;
#BANNER:Setsuna.png;
#BACKGROUND:Setsuna-bg.png;
#CDTITLE:./CDTITLES/GITADORA.PNG;
#SAMPLESTART:52.703;
#SAMPLELENGTH:15.000;
#SELECTABLE:YES;
#OFFSET:0.000;
#BPMS:0.000=148.000;
#STOPS:;
#BGCHANGES:;
#FGCHANGES:;

//--------------- dance-single - t7r ----------------
#NOTES:
     dance-single:
     t7r:
     Beginner:
     4:
     0,0,0,0,0:
0000
0000
0000
0000
,
0000
0000
0000
0000
,
0000
0000
0000
0000
,
0000
0000
0000
0000
,
0000
0000
0000
0000
,
0001
0000
0000
0000
,
1000
0000
0000
0000
,
0010
0000
0000
0000
,
0100
0000
0000
0000
,
1000
0000
1000
0000
,
1000
0000
0000
0000
,
0001
0000
0001
0000
,
0001
0000
0000
0000
,
0100
0000
0100
0000
,
0100
0000
0000
0000
,
0010
0000
0010
0010
,
0010
0000
0000
0000
,
1001
0000
0000
0000
,
0000
0000
0000
0000
,
1000
0000
0000
0000
,
0000
0000
0000
0000
,
0001
0000
0001
0000
,
0001
0000
0000
0000
,
0100
0000
0100
0000
,
0100
0000
0000
0000
,
0010
0000
0000
0010
,
0010
0000
0010
0000
,
1000
0000
0000
1000
,
1000
0000
1000
0000
,
0001
0000
0000
0001
,
0001
0000
0001
0000
,
0100
0000
0000
0000
,
0100
0000
0000
0000
,
0010
0000
0010
0000
,
0010
0000
1000
0000
,
1000
0000
1000
0000
,
0001
0000
0000
0000
,
0010
0000
0010
0000
,
0001
0000
0001
0000
,
0100
0000
0100
0000
,
0010
0000
0000
1000
,
1000
0000
0000
0000
,
0000
0000
0000
0000
,
0001
0000
0000
0000
,
0000
0000
0000
0000
,
0010
0000
0010
0000
,
0010
0000
0000
0000
,
0100
0000
0100
0000
,
0100
0000
0000
0000
,
1000
0000
0000
0010
,
0010
0000
0000
0001
,
0001
0000
0000
0100
,
0100
0000
0000
0000
,
1000
0000
1000
0000
,
0001
0000
0001
0000
,
0100
0000
0100
0100
,
0100
0000
0100
0000
,
0010
0000
0000
0000
,
1000
0000
0000
0000
,
0001
0000
0000
0000
,
0010
0000
0000
0000
,
0100
0000
0100
0100
,
0100
0000
0010
0010
,
0010
0000
0001
0000
,
1000
0000
1000
0000
,
0001
0000
0001
0000
,
1000
0000
1000
0000
,
0010
0000
0010
0000
,
0100
0000
0100
0000
,
0010
0010
0010
0000
,
1000
1000
1000
0000
,
0001
0001
0001
0000
,
1000
0000
0001
0000
,
0000
1001
0000
0000
;

//--------------- dance-single - t7r ----------------
#NOTES:
     dance-single:
     t7r:
     Easy:
     6:
     0,0,0,0,0:
0000
0000
0000
0000
,
0000
0000
0000
0000
,
0000
0000
0000
0000
,
0000
0000
0000
0000
,
0000
0000
0000
0000
,
1000
0100
0020
0000
,
0031
0100
0010
1000
,
0001
0001
0010
0010
,
0100
0000
0000
1000
0000
1002
0000
0000
,
2003
0010
3002
0003
,
2000
0100
3002
0003
,
0200
0001
0320
0030
,
1000
0010
0220
0330
,
0002
0010
2003
3000
,
0002
0100
2003
3000
,
0001
0100
0010
1000
,
0100
0000
0000
0010
0000
0120
0000
0000
,
0031
0000
0100
0000
,
0010
0000
1000
0000
,
0100
0000
0010
0000
,
0001
0001
0001
0000
,
2000
0000
3010
0000
,
0002
0000
0013
0000
,
1000
0100
0001
0100
,
1000
0000
0000
0001
0000
2001
0000
0000
,
3001
0010
0001
0010
,
0200
0000
1300
1001
,
1000
0010
1000
0010
,
0200
0000
0301
0011
,
0001
1000
0001
1000
,
0001
0100
0001
0100
,
0020
0000
1030
0100
,
0020
0000
0031
1000
,
2001
0000
3100
0001
,
0100
0010
0010
0001
,
1000
0010
0001
0010
,
2000
0000
0100
3001
,
0010
0001
0010
0001
,
0010
1000
0010
1000
,
0010
0100
1000
0010
,
0100
0000
0110
0001
,
1000
1000
0100
0100
,
0010
0000
0001
0000
,
0001
0001
0100
0100
,
1000
0000
0100
0000
,
0010
1000
0002
0000
,
0013
0001
2000
0000
,
3100
0100
0010
0010
,
0001
0000
0000
1000
0000
1002
0000
0000
,
2003
0000
3010
0100
,
0002
0000
0013
0100
,
0020
0000
0000
0031
,
2000
0000
3010
1000
,
0001
1000
0001
1000
0001
1000
0001
1000
,
0001
0100
0010
1000
,
0100
0100
0200
0300
,
0010
0000
0000
0001
2000
0000
0000
0000
,
3010
0000
0000
0000
,
1000
0000
0000
0000
,
0001
0000
0000
0000
,
0100
0000
0010
1000
,
0001
0010
0001
1000
,
0100
1000
0010
0100
,
0210
0000
0301
1000
,
0001
0000
1001
0010
,
2001
0000
3200
0000
,
0301
0100
1000
0000
,
0002
0000
0203
0000
,
1300
0100
0020
0000
,
1030
0010
2000
0100
,
3001
0010
0200
1000
,
0310
0000
0010
0000
0001
1000
0001
0000
,
0100
0000
0000
0010
0000
0120
0000
0000
,
1030
2002
0000
0000
,
0000
0000
0000
0000
,
0000
0000
3003
0000
;

//--------------- dance-single - t7r ----------------
#NOTES:
     dance-single:
     t7r:
     Medium:
     11:
     0,0,0,0,0:
0000
0000
0000
0000
,
0000
0000
0000
0000
,
0000
0000
0000
0000
,
0000
0000
0000
0000
,
0000
0000
0000
0000
,
0001
0000
0100
0001
0020
0000
0000
0130
,
1000
0000
0010
0000
0100
0001
1000
0000
,
0001
0010
0001
0000
1000
0010
1000
0000
,
0010
0000
0000
0100
0000
0000
0010
0000
0000
0000
0120
0000
0000
0000
0000
0000
,
2030
0000
3001
0010
0002
0000
0000
1003
,
0100
0000
0000
0010
0000
0000
0001
0000
2000
0000
0000
0000
0000
0000
0000
0000
,
3002
0000
1003
0010
2000
0000
0000
3001
,
0010
0000
0000
0100
0000
0000
0010
0000
0001
0000
0000
0000
1001
0000
0000
0000
,
0001
0100
0001
0000
2000
0000
3010
0000
,
2000
0000
3100
0010
0002
0000
0000
0000
,
0103
0010
0100
0000
0010
1000
0001
0000
,
1000
0000
0000
0100
0000
0000
1000
0000
0000
0000
1002
0000
0000
0000
0000
0000
,
1003
0010
0100
0100
,
0002
0000
0013
0000
,
0001
0100
0010
0010
,
2000
0000
3001
0000
,
1000
0100
1000
1010
,
0001
0100
0001
0011
,
1000
1100
0001
0101
,
1000
0000
0000
0001
0000
0000
0100
0000
0000
0000
0120
0000
0000
0000
0000
0000
,
1030
0001
0100
0000
0001
1000
0100
0000
,
0020
0000
0031
0100
0010
0000
0110
0000
,
0001
1000
0100
0000
1000
0001
0010
0000
,
0002
0000
0103
0010
1000
0000
0110
0000
,
1000
0100
1000
0100
0010
0000
0001
0000
,
0100
0010
0100
0010
1000
0000
0001
0000
,
2002
0000
0000
0000
3003
0000
0000
0000
0001
0000
0000
0100
0000
0000
1000
0000
,
0200
0000
0310
1000
,
0002
0000
0000
0013
0001
0000
1000
0100
,
1000
0000
0001
0000
1000
0010
1000
0000
,
0001
0000
0100
1000
0100
0000
0001
1000
,
0002
0000
0013
0110
,
2000
0000
0000
3100
0010
0000
0001
1000
,
0001
0000
1000
0000
0010
0001
0010
0000
,
1000
0000
0100
0010
0001
0000
1000
0001
,
0100
0000
0000
0010
0000
0000
0100
0000
0001
0000
0000
0000
1001
0000
0000
0000
,
1000
0100
0001
0100
,
1000
0010
0100
0101
,
0001
0010
1000
0010
,
0001
0100
0010
1010
,
2000
0000
0000
3100
0020
0000
0000
0031
,
0100
0000
0001
0000
1000
0001
0100
0000
,
0010
0000
1000
0100
1000
0000
0001
0100
,
0001
0000
0000
0100
0000
0000
0110
0000
0000
0000
1002
0000
0000
0000
0000
0000
,
2003
0000
0000
0000
0000
0000
3100
0000
0010
0000
0000
0010
0000
0000
0001
0000
,
0200
0000
0000
0000
0000
0000
0310
0000
0100
0000
0000
0100
0000
0000
0001
0000
,
2000
0000
0000
3100
,
1000
0000
0000
0010
0000
0000
0001
0000
0010
0000
0000
0000
1001
0000
0000
0000
,
0001
0100
0001
0100
0010
1000
0010
1000
,
0001
0010
0001
0010
0100
1000
0100
1000
,
0100
0000
0000
0100
0000
0000
0200
0000
0000
0000
0000
0000
0310
0000
0001
0000
,
1000
0000
0000
1001
0000
0000
0010
0000
0200
0000
0000
0000
0310
0000
0000
0000
,
2000
0000
0100
3001
,
0010
0001
0100
0010
,
0100
0100
0001
1000
,
0200
0000
0310
1001
,
1000
0100
0000
1000
0010
1000
0001
0000
,
0010
0001
0000
0100
0001
0100
0010
0000
,
2002
0000
0000
0000
3003
0000
0000
0000
0001
0000
0000
0011
0000
0000
1000
0000
,
0100
0000
0000
1100
0000
0000
0001
0000
1000
0000
0000
0000
0110
0000
0000
0000
,
2000
0010
0000
3001
1000
0100
1000
0000
,
0020
0000
0000
0000
0130
0000
0001
0000
0000
1000
0000
0000
1001
0000
0000
0000
,
0002
0010
0000
1003
0100
1000
0001
0000
,
0200
0000
0310
1000
0100
0000
0110
0000
,
0001
0100
0001
0000
1000
0100
0001
0000
,
0100
1000
0010
0000
1000
0010
0001
0000
,
0010
0100
0010
0100
0001
1000
0001
0000
,
1001
0000
0000
0101
0000
0000
0101
0000
0000
0000
2001
0000
0000
0000
3100
0000
,
0010
2200
0000
0000
,
0000
0000
0000
0000
,
0000
0000
3300
0000
;

//--------------- dance-single - t7r ----------------
#NOTES:
     dance-single:
     t7r:
     Hard:
     15:
     0,0,0,0,0:
0000
0000
0000
0000
,
0000
0000
0000
0000
,
0000
0000
0000
0000
,
0000
0000
0000
0000
,
0000
0000
0000
0000
,
0001
0000
0000
0001
0010
0000
0100
0000
0020
0000
0000
0000
0031
0000
0000
0000
,
1000
0000
0010
1000
0000
0010
0100
0000
0010
0000
1000
0000
0100
0000
0010
0000
,
0001
0000
0100
0000
1000
0000
0100
0000
0001
0010
0100
0000
0010
0000
0001
1000
,
0001
0000
0000
1001
0000
0000
0101
0000
0001
1000
0002
0000
0000
0000
0000
0000
,
1003
0000
0100
0000
0010
0000
0001
0100
0020
0000
0000
0000
0000
0000
1030
0001
,
0010
0000
0100
0000
1000
0000
0010
0000
0200
0000
0000
0000
0000
0000
0301
1000
,
0010
0000
1000
0000
0100
0000
0010
0100
2000
0000
0000
0000
0000
0000
3001
0100
,
0010
0000
0100
0001
0000
0100
0010
0000
1000
0000
0001
0100
0001
0000
1000
0000
,
0001
0000
0010
0100
0000
0010
0001
0000
2000
0000
0100
0000
3001
0000
1000
0001
,
1000
0000
0100
0010
0000
0100
1000
0000
0002
0000
0010
0000
1003
0000
0001
0100
,
0010
0000
0100
0001
0010
0000
0100
1000
0010
0000
0100
0001
0000
1000
0001
0000
,
1001
0000
0000
1100
0000
0000
1001
0000
0001
1000
0020
0000
0000
0000
0000
0000
,
0230
0000
0000
0301
0100
0001
0010
0000
,
0200
0000
0000
1300
0001
0000
0100
0001
,
0010
0000
0001
0000
1000
0001
0010
0100
,
1000
0000
0000
0010
0000
0000
0100
0000
0001
0000
0000
0000
0010
0000
0001
0000
,
1000
0000
0100
0010
0000
0100
0001
0000
0200
0000
0000
0310
0001
0000
1000
0000
,
0001
0000
0100
1000
0000
0100
0010
0000
0200
0000
0000
0310
1000
0000
0001
0000
,
1000
0000
0010
0100
0000
0010
0001
0000
0020
0000
0000
1030
0001
0000
1000
0000
,
1100
0000
0000
0011
0000
0000
1001
0000
0000
0000
0210
0000
0000
0000
0000
0000
,
0301
0000
0010
0000
0000
0001
0100
0000
0001
0000
0010
0001
0000
0001
1000
0000
,
0100
0000
0001
0000
0100
1000
0100
0000
0001
0000
0100
0000
0110
0000
0000
0000
,
1000
0000
0010
0000
0000
1000
0100
0000
1000
0000
0010
1000
0000
1000
0001
0000
,
0100
0000
1000
0000
0100
0001
0100
0000
1000
0000
0100
0010
1000
0000
0001
0000
,
1000
0000
0100
0010
0100
0000
0001
0000
0100
0000
1000
0010
0000
0010
0100
0000
,
0001
0000
0010
0001
1000
0000
0010
1000
0001
0000
0010
0100
1000
0000
0001
0000
,
0100
0000
0010
1000
0000
0010
0001
0000
0010
0000
0000
0110
0000
0000
0100
0000
,
0002
0000
0000
0000
0000
0000
1003
0001
2000
0000
0000
0000
3020
0000
0000
0000
,
2030
0000
0100
0000
3001
0000
1000
0000
0100
0000
0010
0100
1000
0000
0001
0000
,
0100
0001
1000
0010
0001
1000
0100
0001
,
0010
0000
0100
1000
0100
0000
1000
0000
0010
0000
0001
0010
0000
1000
0010
0000
,
0100
0000
0001
1000
0100
0000
0010
0000
0100
1000
0001
0000
2001
0000
0000
0000
,
3002
0000
0010
0000
1003
0000
0001
0000
0100
0000
0010
1000
0001
0000
1000
0000
,
0100
0001
1000
0010
0001
1000
0010
0100
,
1000
0000
0100
0001
0100
0000
0010
1000
0001
0000
0010
0100
1000
0000
0001
0000
,
1001
0000
0000
0101
0000
0000
1010
0000
1000
0000
0100
0010
0001
0000
0000
0000
,
2000
0010
0001
3100
,
1000
0000
0100
0010
0000
0010
0000
0001
1000
0000
0010
0000
0100
0000
0000
0000
,
0002
0010
1000
0103
,
0001
0000
0010
0100
0000
0100
0000
1000
0001
0000
0100
0000
0010
0000
1000
0000
,
0200
0000
0301
0100
2000
0000
3010
0100
,
0001
0000
0010
0100
0000
0100
0000
1000
0010
0000
1000
0000
0001
0000
0100
0000
,
0020
0000
0000
0000
1030
0000
0100
0010
0001
0000
0100
0000
0010
1000
0001
0000
,
1001
0000
0000
0110
0000
0000
1010
0000
1000
0001
0010
0000
0001
0000
1000
0000
,
0020
0000
0000
0000
0000
0000
0130
0000
0002
0000
0000
0203
0000
0000
1300
0000
,
0200
0000
0000
0000
0000
0000
0310
0000
2000
0000
0000
3200
0000
0000
0301
0000
,
0200
0000
0000
0000
0000
0000
0000
0000
0000
0310
0001
1000
,
0020
0000
0000
2030
0000
0000
3001
0000
0020
0000
0000
0000
0031
0000
0000
0000
,
1000
0100
1000
0100
1000
0100
1000
0100
0010
0100
0010
0100
0010
0100
0010
0100
,
1000
0001
1000
0001
1000
0001
1000
0001
0100
0010
0100
0010
0100
0010
0100
0010
,
1000
0000
0100
0002
0000
0103
2000
0000
3100
0010
0001
0000
1000
0001
0100
0000
,
0010
0000
0000
0110
0000
0000
0101
0000
0002
0000
0000
0000
0013
0000
0000
0000
,
0200
0000
0000
1300
0010
0100
0001
0010
,
0100
0000
0010
0001
1000
0000
0001
0000
,
1000
0010
0001
1000
0100
0000
0001
0010
,
2000
0000
3010
1001
,
1000
0000
0100
0000
0000
0010
0100
0000
1000
0000
0010
0100
0000
0001
0100
0000
,
0001
0000
0010
0000
0000
0100
0010
0000
0001
0000
1000
0010
0000
0100
0001
0000
,
0020
0000
0000
0000
0030
0000
0000
0000
0110
0000
0000
1001
0000
0000
0110
0000
,
1010
0000
0000
0011
0000
0000
1001
0000
1001
0000
1000
0000
0010
0000
0000
0000
,
2000
0000
0100
0000
3001
0000
1000
0100
0020
0000
0001
0000
0130
0000
0010
0001
,
0200
0000
1000
0000
0310
0000
0100
0000
0002
0000
0010
0000
1003
0000
0100
1000
,
0002
0000
0100
0000
0013
0000
0001
1000
0200
0000
1000
0000
0310
0000
0100
1000
,
0020
0000
0031
0020
0000
1030
0020
0000
0130
0010
0100
0000
0001
0000
1000
0000
,
0001
0000
0010
0000
0100
0010
0000
0100
0000
0001
0100
0000
1000
0000
0001
0000
,
1000
0000
0010
0000
0100
0010
0000
0100
0000
1000
0100
0000
0001
0000
1000
0000
,
0001
0010
0001
0010
0100
1000
0100
1000
0001
0100
0001
0100
0010
1000
0010
1000
,
0001
0000
0000
1001
0000
0000
0110
0000
0010
1000
0002
0000
0000
0000
0013
0100
,
1000
0220
0000
0000
,
0000
0000
0000
0000
,
0000
0000
0330
0000
;

//--------------- dance-double - t7r ----------------
#NOTES:
     dance-double:
     t7r:
     Easy:
     7:
     0,0,0,0,0:
00000000
00000000
00000000
00000000
,
00000000
00000000
00000000
00000000
,
00000000
00000000
00000000
00000000
,
00000000
00000000
00000000
00000000
,
00000000
00000000
00000000
00000000
,
00020000
01000000
20030000
00000000
,
31000000
00100000
00001000
00010000
,
00000100
00001000
00000010
00000100
,
00000001
00000000
00000000
00001000
00000000
00001002
00000000
00000000
,
00000023
00000000
00000032
00000000
,
00000103
00001000
00020000
00000000
,
00032000
00000000
00203000
00000000
,
00310000
01000000
00200000
00000000
,
20300000
00000000
32000000
00000000
,
03010000
00001000
00000200
00000000
,
00000301
00000010
00001000
00010000
,
01000000
00000000
00000000
00100000
00000000
01200000
00000000
00000000
,
00310000
00000000
01000000
00000000
,
00100000
00000000
10000000
00000000
,
01000000
00000000
00010000
00000000
,
00001000
00001000
00000010
00000000
,
00000001
00000100
00000010
00000000
,
00001000
00000100
00010000
00000000
,
00001000
00010000
01000000
10000000
,
00010000
00000000
00000000
10000000
00000000
10020000
00000000
00000000
,
10030000
01000000
10000000
01000000
,
00200000
00000000
00301000
00010000
,
00000100
00001000
00000100
00001000
,
00000020
00000000
00000130
00000001
,
00000010
00000100
00000010
00000100
,
00000010
00000001
00000100
00001000
,
00020000
00000000
00031000
00010000
,
00200000
00000000
10300000
00010000
,
20010000
00000000
31000000
00010000
,
01000000
00100000
00100000
00010000
,
00001000
00000010
00000001
00000010
,
00000200
00000000
00000301
00000010
,
00000001
00000100
00000001
00000100
,
00001000
00010000
00001000
00010000
,
01000000
10000000
00100000
01000000
,
00010000
00000000
00110000
00010000
,
00200000
00000000
00301000
00000000
,
00020000
00000000
00030100
00000000
,
00002000
00000000
00003001
00000000
,
00000200
00000000
00000310
00001000
,
00010000
00000000
00200000
00000000
,
00310000
10000000
01000000
00100000
,
01000000
00010000
00001000
00000100
,
00000010
00000000
00000000
00001000
00000000
00001002
00000000
00000000
,
00000023
00000000
00000031
00000100
,
00002000
00000000
00013000
00100000
,
20000000
00000000
00000000
31000000
,
00100000
00001000
00010000
00011000
,
00001000
00010000
00001000
00010000
00001000
00010000
00001000
00010000
,
00001000
00010000
01000000
10000000
,
00100000
01000000
00020000
00000000
,
00130000
00000000
00021000
00030010
,
00000100
00000000
00000000
00000000
,
00000001
00000000
00000000
00000000
,
00000010
00000000
00000000
00000000
,
00000100
00000000
00010000
00012000
,
01003000
00010000
01000000
10000000
,
01000000
00100000
10000000
01000000
,
00020000
00000000
00031000
00000010
,
00000001
00000000
00000101
00000001
,
00002000
00000010
00003002
00000000
,
00000013
00000100
00020000
00000000
,
00032000
00100000
00023000
00000000
,
00031000
00000100
00000020
00000000
,
00001030
00000100
00000001
00000100
,
00000010
00000001
00000100
00001000
,
00010000
00100000
10000000
01000000
,
00100000
00000000
00000000
00001000
00000000
00021000
00000000
00000000
,
00030100
00022000
00000000
00000000
,
00000000
00000000
00000000
00000000
,
00000000
00000000
00033000
00000000
;

//--------------- dance-double - t7r ----------------
#NOTES:
     dance-double:
     t7r:
     Medium:
     11:
     0,0,0,0,0:
00000000
00000000
00000000
00000000
,
00000000
00000000
00000000
00000000
,
00000000
00000000
00000000
00000000
,
00000000
00000000
00000000
00000000
,
00000000
00000000
00000000
00000000
,
00000020
00000000
00000031
00000000
00002000
00000000
00000000
00003100
,
00010000
00000000
00001000
00000000
01000000
00010000
01000000
00000000
,
00100000
00000000
10000000
00000000
00010000
01000000
00010000
00000000
,
10000000
00000000
00000000
01000000
00000000
00000000
00010000
00000000
00000000
00000000
00012000
00000000
00000000
00000000
00000000
00000000
,
00023000
00000000
00030010
00001000
00000020
00000000
00000000
00001030
,
00000100
00000000
00000000
00000010
00000000
00000000
00000001
00000000
00002000
00000000
00000000
00000000
00000000
00000000
00000000
00000000
,
00003002
00000000
00000103
00000010
00000200
00000000
00000000
00000310
,
00001000
00000000
00000000
00000100
00000000
00000000
00010000
00000000
00002000
00000000
00000000
00000000
00013000
00000000
00000000
00000000
,
01000000
10000000
01000000
00000000
20000000
00000000
30100000
00000000
,
02000000
00000000
03010000
00100000
00002000
00000000
00000000
00013000
,
00001000
00000000
00000100
00000000
00000001
00000010
00000100
00000000
,
00010000
00000000
00000000
00001000
00000000
00000000
00010000
00000000
00000000
00000000
00012000
00000000
00000000
00000000
00000000
00000000
,
00013000
00100000
01000000
01000000
,
00200000
00000000
00000000
10300000
00010000
00000000
10000000
00000000
,
01000000
00010000
00010000
00001000
,
00000200
00000000
00000000
00000310
00000100
00000000
00000001
00000000
,
00000010
00000100
00010000
00010100
,
00000100
00010000
00001000
00011000
,
00010000
00100000
10000000
00010000
,
10000000
00000000
00000000
01000000
00000000
00000000
00010000
00000000
00000000
00000000
00021000
00000000
00000000
00000000
00000000
00000000
,
00031000
00000000
00000010
00000000
00000001
00000100
00000001
00000000
,
00000100
00000000
00000010
00000000
00001000
00000100
00010000
00000000
,
00001000
00000000
00010000
00000000
00100000
10000000
00100000
00000000
,
10000000
00000000
01000000
00000000
00010000
00001000
00010000
00000000
,
00001000
00000000
00000100
00000000
00000010
00001000
00000010
00001000
,
00000010
00000000
00001000
00000000
00000100
00010000
00000100
00010000
,
00000200
00000000
00000000
00000000
00010300
00000000
00000000
00000000
00001000
00000000
00000000
00010000
00000000
00000000
01000000
00000000
,
20000000
30100000
01000000
00100000
,
20010000
00000000
00000000
31000000
00100000
00000000
01000000
00010000
,
01000000
00000000
00010000
00000000
00001000
00000100
00000001
00000000
,
00000100
00000010
00000100
00000000
00000002
00000000
00000013
00000100
,
00020000
00000000
00031000
00011000
,
00002000
00000000
00000000
00013000
00100000
00000000
01000000
00010000
,
01000000
00000000
00010000
00000000
10000000
01000000
10000000
00000000
,
00100000
00000000
10000000
01000000
00100000
00000000
00010000
00001000
,
00000010
00000000
00000000
00000100
00000000
00000000
00000010
00000000
00002000
00000000
00000000
00000000
00003001
00000000
00000000
00000000
,
00001001
00000001
00000100
00000000
,
00001000
00010000
00100000
10000000
,
00010000
00100000
01000000
00000000
,
10000000
01000000
00010000
00001000
,
00000100
00000000
00000020
00000000
,
00001030
00000000
00000001
00000000
00000010
00000100
00010000
00000000
,
00001000
00000000
00010000
00000000
01000000
10000000
00010000
00000000
,
01000000
00000000
00000000
00100000
00000000
00000000
01100000
00000000
00000000
00000000
10020000
00000000
00000000
00000000
00000000
00000000
,
20030000
00000000
00000000
00000000
00000000
00000000
30100000
00000000
01000000
00000000
00000000
01000000
00000000
00000000
00010000
00000000
,
00200000
00000000
00000000
00000000
00000000
00000000
00301000
00000000
00010000
00000000
00000000
00010000
00000000
00000000
00001000
00000000
,
00000200
00000000
00000000
00000301
,
00000010
00000000
00000000
00001000
00000000
00000000
00010000
00000000
01000000
00000000
00000000
00000000
10010000
00000000
00000000
00000000
,
10000000
00100000
10000000
00100000
01000000
00010000
01000000
00010000
,
00100000
00001000
00100000
00001000
00010000
00000100
00010000
00000100
,
00001000
00000000
00000000
00001000
00000000
00000000
00002000
00000000
00000000
00000000
00003001
00000000
00000100
00000000
00001000
00000000
,
00010000
00000000
00000000
00011000
00000000
00000000
00001000
00000000
00200000
00000000
00000000
00000000
00310000
00000000
00000000
00000000
,
20000000
00000000
00100000
30010000
,
01000000
00010000
00100000
00001000
,
00010000
00001000
00000100
00000001
,
00000020
00000000
00000130
00001001
,
00000001
00000100
00000000
00000001
00000010
00000100
00000010
00000000
,
00000100
00010000
00000000
00001000
01000000
00010000
00100000
00000000
,
00220000
00000000
00000000
00000000
00330000
00000000
00000000
00000000
10000000
00000000
00000000
10100000
00000000
00000000
00010000
00000000
,
01000000
00000000
00000000
01010000
00000000
00000000
00001000
00000000
00010000
00000000
00000000
00000000
00011000
00000000
00000000
00000000
,
00020000
00000000
00030100
00001000
00000020
00000000
00000000
00000130
,
00000001
00000000
00000000
00000010
00000000
00000000
00000100
00000000
00000000
00020000
00000000
00000000
00031000
00000000
00000000
00000000
,
00020000
00000000
01030000
10000000
00200000
00000000
00000000
00310000
,
00100000
00000000
00000000
20000000
00000000
00000000
31000000
00000000
00010000
00000000
00000000
00000000
00011000
00000000
00000000
00000000
,
00001000
00000100
00001000
00000100
00000001
00001000
00000100
00000000
,
00001000
00000100
00001000
00000100
00010000
00001000
00100000
00000000
,
00001000
00010000
00001000
00010000
01000000
10000000
00010000
00000000
,
01000000
00000000
00000000
00001000
00000000
00000000
00011000
00000000
00000000
00000000
00010200
00000000
00000000
00000000
00000000
00000000
,
00000310
00002002
00000000
00000000
,
00000000
00000000
00000000
00000000
,
00000000
00000000
00003003
00000000
;

//--------------- dance-double - t7r ----------------
#NOTES:
     dance-double:
     t7r:
     Hard:
     15:
     0,0,0,0,0:
00000000
00000000
00000000
00000000
,
00000000
00000000
00000000
00000000
,
00000000
00000000
00000000
00000000
,
00000000
00000000
00000000
00000000
,
00000000
00000000
00000000
00000000
,
00010000
00000000
00000000
00010000
00100000
00000000
00010000
00000000
20000000
00000000
00000000
00000000
31000000
00000000
00000000
00000000
,
10000000
00000000
00100000
01000000
00000000
00100000
10000000
00000000
01000000
00000000
00010000
00001000
00000000
00010000
00000100
00000000
,
00001000
00000000
00000010
00000000
00000001
00000000
00000010
00000000
00001000
00000000
00000100
00000000
00010000
00001000
00010000
00000000
,
00001000
00000000
00000000
01001000
00000000
00000000
01010000
00000000
00010000
10000000
00020000
00000000
00000000
00000000
00000000
00000000
,
20030000
00000000
00000000
00000000
31000000
00000000
10000000
00010000
20000000
00000000
00000000
00000000
30010000
00000000
01000000
00000000
,
00001000
00000000
00100000
00001000
00000000
00010000
00001000
00000000
00000200
00000000
00000000
00000000
00000301
00000000
00001000
00000000
,
00000002
00000000
00000000
00000000
00000013
00000000
00000001
00000100
00000002
00000000
00000000
00000000
00000103
00000000
00001000
00000000
,
00010000
00000000
00100000
01000000
00000000
00100000
10000000
00000000
00020000
00000000
00000000
00000000
00130000
00000000
00000000
00000000
,
00010000
00000000
10000000
00000000
01000000
00000000
00100000
00001000
00000000
00010000
00001000
00000000
00010000
00000000
00000100
00000000
,
00001000
00000000
00000010
00000000
00000100
00000000
00000010
00001000
00000000
00000001
00001000
00000000
00000001
00000000
00000010
00000000
,
00001000
00000000
00010000
00000000
01000000
00000000
10000000
00000000
00010000
00000000
01000000
00010000
00000000
10000000
00010000
00000000
,
10010000
00000000
00000000
11000000
00000000
00000000
01100000
00000000
00100000
00000000
00002000
00000000
00000000
00000000
00000000
00000000
,
00023000
00000000
00031000
00000000
00000100
00000001
00001000
00000000
,
00000002
00000000
00000000
00000013
00001000
00000000
00010000
01000000
,
00100000
00000000
00010000
00000000
00001000
00000010
00001000
00000000
,
00000010
00000000
00000000
00000001
00000000
00000000
00000010
00000000
00000100
00000000
00000000
00000000
00000010
00000000
00000000
00000000
,
00001000
00000000
00000100
00010000
00000000
00001000
00010000
00000000
00002000
00000000
00000000
00000000
01003000
00000000
00010000
00000000
,
10000000
00000000
01000000
00100000
00000000
01000000
00010000
00000000
00002000
00000000
00000000
00000000
00003100
00000000
00000001
00000000
,
00001000
00000000
00000000
00000100
00000000
00000000
00010000
00000000
00001000
00000000
00000000
01000000
00010000
00000000
10000000
00000000
,
11000000
00000000
00000000
01100000
00000000
00000000
00101000
00000000
00000000
00000000
00021000
00000000
00000000
00000000
00000000
00000000
,
00031000
00000000
00000100
00000000
00000010
00000000
00001000
00000100
00000000
00001000
00000100
00000000
00000001
00000000
00000100
00000000
,
00000010
00000001
00000100
00001000
00010000
00100000
01200000
00000000
,
00310000
00000000
00100000
00000000
10000000
00000000
01000000
00010000
00000000
01000000
00010000
00000000
00001000
00000000
00000010
00000000
,
00000100
00000000
00001000
00000000
00000010
00000000
00000100
00000000
00001000
00010000
00001000
00000000
00021000
00000000
00000000
00000000
,
00031000
00000000
00010000
00000000
01000000
00000000
00100000
00010000
00000000
00100000
00010000
00000000
10000000
00000000
00100000
00000000
,
00010000
00000000
00001000
00000000
00000100
00000000
00000010
00001000
00000000
00000010
00001000
00000000
00000001
00000000
00000010
00000000
,
00000210
00000000
00000000
00000000
00010300
00000000
00001000
00000000
01001000
00000000
00000000
01100000
00000000
00000000
10000000
00000000
,
00020000
00000000
00000000
00000000
00000000
00000000
10030000
00010000
20000000
00000000
00000000
00000000
31000000
00000000
00000000
00000000
,
10000000
00000000
00100000
00000000
01000000
00000000
10000000
00000000
01000000
00000000
00010000
00100000
00001000
00000000
00010000
00000000
,
00001000
00000100
00000001
00000010
00001000
00010000
01000000
10000000
,
00010000
00000000
00100000
00000000
10000000
00000000
00100000
00000000
00001000
00000000
00010000
00000010
00000000
00000010
00000100
00000000
,
00000010
00000000
00001000
00000000
00000001
00000000
00000100
00000000
00000001
00000010
00000100
00000000
00000120
00000000
00000000
00000000
,
00000031
00000000
00000100
00000000
00000010
00000000
00001000
00000000
00000100
00000000
00010000
00001000
00000100
00000000
00000001
00000000
,
00000010
00001000
00010000
01000000
00100000
00010000
10000000
00100000
,
00010000
00000000
00001000
00000000
00000100
00000000
00000010
00000000
00001000
00000000
00000001
00000100
00000000
00001000
00000100
00000000
,
00000110
00000000
00000000
00010010
00000000
00000000
00011000
00000000
00001000
00000000
00010000
00001000
00010000
00000000
00000000
00000000
,
01000000
10000000
00100000
01000000
,
00100000
10000000
01000000
00010000
,
00001000
00000010
00000100
00001000
,
00000010
00000001
00000020
00001030
,
00000100
00000000
00000000
00010000
00000100
00010000
00001000
00000000
00020000
00000000
00000000
00000000
00000000
00000000
01030000
00000000
,
10000000
00000000
00100000
01000000
00000000
00100000
10000000
00000000
01000000
00000000
00100000
00001000
00100000
00001000
00100000
00000000
,
00001000
00000000
00000000
00000000
00010000
00000000
00001000
00000000
00000100
00000000
00000001
00000000
00000010
00000100
00000010
00000000
,
00000110
00000000
00000000
00000011
00000000
00000000
00001001
00000000
00000001
00000100
00000010
00000000
00001000
00000000
00000100
00000000
,
00020000
00000000
00000000
00000000
00000000
00000000
00031000
00000000
00010000
00000000
00100000
01000000
00000000
01000000
00010000
00000000
,
00200000
00000000
00000000
00000000
00000000
00000000
10300000
00000000
00100000
00000000
00001000
00010000
00000000
00010000
00001000
00000000
,
00000200
00000000
00000000
00000000
00000000
00000000
00000000
00000000
00000000
00000301
00000010
00000100
,
00000020
00000000
00000000
00000032
00000000
00000000
00000103
00000000
00001000
00000000
00010000
00000000
00011000
00000000
00000000
00000000
,
00001000
01000000
00001000
01000000
00001000
00000000
00010000
00000000
01000000
10000000
01000000
10000000
01000000
00000000
00100000
00000000
,
00001000
00010000
00001000
00010000
00001000
00000000
00000100
00000000
00000010
00000100
00000010
00000100
00000010
00000000
00001000
00000000
,
00000001
00000000
00000010
00001000
00000000
00000010
00000002
00000000
00000000
00000000
00000103
00000000
00001000
00010000
00001000
00000000
,
00011000
00000000
00000000
01010000
00000000
00000000
01100000
00000000
00200000
00000000
00000000
00000000
10300000
00000000
00000000
00000000
,
02000000
00000000
03010000
00001000
,
00000100
00000010
00000010
00001000
,
00010000
00000000
00100000
00000000
00001000
00000000
00010000
00000010
,
00000200
00000000
00000301
00000011
,
00000001
00000000
00000100
00000000
00000000
00000001
00000010
00000000
00000100
00000000
00010000
00000100
00001000
00000000
00010000
00000000
,
01000000
00000000
00100000
00000000
00000000
10000000
01000000
00000000
00100000
00000000
00001000
00010000
00000010
00000000
00001000
00000000
,
00000200
00000000
00000000
00000000
00001300
00000000
00000000
00000000
00000100
00000000
00000000
00010100
00000000
00000000
00001000
00000000
,
00011000
00000000
00000000
00011000
00000000
00000000
00010000
00000000
01000000
10000000
00010000
00000000
10000000
00000000
00000000
00000000
,
00100000
00000000
10000000
00000000
00100000
00000000
01000000
00010000
00200000
00000000
00001000
00000000
00310000
00000000
00100000
00001000
,
00100000
00000000
00001000
00010000
00000000
00010000
00001000
00000000
00000020
00000000
00000001
00000000
00000130
00000000
00000010
00000001
,
00000010
00000000
00000001
00000000
00000100
00000000
00000010
00001000
00000200
00000000
00010000
00000000
00001300
00000000
00000100
00010000
,
00001000
00000000
00010000
01000000
00000000
01000000
10000000
00000000
00100000
00000000
01000000
00000000
01100000
00000000
00000000
00000000
,
10000000
01000000
10000000
01000000
00100000
00000000
00010000
00100000
00002000
00000000
00010000
00000000
01003000
00000000
00001000
00010000
,
00000100
00000000
00001000
00000010
00000000
00000010
00000100
00000000
00000002
00000000
00000010
00000000
00001003
00000000
00000001
00000100
,
00000010
00001000
00000010
00000000
00001000
00000100
00001000
00000000
00000100
00010000
00000100
00000000
00010000
00001000
00010000
00000000
,
00011000
00000000
00000000
01001000
00000000
00000000
01100000
00000000
00100000
10000000
00020000
00000000
00000000
00000000
10030000
01000000
,
00010000
00022000
00000000
00000000
,
00000000
00000000
00000000
00000000
,
00000000
00000000
00033000
00000000
;
