#TITLE:Parallax;
#SUBTITLE:;
#ARTIST:零 -zero- × BEMANI Sound Team "HuΣeR";
#TITLETRANSLIT:;
#SUBTITLETRANSLIT:;
#ARTISTTRANSLIT:;
#GENRE:;
#CREDIT:;
#MUSIC:Parallax.ogg;
#BANNER:parallax.png;
#BACKGROUND:parallax-bg.png;
#CDTITLE:;
#SAMPLESTART:61.948;
#SAMPLELENGTH:19.200;
#SELECTABLE:YES;
#OFFSET:0.052;
#BPMS:0.000=150.000;
#STOPS:;
#BGCHANGES:;
#FGCHANGES:;

//--------------- dance-single - kaya ----------------
#NOTES:
     dance-single:
     kaya:
     Beginner:
     7:
     0,0,0,0,0:
0000
0000
0000
0000
,
0000
0000
0000
0000
,
0000
0000
0000
0000
,
0000
0000
0000
0000
,
0000
0000
0010
1001
,
1000
0000
1000
0000
0010
0100
0010
0000
,
1000
0000
1000
0000
0001
0100
0001
0000
,
0010
0000
0010
0000
0001
1000
0001
0000
,
0010
0100
1000
0001
,
0000
0000
0000
1000
,
0100
0000
0000
0001
,
0100
0000
0000
1000
,
0010
0010
0100
0100
,
0001
0000
1001
0000
0001
1000
0100
0000
,
0010
0000
0010
0000
0100
1000
0010
0000
,
0100
0100
0001
0001
,
1000
0100
0001
0100
,
0010
0000
0010
0000
0001
1000
0001
0000
,
0100
0000
0100
0000
0001
1000
0001
0000
,
1000
0000
0010
0000
0100
0001
0100
0000
,
1000
0100
0001
0010
,
0100
0000
0100
0000
1000
0001
1000
0000
,
0100
0000
0100
0000
0010
0100
0010
0000
,
0001
0000
0001
0000
0100
0010
0100
0000
,
0010
0001
1000
0010
,
0110
0000
0001
0000
,
0110
0000
1000
0000
,
0110
0000
0001
0000
,
0110
0000
1000
0000
,
0001
0001
0100
0100
,
0010
0000
0010
0000
1000
0001
1000
0000
,
1000
1000
0100
0100
,
0010
0000
0010
0000
0001
1000
0001
0000
,
0010
0100
1000
0001
,
0010
1000
0010
0001
,
0100
1000
0100
0001
,
1000
0001
1000
0000
0020
0000
0100
0000
,
0130
0000
0000
0000
,
1000
0100
0010
0001
1000
0100
0000
0000
,
1000
1000
0001
0001
,
0100
0000
0100
0000
0010
0100
0010
0000
,
1000
1000
0001
0001
,
1001
0000
0000
1001
0000
0000
1000
0000
,
0001
0001
0010
0010
,
0100
0100
1000
1000
,
0001
0001
0100
0100
,
0010
1000
0010
0000
0100
0001
0100
0000
,
0001
0010
0100
0010
,
0001
0010
0100
1000
,
0100
0010
0100
1000
,
0001
0000
1000
0000
0001
1000
0001
0000
,
0100
0010
1000
0001
,
0010
0000
0100
0000
0010
0100
0010
0000
,
1001
0000
0110
0000
,
1001
0000
0000
0000
0000
0000
1000
0001
,
0100
0100
0010
0010
,
1000
1000
0001
0001
,
1001
0100
0010
0100
,
1001
0100
0010
0100
,
1001
0010
0100
0010
,
1001
0010
0100
0010
,
1000
1000
0100
0100
,
0010
0010
0001
0001
,
1000
1000
0010
0010
,
1001
0110
1001
0110
;

//--------------- dance-single - kaya ----------------
#NOTES:
     dance-single:
     kaya:
     Easy:
     11:
     0,0,0,0,0:
0000
0000
0000
0000
,
0000
0000
0000
0000
,
0000
0000
0000
0000
,
0000
0000
0000
0000
,
0000
0000
0110
1001
,
1000
0100
0001
0100
1000
0010
1000
0010
,
0100
0001
0100
0001
1000
0001
0100
0001
,
1000
0000
0000
0100
0000
0000
0020
0000
0000
0000
0031
0000
1000
0000
0001
0000
,
0200
0302
2003
3020
,
0030
0000
0000
0000
,
1001
0000
0000
0000
,
0110
0000
0000
0000
,
1001
0000
0000
0000
,
1000
0000
0001
0000
0010
0001
0100
0000
,
1000
0100
0010
0000
0200
0000
0301
0000
,
0010
0001
1000
0000
0100
1000
0001
0000
,
0010
1000
0010
0001
0100
1000
0100
0001
,
2000
0000
3100
0000
0100
0010
0001
0000
,
0002
0000
0103
0000
0100
0010
1000
0000
,
0002
0000
0013
0000
0010
0100
1000
0000
,
1000
0010
0001
0010
2000
0000
3001
0000
,
0020
0000
0130
0000
0001
0100
0010
0000
,
0200
0000
1300
0000
0010
0100
1000
0000
,
0001
0001
1000
0000
0100
0010
1000
0001
,
0010
0100
1000
0001
2000
0000
3001
0000
,
0110
0001
0110
1000
,
0110
0000
0001
0000
1000
0010
0100
0001
,
1001
0100
1001
0010
,
1001
0000
0110
0000
2002
3003
1000
1000
,
0001
0010
0100
0010
,
0001
0000
1000
0010
0100
0000
0001
0000
,
1001
1000
0100
0010
,
0001
0000
0100
0010
1000
0000
1001
0000
,
0001
0001
0010
0010
,
0100
1000
0100
0000
1000
0010
1000
0000
,
0001
0100
0001
0100
0010
1000
0010
1000
,
0001
0010
0100
0020
0000
1000
0031
0000
,
0000
0000
0000
0000
,
1000
0100
0001
0100
1000
0010
0001
0000
,
0110
0000
1000
0001
2000
0000
0100
0000
,
0010
0001
0010
3100
,
0110
0000
0001
1000
0002
0000
0100
0003
,
0110
0001
0100
1000
0100
0001
0110
0000
,
1001
0000
1000
0200
0001
0000
0010
0000
,
1300
0010
1000
0000
0001
0100
0001
0000
,
0110
0000
0001
0200
1000
0000
0010
0000
,
0301
0010
0001
0010
0100
1000
0100
1000
,
0002
0010
0010
0010
,
2003
0100
0100
0100
,
3001
1000
0100
0010
,
0110
0000
0001
0001
0000
1000
1000
0000
,
0010
1000
0010
0000
0100
0001
0100
0000
,
0001
0010
0100
1000
0010
0100
0001
0000
,
2000
0000
3200
0000
,
0310
0000
0000
1001
0000
0000
0001
1000
,
0020
0000
0032
0000
,
2003
0000
3100
0110
,
1001
1100
1001
0101
,
1001
0000
1100
0000
0010
0001
0100
0000
,
1001
0011
1001
1010
,
1001
0000
0011
0000
0100
1000
0010
0000
,
1001
1100
1001
0011
,
1001
0000
0101
0000
1001
0010
1010
0000
,
0110
0101
0110
1010
,
1100
0100
0011
0000
0110
0000
1001
0000
;

//--------------- dance-single - kaya ----------------
#NOTES:
     dance-single:
     kaya:
     Medium:
     13:
     0,0,0,0,0:
0000
0000
0000
0000
,
0000
0000
0000
0000
,
0000
0000
0000
0000
,
0000
0000
0000
0000
,
0000
0000
0000
0000
0000
0000
0001
1000
0020
0000
0030
0000
0110
0000
0000
0000
,
1000
0100
0001
0100
1000
0010
0001
1000
,
0100
0010
0100
0001
0010
0100
1000
0001
,
1100
0000
0000
0110
0000
0000
0022
0000
0033
0000
1000
0000
0001
0000
0100
0000
,
0010
0010
1000
1000
0001
0001
0100
0100
,
0010
0000
0000
0000
0000
0000
0000
0000
0000
0000
1000
0000
0000
0100
0000
0000
,
0010
0000
0000
0000
0000
0000
0000
0000
0000
0000
0001
0000
0000
0100
0000
0000
,
0010
0000
0000
0000
0000
0000
0000
0000
0000
0000
1000
0000
0000
0010
0000
0000
,
2000
3002
0023
0230
,
0301
0000
0000
0100
1000
0000
0010
0000
0001
0000
0000
0010
0000
0000
1000
0000
,
0100
0010
0000
0000
0001
0000
0001
1000
0000
0000
0010
0000
0100
0000
0001
0000
,
1000
0100
0000
0000
0010
0000
0100
0000
0001
0000
0100
0000
0010
0000
0100
0000
,
2000
3010
0002
0013
2000
3010
0002
0013
,
1000
0000
0100
0000
0010
0001
0000
0010
0001
0000
0100
0000
0100
0000
0010
0000
,
1000
0000
0010
0000
0100
0001
0000
0100
0001
0000
0010
0000
0100
0000
0100
0000
,
1000
0000
0001
0000
0100
0001
0000
0100
0001
0000
1000
0000
0010
0000
0001
0000
,
1000
0100
0001
0010
1000
0010
0001
0100
,
0001
0000
0010
0000
0100
0010
0000
0100
0010
0000
0100
0000
1000
0000
1000
0000
,
0001
0000
0100
0000
0010
1000
0000
0010
1000
0000
0001
0000
1000
0000
1000
0000
,
0100
0010
0100
0000
0010
0001
0000
0010
0001
0000
0100
0000
1000
0000
0100
0000
,
0001
0000
0010
0000
1000
0000
0010
0000
0002
0000
0000
1003
0000
0000
0010
0000
,
0100
0000
0100
0000
0001
0010
0000
0100
0000
0000
0100
0000
1000
0010
0000
0100
,
0000
0000
0100
0000
0001
0010
0000
2000
0000
0000
3010
0000
0001
0000
1000
0000
,
0010
0000
0010
0000
0100
0001
0000
0010
0000
0000
0010
0000
0100
1000
0000
0010
,
0000
0000
0010
0000
0001
0010
0000
2000
0000
0000
3001
0000
0110
0000
0000
0000
,
1000
0100
1000
0100
0010
0001
0100
0010
,
0001
0010
1000
0001
0010
0100
0010
0001
,
0100
0001
0100
0001
0010
0001
0100
0010
,
1000
0001
0010
0100
1000
0010
0100
0001
,
1000
0010
0000
1000
0010
0000
0100
0001
0000
0100
0001
0000
1000
0000
0001
0000
,
0010
0010
0100
0100
1000
1000
0001
0001
,
0100
0010
1000
0000
0100
0010
0001
0000
1000
0000
0010
0000
0100
0000
0001
0000
,
1000
0001
0000
1000
0001
0000
0220
0000
0000
0000
0330
0000
0100
0010
0100
0010
,
0000
0000
0000
0000
,
1000
0001
1000
0000
0010
0100
0010
0000
0100
0001
0100
0000
0001
1000
0001
1000
,
0002
0000
0000
0010
0000
0000
1000
0000
0000
0000
2000
0000
0000
0000
3003
0000
,
0001
0100
1000
0100
0001
1000
0010
0010
,
2000
0000
0000
0100
0000
0000
0001
0000
0000
0000
0002
0000
3003
0000
0010
0000
,
0110
0000
1000
0000
1000
0010
1000
0000
0001
0000
0100
0000
0010
0000
1000
0000
,
0002
0000
0000
0010
0000
0000
0100
0000
0000
0000
2000
0000
3003
0000
0001
0000
,
0100
0001
1000
0010
0001
0010
0100
0001
,
0020
0000
0000
1000
0000
0000
0001
0000
0130
0000
1000
0000
0010
0000
0001
0000
,
1000
0000
0100
0000
0001
0000
1000
0000
0001
1000
0001
1000
0001
1000
0001
1000
,
0002
0000
0000
0000
0000
2003
0000
0000
,
3020
0000
0000
0000
0000
0000
0000
0000
0230
0000
0000
0302
0000
0000
2003
0000
,
3200
0000
0000
0320
0000
0000
0032
0000
2003
0000
3020
0000
0230
0000
0302
0000
,
1003
0000
0010
1000
0000
0000
0001
1000
0001
0000
0000
0000
0110
0000
0000
0000
,
0001
0010
0100
1000
0100
0010
0001
1000
,
0010
0000
0100
0000
0001
0000
1000
0000
0010
0100
0010
1000
0001
0000
0000
0000
,
2200
0000
0000
3300
0022
0000
0000
0033
,
2020
0000
0000
0000
3030
0000
0202
0000
0000
0000
0303
0000
1000
0001
1000
0001
,
2000
0000
0000
0000
0000
0000
0000
0000
3010
0000
0000
0100
0000
0000
0001
0000
,
0020
0000
0000
0000
0000
0000
0000
0000
0130
0000
0000
0110
0000
0000
0001
1000
,
0001
0000
0001
0000
0010
0000
0010
0100
0000
0000
1000
0000
0010
0000
0010
0100
,
0000
0000
0001
0000
0010
0000
0010
2000
0000
0000
3010
0000
0001
0000
1000
0000
,
0100
0000
0100
0000
1000
0000
0010
0100
0000
0000
0100
0000
0001
0000
0010
0100
,
0000
0000
0100
0000
0001
0000
0100
2000
0000
0000
0000
0000
0002
0000
3003
0000
,
1000
0000
1000
0000
0010
0100
0010
0100
0001
0000
0001
0000
0010
0100
0010
0100
,
1000
0000
1000
0000
0100
0010
0100
0010
0001
0000
0000
0000
1001
0000
0000
0000
,
0001
0000
0100
0000
0010
1000
0010
1000
0001
0000
0001
0000
0010
0001
0010
0001
,
1000
0000
1000
0000
0010
1000
0001
0100
0010
0000
0000
0000
1001
0000
0000
0000
;

//--------------- dance-single - kaya ----------------
#NOTES:
     dance-single:
     kaya:
     Hard:
     15:
     0,0,0,0,0:
0000
0000
0000
0000
,
0000
0000
0000
0000
,
0000
0000
0000
0000
,
0000
0000
0000
0000
,
0000
0000
0000
0000
0000
0000
0001
1000
0001
0000
0010
0000
0110
0000
0000
0000
,
1001
0000
0000
0001
0010
0000
0100
0010
0100
0000
0001
0000
0100
0000
1000
0000
,
0010
0000
0100
0000
1000
0000
0100
0010
0100
0000
0001
0000
0010
0000
0100
0000
,
1001
0000
0000
0110
0000
0000
2002
0000
3003
0000
1000
0000
0010
0000
0100
0000
,
0002
0013
0200
0310
2000
3010
0200
0310
,
1001
0000
0000
0000
0000
0000
0000
0000
0000
0000
0010
0000
0000
0001
0000
0001
,
1000
0000
0000
0000
0000
0000
0000
0000
0000
0000
0010
0000
0000
1000
0000
1000
,
0001
0000
0000
0000
0000
0000
0000
0000
0000
0000
0100
0000
0000
0001
0000
0001
,
2000
3200
0320
0032
,
1003
0000
0000
0010
0100
0000
0001
0000
2000
0000
0000
0100
0000
0000
3010
0000
,
1000
0001
0000
0000
1010
0000
0010
0200
0000
0000
1000
0000
0010
0000
0301
0000
,
1000
0001
1000
0000
0001
0000
0010
0000
2000
0000
3010
0000
0200
0000
0310
0000
,
0002
0103
2000
3100
0002
0013
2000
3010
,
0001
1000
0100
0000
0001
0100
0000
0100
1000
0000
0010
0000
0001
0000
0010
0000
,
1000
0001
0100
0000
1000
0100
0000
0100
0001
0000
0010
0000
1000
0000
0010
0000
,
0001
1000
0001
0000
0100
0010
0000
0010
1000
0000
0001
0000
0100
0000
0010
0000
,
2000
3100
0020
0031
2000
3100
0020
0031
,
1000
0010
0100
0000
1000
0100
0000
0100
0010
0000
1000
0000
0001
0000
1000
0000
,
0001
0010
0100
0000
0001
0100
0000
0100
0010
0000
0001
0000
1000
0000
0001
0000
,
0100
0001
1000
0000
0010
1000
0000
0001
0100
0000
0010
0000
1000
0000
0001
0000
,
1000
0100
0010
0001
1000
0010
0100
0001
2000
0000
0000
3001
0000
0000
0010
0100
,
0010
0000
1001
0000
1000
0010
1000
0001
0000
0000
1001
0000
0001
0010
0001
1000
,
0000
0000
1001
0000
1000
0010
0100
0002
0000
0000
1003
0000
0100
0000
0010
0000
,
0001
0000
1001
0000
0001
0100
0001
1000
0000
0000
1001
0000
1000
0100
1000
0001
,
0000
0000
1001
0000
0001
1000
0010
0200
0000
0000
0310
0000
1001
0000
0000
0000
,
2000
0000
0000
0000
3100
0000
0000
0100
0001
0000
1000
0000
0010
0000
0001
0000
,
0100
0000
1000
0000
0100
0000
0010
0100
0010
0000
1000
0000
0100
0000
0010
0000
,
0002
0000
0000
0000
0103
0000
0000
0100
1000
0000
0001
0000
0010
0000
1000
0000
,
0100
0000
0010
0000
0001
0000
1000
0001
1000
0000
0010
0000
0100
0000
0001
0000
,
1000
0100
0000
1000
0100
0000
0010
0001
0000
0010
0001
0000
1000
0000
0001
0000
,
1000
0010
1000
0000
0001
0100
0001
0000
1000
0100
1000
0000
0001
0010
0001
0000
,
1000
0100
0010
0001
0010
0100
1000
0000
0001
1000
0001
0000
0010
0100
0010
0000
,
0001
0000
0100
0010
1000
0000
0220
0000
0330
0000
1000
0001
1000
0001
1000
0001
,
0000
0000
0000
0000
,
1000
0100
1000
0010
0100
0001
0010
0001
0100
0010
1000
0100
1000
0000
0000
0000
,
1001
0000
0000
0201
0000
0000
1300
0000
0100
0000
0001
0000
0100
0000
1000
0000
,
0100
0010
0100
0000
0001
0000
1000
0000
0100
0010
0100
0000
1000
0000
0001
0000
,
1001
0000
0000
1200
0000
0000
0301
0000
0100
0000
1000
0000
0100
0000
0010
0001
,
0010
0000
0100
1000
0100
0010
0100
0000
0010
0001
0010
0100
0010
0000
0001
0000
,
1001
0000
0000
1020
0000
0000
0031
0000
0010
0000
1000
0000
0100
0000
0010
0001
,
1000
0010
1000
0001
0010
0001
1000
0010
,
0110
0000
0000
0021
0000
0000
1030
0000
0010
0000
0001
0010
0100
0000
1000
0010
,
0100
0000
0001
0010
0100
0000
1000
0100
0010
0000
0001
0000
1000
0000
0010
0000
,
0101
0000
0000
1100
0000
0000
0011
0000
1000
0000
0001
0000
0001
0000
0010
0000
,
2000
0000
0000
0000
3000
0000
0000
0000
0001
0000
0000
0001
0100
0000
1000
0000
,
1010
0000
0000
0011
0000
0000
1001
0000
0000
0000
1000
0000
0010
0100
0010
0100
,
0002
1000
1003
0020
0100
0130
1001
0000
,
0001
0000
0010
0000
0100
0010
0001
0000
1000
0000
0010
0000
0100
0010
1000
0000
,
0001
0000
0010
0100
1000
0010
0100
0001
1000
0001
1000
0001
0100
0000
0000
0000
,
0011
0000
0000
0010
0000
0000
0100
0000
2020
0000
3030
0000
0001
0000
0000
0000
,
1100
0000
0000
0110
0000
0000
0022
0000
0000
0000
0033
0000
1000
0100
0010
0001
,
2000
0000
0000
0000
0000
0000
0000
0000
3020
0000
0000
0001
0000
0000
0130
0000
,
2000
0000
0000
0000
0000
0000
0000
0000
0001
0000
0000
0010
0000
0000
3100
0010
,
0001
0000
1001
0000
0001
0100
0001
1000
0000
0000
1001
0000
1000
0100
1000
0001
,
0000
0000
1001
0000
0001
0100
0001
2000
0000
0000
3010
0100
0001
0000
0010
0000
,
0100
0000
0110
0000
0100
0010
0100
1000
0000
0000
0110
0000
0100
0010
0100
0001
,
0000
0000
0110
0000
1000
0100
0010
0001
0000
0000
2002
0000
0000
0000
3003
0000
,
0001
0000
1001
0000
0001
0100
0001
0100
0010
0000
1010
0000
1000
0100
1000
0100
,
0010
0000
0011
0000
0001
1000
0010
0100
0002
0000
1003
0010
2000
0000
3010
0000
,
0100
0000
0110
0000
0010
1000
0010
1000
0100
0000
0110
0000
0010
0001
0010
0001
,
0100
0000
0110
0000
1000
0100
0001
0100
1000
0000
0000
0000
1001
0000
0000
0000
;

//--------------- dance-single - kaya ----------------
#NOTES:
     dance-single:
     kaya:
     Challenge:
     17:
     0,0,0,0,0:
0000
0000
0000
0000
,
0000
0000
0000
0000
,
0000
0000
0000
0000
,
0000
0000
0000
0000
,
0000
0000
0000
0000
0000
0000
0001
1000
0001
0000
0010
0000
0110
0000
0000
0000
,
1000
0001
0000
1000
0001
0000
1000
0100
0010
0001
0010
0100
1000
0001
1000
0001
,
0100
0010
0100
0010
1000
0001
0100
0010
1000
0000
0001
0000
0010
0000
0100
0000
,
1001
0000
0000
0110
0000
0000
2002
0000
3003
0000
1000
0000
0010
0000
0100
0000
,
0001
1000
0002
0000
0013
0100
2000
0000
3001
0100
0020
0000
1030
0001
0200
0000
,
0301
0000
0000
0000
0000
0000
0000
0000
0000
0000
0001
0000
0000
0001
0010
0001
,
1000
0000
0000
0000
0000
0000
0000
0000
0000
0000
1000
0000
0000
1000
0010
1000
,
0001
0000
0000
0000
0000
0000
0000
0000
0000
0000
0001
0000
0000
0001
0100
0001
,
2000
3200
0320
0032
,
1003
0000
0000
0010
0100
0000
1000
0000
0200
0000
0000
0010
0000
0000
0301
0000
,
1000
0001
0000
0000
0011
0000
0010
0200
0000
0000
0001
0000
0010
0000
1300
0000
,
0001
1000
0010
0000
0100
0000
0010
0000
0002
0000
0013
0000
2000
0000
3100
0000
,
0010
0001
0200
0000
0310
1000
0002
0000
0013
0100
2000
0000
3010
0100
0002
0000
,
1003
0010
1000
0000
0010
0100
0000
1000
0100
0000
0100
0001
1000
0100
0010
0000
,
0001
0010
0001
0000
0010
0100
0000
0001
0100
0000
0100
1000
0001
0100
0010
0000
,
1000
0000
1000
0000
0001
0100
0000
0010
0100
0000
0001
1000
0010
0000
0100
0000
,
0001
0010
0001
0010
0100
1000
0001
0100
0020
0000
0000
0031
1000
0000
0100
0000
,
0001
0010
0100
0000
0001
0100
0000
0100
0010
0000
0001
1000
0010
0100
0001
0000
,
1000
0010
0100
0000
1000
0100
0000
0100
0010
0000
1000
0001
0010
0100
1000
0000
,
0100
0010
0100
0000
0010
0001
0000
0010
0100
0000
1000
0001
1000
0000
0010
0000
,
0001
0010
0100
0010
1000
0001
1000
0100
0020
0000
0000
0031
0000
0000
1000
0001
,
0100
0000
0110
0000
0100
1000
0100
0020
0000
0030
1100
0000
0100
0001
0100
0020
,
0000
0030
0101
0000
0100
1000
0100
0020
0000
0030
1000
0000
0100
0010
0001
0000
,
0100
0000
0110
0000
0010
0001
0010
0200
0000
0300
0011
0000
0010
1000
0010
0200
,
0000
0300
1010
0000
0010
0001
0010
2000
0000
0000
3100
0000
0010
0001
0100
0010
,
2000
0000
0000
0000
3010
0000
0100
0001
0100
0000
1000
0000
0100
0000
0010
0000
,
1000
0000
0100
0000
0010
0000
0001
1000
0001
0000
0010
0000
0100
0000
1000
0000
,
0002
0000
0000
0000
0013
0000
0100
0001
0100
0000
0010
0000
0001
0000
1000
0000
,
0010
0000
0100
0000
0001
0000
1000
0001
1000
0000
0010
0000
0100
0010
0100
0001
,
1000
0010
0000
0010
0100
0000
0100
0001
0000
0001
1000
0000
0100
0000
0010
0000
,
0001
0010
0100
0000
0001
0100
1000
0000
1000
0010
0100
0000
1000
0100
0001
0000
,
1000
0100
0010
0001
0010
0100
1000
0001
1000
0010
1000
0000
0001
0100
0001
0000
,
1000
0010
0100
0001
0010
0000
0012
0000
0000
0000
1003
0010
1000
0010
1000
0010
,
0100
0000
0000
0000
,
0001
0010
0100
1000
0100
0001
0100
1000
0010
0100
0001
1000
0001
0000
0000
0000
,
2000
0000
3001
0100
0010
0000
0002
0000
0013
0100
0010
0000
1000
0100
0010
0000
,
0010
0100
0010
0000
0001
0100
0010
0000
0010
0100
0010
0000
1000
0100
0010
0000
,
0002
0000
1003
0010
0100
0000
2000
0000
3100
0010
1000
0000
0001
0010
0100
0010
,
0002
0000
1003
0010
0100
0010
0001
0000
0001
0010
0100
0010
1000
0000
0001
0000
,
1000
0000
0001
0010
0100
0000
0002
0000
0103
0010
0100
0000
1000
0010
0100
0000
,
0100
0010
0100
0000
0001
0010
0100
0000
0100
0010
0100
0000
1000
0010
0100
0000
,
0002
0000
1003
0100
0010
0000
2000
0000
3010
0000
0100
1000
0010
0000
0100
0001
,
0010
0100
1000
0001
0100
0010
1000
0001
0010
0001
0010
0001
1000
0010
0100
0001
,
2000
0000
3010
0100
1000
0000
0002
0000
0013
1000
0100
0000
0001
0100
0010
0000
,
0010
0001
0100
0000
1000
0100
0010
0000
0010
1000
0100
0000
0001
0100
0010
0000
,
0002
0000
0103
0010
0001
0000
2000
0000
3100
0001
0010
0000
1000
0010
0100
0000
,
1001
0000
0001
0100
0010
1000
0100
0100
1000
0001
0100
0010
1000
0100
0010
0001
,
1000
0010
1000
0000
0001
0010
0001
0000
1000
0100
1000
0000
0001
0100
0001
0000
,
1000
0010
1000
0100
0010
0001
0100
0010
1000
0010
0100
0001
0100
0000
0000
0000
,
1002
0000
0000
0010
0000
0000
0100
0000
2003
0000
0000
0000
0100
0000
0000
0000
,
3002
0000
0000
0010
0000
0000
2000
0000
0000
0000
3003
0000
0000
1000
0010
0100
,
0002
0000
0000
0000
0000
0000
0000
0000
2003
0000
0000
0010
0000
0000
0100
0000
,
0002
0000
0000
0000
0000
0000
3003
0000
0110
0000
0000
1001
0000
0000
0001
1000
,
0010
0000
0110
0000
0010
0001
0010
0200
0000
0300
0011
0000
0010
1000
0010
0200
,
0000
0300
1010
0000
0010
0001
0010
0200
0000
0300
0010
0000
1000
0001
0010
0000
,
0100
0000
0110
0000
0100
0001
0100
0020
0000
0030
0101
0000
0100
1000
0100
0020
,
0000
0030
1100
0000
0100
0001
0100
2000
0000
3000
0110
0000
1001
0000
0000
0000
,
1001
0000
0110
0000
0001
0010
0100
0020
1000
0000
0031
0000
1000
0010
0100
0020
,
0001
0000
0000
0000
0000
0000
1030
0000
0000
0000
0000
0000
0001
0000
0000
0010
0000
0000
0100
0000
0000
0020
0000
0000
1000
0000
0000
0030
0000
0000
0010
0000
0100
0000
1000
0000
0001
0000
0000
0000
0000
0000
1000
0000
0000
0000
0000
0000
,
0110
0000
1001
0000
1000
0001
0100
0020
0001
0000
1030
0000
0001
1000
0100
0020
,
1000
0000
0000
0000
0000
0000
0031
0000
0000
1000
0000
0000
0001
0000
0010
0000
0001
0000
1000
0000
0010
0000
0100
0000
0001
0000
0000
0000
0000
0000
0000
0000
0000
0000
0000
0000
1001
0000
0000
0000
0000
0000
0000
0000
0000
0000
0000
0000
;

//--------------- dance-double - kaya ----------------
#NOTES:
     dance-double:
     kaya:
     Easy:
     10:
     0,0,0,0,0:
00000000
00000000
00000000
00000000
,
00000000
00000000
00000000
00000000
,
00000000
00000000
00000000
00000000
,
00000000
00000000
00000000
00000000
,
00000000
00000000
00100000
10010000
,
10000000
00000000
10000000
00000000
01000000
00010000
00001000
00000000
,
00000010
00001000
00000001
00000000
00000100
00000010
00000100
00000000
,
00001001
00000100
00011000
00100000
,
10000000
01000000
10000000
01000000
00100000
00010000
00100000
00010000
,
00000000
00000000
00000000
10000000
,
00010000
00000000
00000000
00010000
,
00001000
00000000
00000000
00001000
,
00000002
00000023
00000230
00002300
,
00003010
00000000
00011000
00000000
00001000
01000000
00100000
00000000
,
00100000
00000000
10000000
00010000
00100000
00000000
00100000
00001000
,
00010000
00000000
00010000
00001000
00000100
00000010
00000100
00000000
,
00000001
00000010
00000001
00000010
00000100
00001000
00000100
00001000
,
00000001
00000000
00001100
00000000
00000100
00010000
00001000
00100000
,
01000000
00000000
00110000
00000000
00100000
00001000
00010000
00000100
,
00000010
00000000
00001001
00000000
00000001
00000100
00001000
00010000
,
00100000
10000000
01000000
00100000
00010000
00000000
10010000
00000000
,
00100000
00000000
00011000
00000000
00010000
00001000
00000100
00001000
,
00010000
00000000
00011000
00000000
00001000
00010000
01000000
00010000
,
00001000
00000000
00011000
00000000
00010000
00001000
00000010
00000001
,
00000100
00000010
00000100
00000010
00001000
00000000
00001010
00000000
,
00011000
00000000
00000100
00000100
00011000
00000000
00000100
00000100
,
00011000
00000000
00000100
00000100
00010000
00001000
00010000
00001000
,
00011000
00011000
00100000
00100000
00011000
00000000
00000010
00000010
,
00011000
00000000
00100000
00100000
00011000
00000000
00010000
00001000
,
01000000
00000000
01000000
00010000
10000000
00000000
10000000
01000000
,
00100000
00010000
01000000
00100000
01000000
00000000
10010000
00000000
,
00010000
00000000
00010000
00100000
00001000
00000000
00001000
00010000
,
00000010
00000100
00000001
00001000
00000100
00000010
00001001
00000000
,
00000001
00000010
00000001
00000010
00000100
00001000
00000100
00001000
,
00000100
00000001
00000100
00001000
00000100
00010000
00000100
00010000
,
00001000
00100000
00001000
00000000
01000000
00010000
01000000
00000000
,
00100000
00000000
00100000
00000000
10010000
00000000
10000000
00010000
,
10000000
00000000
00000000
00000000
,
10000000
01000000
00010000
00001000
00000100
00000001
00000000
00000000
,
00000010
00000000
00001001
00000000
00000001
00000100
00000001
00000100
,
00000010
00001000
00000010
00001000
00010000
01000000
00010000
01000000
,
00100000
10010000
11000000
10010000
,
10000000
01000000
00100000
00010000
00000000
01000000
00100000
01000000
,
00010000
10000000
00010000
10000000
00100000
01000000
00100000
01000000
,
00010000
00100000
00010000
00100000
00001000
00010000
00001000
00010000
,
00000010
00000100
00000010
00001000
00000010
00000001
00000010
00001000
,
00000100
00000010
00000001
00000100
00000010
00001000
00000001
00000000
,
00000010
00000001
00000100
00001000
00000100
00000010
00000100
00001000
,
00010000
00100000
01000000
00000000
00010000
10000000
01000000
00100000
,
01000000
10000000
00100000
01000000
00010000
00100000
00001000
00010000
,
00000010
00000000
00000010
00000100
00001001
00000000
00000110
00000000
,
00000001
00000010
00001000
00000010
00000001
00000100
00001000
00010000
,
01000000
10000000
01000000
00100000
00010000
01000000
00100000
00000000
,
20020000
30030000
00022000
00033000
,
00002002
00000000
00003003
00000000
00001000
00001000
00000001
00000001
,
00000220
00000330
00022000
00033000
,
02200000
00000000
03300000
00000000
10000000
00000000
00010000
00100000
,
01000000
01000000
00011000
00000000
00000100
00000100
00011000
00000000
,
01000000
01000000
00011000
00000000
00000100
00000100
00010000
00010000
,
00001000
00001000
00011000
00000000
00100000
00100000
00011000
00000000
,
00000010
00000010
00011000
00000000
00100000
00001000
00011000
00000000
,
00010000
00001000
00000010
00001000
00010000
00001000
00000010
00001000
,
00010000
00001000
00000100
00001000
00010000
00001000
00011000
00000000
,
00001000
00010000
00100000
00010000
00001000
00010000
00100000
00010000
,
00001000
00010000
01000000
00010000
00001000
00000000
00011000
00000000
;

//--------------- dance-double - kaya ----------------
#NOTES:
     dance-double:
     kaya:
     Medium:
     12:
     0,0,0,0,0:
00000000
00000000
00000000
00000000
,
00000000
00000000
00000000
00000000
,
00000000
00000000
00000000
00000000
,
00000000
00000000
00000000
00000000
,
00000000
00000000
00000000
10000000
10000000
00000000
10010000
00000000
,
00010000
10000000
00010000
10000000
00100000
00010000
00001000
00000100
,
00000001
00000010
00001000
00000010
00000001
00000100
00000010
00001000
,
00001010
00000000
00000000
00011000
00000000
00000000
01010000
00000000
00000000
00000000
01000000
00000000
00010000
00000000
10000000
00000000
,
01000000
01000000
00100000
00100000
00010000
00010000
00100000
00100000
,
00001000
00000000
00000000
00000000
00000000
00000000
00000000
00000000
00000000
00000000
00001000
00000000
00000000
00010000
00000000
00000000
,
00000010
00000000
00000000
00000000
00000000
00000000
00000000
00000000
00000000
00000000
00010000
00000000
00000000
00001000
00000000
00000000
,
00100000
00000000
00000000
00000000
00000000
00000000
00000000
00000000
00000000
00000000
00001000
00000000
00000000
00010000
00000000
00000000
,
00000100
00000000
00000000
00000000
00000000
00010000
00002000
00000000
,
01003000
00000000
00000000
00000000
00100000
00000000
10000000
00000000
00100000
00000000
00000000
01000000
00010000
00000000
00100000
00000000
,
00001000
00010000
00000000
00000000
00000010
00000000
00000100
00000000
00000002
00000000
00000013
00000000
00000010
00000000
00000100
00000000
,
00010000
00001000
00010000
00000000
00100000
00000000
10000000
00000000
00010000
00000000
00100000
00000000
01000000
00000000
00100000
00000000
,
00001000
00010000
00001000
00010000
00001000
00010000
00001000
00010000
,
00000010
00000000
00001000
00000000
00000100
00000010
00000000
00000100
00000010
00000000
00000001
00000000
00000100
00000000
00001000
00000000
,
00010000
00000000
00100000
00000000
01000000
00100000
00000000
01000000
00100000
00000000
10000000
00000000
01000000
00000000
00010000
00000000
,
00001000
00000000
00010000
00000000
00001000
00010000
00000000
00001000
00010000
00000000
00000010
00000000
00001000
00000000
00000001
00000000
,
00000020
00000130
00002000
00013000
00200000
01300000
00020000
10030000
,
01000000
00000000
00100000
00000000
01000000
10000000
00000000
01000000
10000000
00000000
00100000
00000000
01000000
00000000
00001000
00000000
,
00010000
00000000
00000010
00000000
00000100
00000001
00000000
00000100
00000001
00000000
00000010
00000000
00000100
00000000
00001000
00000000
,
00000010
00010000
00000010
00000000
00010000
00001000
00000000
00010000
00001000
00000000
00100000
00000000
01000000
00000000
10000000
00000000
,
00100000
00000000
00010000
00000000
00001000
00000000
00000100
00000000
00000020
00000000
00000000
00010030
00000000
00000000
00001000
00010000
,
00001000
00000000
00000100
00000000
00000010
00000100
00000000
00001000
00000000
00000000
00000100
00000000
00000010
00000100
00000000
00001000
,
00000000
00000000
00000100
00000000
00000010
00000100
00000000
00000010
00000000
00000000
00001000
00000000
00001000
00000000
00000100
00000000
,
00010000
00000000
01000000
00000000
00100000
01000000
00000000
00010000
00000000
00000000
01000000
00000000
00100000
01000000
00000000
00010000
,
00000000
00000000
01000000
00000000
00100000
00010000
00000000
10000000
00000000
00000000
10010000
00000000
10000000
00000000
00010000
00000000
,
00200000
00000000
00301000
00010000
00001000
00000100
00000010
00001000
,
00000001
00000010
00000100
00001000
00000001
00000100
00000010
00001000
,
00000200
00000000
00000310
00000100
00001000
00010000
00100000
01000000
,
10000000
00010000
01000000
00001000
00010000
00000010
00000100
00000001
,
00000010
00000000
00000000
00000110
00000000
00000000
00001000
00000000
00000000
00001001
00000000
00000000
00000001
00000000
00001000
00000000
,
00000100
00000100
00001000
00001000
00010000
00010000
01000000
01000000
,
00100000
00000000
10000000
00000000
00010000
10000000
00010000
00000000
00100000
00000000
01000000
00000000
00100000
00000000
00010000
00000000
,
10000000
00100000
00000000
10000000
00100000
00000000
02020000
00000000
03030000
00000000
01000000
00000000
00001000
00010000
00001000
00010000
,
00000000
00000000
00000000
00000000
,
00001000
00000100
00001000
00000100
00000010
00000100
00000010
00000100
00000010
00000001
00000010
00000001
00000000
00000000
00000000
00000000
,
00001000
00000000
00001000
00000100
00000000
00000100
00010000
00000000
00001000
00000000
01000000
00000000
00100000
00000000
10000000
00000000
,
01000000
00100000
00010000
00001000
00000100
00000010
00000001
00001000
,
00000001
00000000
00000001
00000010
00000000
00000010
00000100
00000000
00000010
00000000
00000001
00000000
00001000
00000000
00000100
00001000
,
00000100
00000000
00000000
00010000
00000000
00000000
01000000
00000000
00000000
00000000
10000000
00000000
00010000
00000000
10000000
00000000
,
00100000
00000000
00100000
01000000
00000000
01000000
00010000
00000000
00100000
00000000
00001000
00000000
00010000
00000000
00001000
00000000
,
01000000
00100000
00010000
00001000
00000100
00000010
00001000
00000001
,
00000010
00000000
00000001
00001000
00000000
00000010
00000100
00000000
00000001
00000000
00001000
00000100
00001000
00000000
00000001
00000100
,
00000001
00000000
00001000
00000010
00001000
00000000
00000001
00001000
00000001
00000000
00000100
00000000
00000010
00000000
00001000
00000000
,
00000010
00000000
00000010
00010000
00000000
00010000
00000100
00000000
00010000
00000000
00001000
00000000
00100000
00000000
01000000
00000000
,
10000000
00100000
00010000
00100000
10000000
01000000
00100000
00010000
,
01000000
00000000
01000000
00001000
00000000
00001000
00100000
00000000
00001000
00000000
00010000
00000000
00000010
00001000
00000010
00000000
,
00000100
00000000
00000000
00000001
00000000
00000000
00000010
00000100
00000010
00000000
00000000
00000000
00001001
00000000
00000000
00000000
,
00000001
00000100
00001000
00010000
01000000
10000000
00100000
00010000
,
00001000
00000000
00000100
00000000
00000001
00000000
00000010
00000000
00000100
00001000
00000100
00001000
00000100
00000000
00000000
00000000
,
00000020
00000000
00000000
00002030
00000000
00000000
00023000
00000000
02030000
00000000
00000000
00000000
03200000
00000000
00000000
00000000
,
00320000
00000000
00000000
20030000
00000000
00000000
30200000
00000000
00000000
00000000
00000000
00000000
01300000
00100000
01000000
00010000
,
00200000
00000000
00000000
00000000
00000000
00000000
00000000
00000000
00302000
00000000
00000000
00023000
00000000
00000000
00030020
00000000
,
00000230
00000000
00000000
00000000
00000000
00000000
00000000
00000000
00000301
00000000
00000000
00001001
00000000
00000000
00000001
00001000
,
00000001
00000000
00000100
00000000
00000100
00001000
00000000
00010000
00000000
00000000
01000000
00000000
01000000
00010000
00000000
00001000
,
00000000
00000000
00000100
00000000
00000100
00001000
00000000
00020000
00000000
00000000
01030000
00000000
10000000
00000000
00010000
00000000
,
10000000
00000000
00100000
00000000
00100000
00010000
00000000
00001000
00000000
00000000
00000010
00000000
00000010
00001000
00000000
00010000
,
00000000
00000000
00100000
00000000
10000000
00010000
00000000
02000000
00000000
00000000
03100000
00000000
10010000
00000000
00000000
00000000
,
10000000
01000000
00010000
00001000
00010000
01000000
00100000
00010000
,
00001000
00000000
00000100
00000000
00000010
00000000
00001000
00000000
00000001
00000000
00000100
00000010
00000001
00000000
00000001
00000010
,
00000100
00001000
00000001
00000100
00001000
00010000
00100000
10000000
,
00010000
00000000
00100000
00000000
00001000
00010000
00100000
00000000
10010000
00000000
00000000
00000000
00011000
00000000
00000000
00000000
;

//--------------- dance-double - kaya ----------------
#NOTES:
     dance-double:
     kaya:
     Hard:
     16:
     0,0,0,0,0:
00000000
00000000
00000000
00000000
,
00000000
00000000
00000000
00000000
,
00000000
00000000
00000000
00000000
,
00000000
00000000
00000000
00000000
,
00000000
00000000
00000000
00000000
00000000
00000000
00001000
00010000
00001000
00000000
00010000
00000000
00011000
00000000
00000000
00000000
,
00010000
00001000
00000000
00010000
01000000
00000000
10000000
00000000
00100000
00000000
00010000
00000000
00001000
00000000
00000100
00000000
,
00000001
00000010
00001000
01000000
00100000
01000000
10000000
00010000
,
01010000
00000000
00000000
00011000
00000000
00000000
00002020
00000000
00003030
00000000
00000001
00000000
00001000
00000000
00000010
00000000
,
00010000
00001000
00010000
00000000
00000100
00001000
00000100
00000000
00010000
00001000
00010000
00000000
00001000
01000000
00001000
00000000
,
00011000
00000000
00000000
00000000
00010000
00000000
01000000
00000000
20000000
00000000
00000000
30100000
00000000
00000000
00010000
00000000
,
00000000
00001000
00000000
00000000
00000100
00000000
00000001
00000020
00000000
00000000
00000031
00000000
00001000
00000000
00000100
00000000
,
00010000
00000000
00000000
00000000
01000000
00000000
00100000
00000000
00010000
00000000
00000000
10000000
00000000
00000000
00100000
00000000
,
00000000
01000000
00000000
00000000
00001000
00000000
00100000
00000000
00020000
00000000
00000000
00000000
00032000
00000000
00000000
00000000
,
00003010
00000000
00000000
00000100
00000001
00000000
00001000
00000000
00000010
00000000
00000000
00010000
00001000
00000000
01000000
00000000
,
00100000
10000000
00000000
00000000
10000000
00000000
01000000
00020000
00000000
00030000
00001000
00000000
00000100
00000000
00000001
00000000
,
00000010
00000001
00000010
00000000
00000100
00000000
00010000
00000000
00001000
00100000
00001000
00000000
01000000
00000000
10000000
00000000
,
00100000
00100000
00010000
00010000
00001000
00001000
00000100
00000100
,
00000001
00001000
00000001
00000000
00000010
00000100
00000000
00000010
00000100
00000000
00001000
00000000
00010000
00000000
00100000
00000000
,
00010000
10000000
00010000
00000000
00100000
01000000
00000000
00100000
01000000
00000000
00010000
00000000
00001000
00000000
00000100
00000000
,
00000010
00001000
00000010
00000000
00000100
00001000
00000000
00010000
01000000
00000000
00100000
00000000
00010000
00000000
10000000
00000000
,
00010000
01000000
00100000
01000000
00001000
00010000
00000010
00000100
00000002
00000000
00000000
00001003
00000000
00000000
00000010
00000000
,
00000100
00000001
00001000
00000000
00000010
00000100
00000000
00000010
00001000
00000000
00010000
00000000
01000000
00000000
00100000
00000000
,
01000000
00010000
10000000
00000000
00100000
01000000
00000000
00100000
00010000
00000000
00001000
00000000
00000100
00000000
00000010
00000000
,
00000100
00000001
00001000
00000000
00000010
00000100
00000000
00000100
00001000
00000000
00010000
00000000
00100000
00000000
10000000
00000000
,
01000000
00100000
01000000
00100000
00010000
10000000
01000000
00100000
00010000
00000000
00000000
10010000
00000000
00000000
10000000
01000000
,
00010000
00000000
00011000
00000000
00001000
00000100
00001000
00000100
00000000
00000000
00011000
00000000
00010000
01000000
00010000
01000000
,
00000000
00000000
00011000
00000000
00001000
00010000
00001000
00000200
00000000
00000300
00000010
00000000
00010000
00000000
00001000
00000000
,
01001000
00000000
00011000
00000000
00001000
00000010
00001000
00000010
00000000
00000000
00011000
00000000
00010000
00100000
00010000
00100000
,
00000000
00000000
00011000
00000000
00001000
00010000
00001000
00000020
00000000
00000030
00000100
00000000
00010000
00001000
00010000
00001000
,
00200000
00000000
00000000
00300000
01000000
00000000
10000000
00000000
00100000
00000000
00010000
00000000
00001000
00000000
00000100
00000000
,
00000010
00000100
00000001
00000010
00000100
00001000
00000001
00000100
,
00000020
00000000
00000031
00001000
00000100
00000010
00010000
00001000
,
01000000
00000000
00010000
00000000
00100000
00000000
01000000
00000000
10000000
00000000
00100000
00000000
01000000
00010000
01000000
00010000
,
10000000
01000000
00000000
00100000
01000000
00000000
00100000
00010000
00000000
00100000
00001000
00000000
00010000
00000000
00000010
00000000
,
00001000
00000010
00001000
00000000
00000100
00010000
00000100
00000000
00000010
00000001
00000010
00000000
00000001
00001000
00000001
00000000
,
00000010
00000100
00001000
00000001
00000010
00000100
00010000
00001000
00010000
00000000
00100000
00000000
10000000
00000000
01000000
00000000
,
00100000
00001000
00010000
00001000
00010000
00000000
00022000
00000000
00000000
00000000
00000000
00000000
00000000
00000000
00000000
00000000
,
00033000
00000000
00000000
00000000
,
00010000
00001000
00000100
00001000
00010000
00001000
00000100
00000001
00000010
00001000
00010000
00001000
00000000
00000000
00000000
00000000
,
00001100
00000000
00000000
00011000
00000000
00000000
02020000
00000000
03030000
00000000
10000000
00000000
00100000
00000000
00010000
00000000
,
00001000
00000100
00000010
00000000
00001000
00000000
00000001
00000000
00000010
00001000
00010000
00000000
01000000
00000000
00100000
00000000
,
00110000
00000000
00000000
00011000
00000000
00000000
00002020
00000000
00003030
00000000
00000001
00000000
00001000
00000000
00000010
00000100
,
00000010
00000000
00000100
00001000
00000100
00001000
00010000
00000000
01000000
00010000
01000000
00010000
00001000
00000000
00100000
00000000
,
00101000
00000000
00000000
00011000
00000000
00000000
00002020
00000000
00003030
00000000
00000001
00000000
00001000
00000000
00000100
00010000
,
00001000
00000000
01000000
00000000
00001000
00000000
00010000
00000000
00000010
00000000
00000000
00000100
00000001
00000000
00000100
00000000
,
00010010
00000000
00000000
00101000
00000000
00000000
00100000
00010000
00100000
00000000
01000000
00000000
10000000
00000000
01000000
00000000
,
00010000
00000000
00001000
00000000
00000100
00000000
00000001
00000000
00000010
00000000
00001000
00000000
00100000
00001000
00100000
01000000
,
10000000
00100000
00010000
00000100
00000010
00000001
00000100
00010000
,
01000000
00001000
00100000
00001000
00000100
00000010
00010000
00001000
,
00100000
00000000
00010000
10000000
00010000
00000000
01000000
00000000
00001000
00000000
00010000
00000000
00000010
00000100
00000010
00000100
,
00000002
00000000
00000000
00001003
00000000
00000000
00000010
00010000
00001000
00000000
00000000
00000000
00011000
00000000
00000000
00000000
,
00010000
00000000
01000000
00100000
01000000
00000000
10000000
00000000
00100000
00000000
01000000
00100000
01000000
00000000
00001000
00000000
,
00010000
00000000
00000100
00000010
00000001
00000010
00000100
00001000
00000001
00000100
00000010
00010000
00001000
00000000
00000000
00000000
,
02010000
00000000
00000000
00000000
10000000
00000000
00000000
03010000
00000000
00000000
00002000
00000000
00000000
00000000
00000100
00000000
,
00003002
00000000
00000000
00000010
00000000
00000000
00002000
00000000
00000000
00000000
00003003
00000000
00000001
00000100
00000010
00010000
,
00002000
00000000
00000000
00000000
00000000
00000000
00003000
00000000
00210000
00000000
00000000
10000000
00000000
00000000
00310000
00000000
,
00000020
00000000
00000000
00000000
00000000
00000000
00000000
00000000
00000130
00000000
00000000
00001001
00000000
00000000
00000001
00001000
,
00000100
00000000
00011000
00000000
00001000
00100000
00001000
00100000
00000000
00000000
00011000
00000000
00010000
00000010
00010000
00000010
,
00000000
00000000
00011000
00000000
00001000
00100000
00001000
00200000
00000000
00000000
01300000
00000000
00010000
00000000
00001000
00000000
,
00000100
00000000
00011000
00000000
00010000
00000100
00010000
00000100
00000000
00000000
00011000
00000000
00001000
01000000
00001000
01000000
,
00000000
00000000
00011000
00000000
00010000
00000100
00001000
00000020
00000000
00000000
00000130
00000000
00001001
00000000
00000000
00000000
,
00000001
00000000
00000110
00000000
00001000
00000100
00010000
00001000
00100000
00000000
01100000
00000000
00010000
00100000
00001000
00010000
,
00000100
00000000
00000110
00000000
00001000
00000100
00000010
00000002
00000000
00000000
00000013
00000000
00000100
00000000
00000010
00000000
,
00000001
00000000
00001100
00000000
00000100
00010000
00001000
00010000
00001000
00000000
01010000
00000000
01000000
00001000
00010000
00001000
,
00010000
00000010
00000100
00000001
00001000
00000100
00000010
00000001
00001000
00000000
00000000
00000000
00001001
00000000
00000000
00000000
;

//--------------- dance-double - kaya ----------------
#NOTES:
     dance-double:
     kaya:
     Challenge:
     17:
     0,0,0,0,0:
00000000
00000000
00000000
00000000
,
00000000
00000000
00000000
00000000
,
00000000
00000000
00000000
00000000
,
00000000
00000000
00000000
00000000
,
00000000
00000000
00000000
00000000
00000000
00000000
00000001
00001000
00000010
00000000
00000100
00000000
00001001
00000000
00000000
00000000
,
00000101
00000000
00000000
00000010
00001000
00000000
00000100
00010000
00000100
00000000
00010000
00001000
00010000
00000000
00001000
00100000
,
00001000
00000000
01000000
00010000
01000000
00000000
00100000
10000000
00100000
00000000
01000000
00000000
00010000
00000000
10000000
00000000
,
01100000
00000000
00000000
00011000
00000000
00000000
00000220
00000000
00000330
00000000
00000001
00000000
00001000
00000000
00000001
00000000
,
00000010
00000100
00000020
00000000
00000130
00001000
00000200
00000000
00010300
00001000
00020000
00000000
01030000
00100000
02000000
00000000
,
03000000
00000000
00000000
00000000
00000000
00000000
00000000
00000000
00000000
00000000
01000000
00000000
00000000
00010000
00000000
00000000
,
00001000
00000000
00000000
00000000
00000000
00000000
00000000
00000000
00000000
00000000
00000100
00000000
00000000
00001000
00000000
00000000
,
00010000
00000000
00000000
00000000
00000000
00000000
00000000
00000000
00000000
00000000
00100000
00000000
00000000
00010000
00000000
00000000
,
00002000
00003020
00000032
00000203
,
00001300
00000000
00000000
00010000
01000000
00000000
00100000
00000000
00020000
00000000
00000000
10000000
00000000
00000000
01030000
00000000
,
00100000
00010000
00000000
00001000
00000100
00000000
00000010
00002000
00000000
00000000
00003001
00000000
00000010
00000000
00000010
00000000
,
00000100
00001000
00000100
00000000
00010000
00000000
00001000
00000000
00100000
00010000
00100000
00000000
01000000
00000000
10000000
00000000
,
00100000
01000000
00010000
00000000
10000000
01000000
00100000
00000000
00010000
01000000
00001000
00000000
00010000
00000010
00000100
00000000
,
00000001
00000010
00000100
00000000
00010000
00001000
00000000
00010000
01000000
00000000
00100000
00010000
10000000
00100000
10000000
00100000
,
10000000
01000000
00100000
00000000
00001000
00010000
00000000
00001000
00000100
00000000
00000010
00001000
00000001
00000010
00000001
00000010
,
00000001
00000000
00001000
00000000
00000100
00010000
00000000
00001000
00100000
00000000
01000000
00100000
01000000
00000000
10000000
00000000
,
00100000
01000000
00010000
00100000
00001000
00010000
00000100
00000010
00000002
00000000
00000000
00001000
00000000
00000000
00000103
00000000
,
00000001
00001000
00000100
00000000
00010000
00001000
00000000
00010000
01000000
00000000
00100000
00001000
00010000
00001000
00100000
01000000
,
10000000
00010000
01000000
00000000
00100000
00010000
00000000
00001000
00000100
00000000
00000010
00010000
00001000
00010000
00000010
00000100
,
00000001
00001000
00000001
00000000
00000010
00000100
00000000
00010000
00000100
00000000
00010000
00001000
00100000
00000000
01000000
00000000
,
10000000
01000000
00010000
00001000
00000100
00000001
00000010
00000100
00020000
00000000
00000000
00031000
00000000
00000000
00010000
00001000
,
00010000
00000000
00011000
00000000
00010000
01000000
00010000
00002000
00000000
00003000
00011000
00000000
00001000
00000100
00001000
00020000
,
00000000
00030000
00011000
00000000
00010000
00001000
00000100
00000020
00000000
00000030
00001000
00000001
00001000
00000000
00000100
00000000
,
00010000
00000000
00011000
00000000
00010000
00100000
00010000
00002000
00000000
00003000
00011000
00000000
00001000
00000010
00001000
00020000
,
00000000
00030000
00011000
00000000
00001000
00010000
00100000
20000000
00000000
30000000
01100000
00000000
10010000
00000000
00000000
00000000
,
20000000
00000000
00000000
00000000
30010000
00000000
00000000
00100000
00001000
00000000
00010000
00000000
00000010
00000000
00000100
00000000
,
00000001
00000000
00001000
00000000
00000100
00000000
00010000
00001000
00010000
00000000
00100000
00000000
10000000
00000000
00010000
00000000
,
00200000
00000000
00000000
00000000
00310000
00000000
00000000
00001000
00000100
00000000
00000010
00000000
00000001
00000000
00000100
00000000
,
00001000
00000000
00010000
00000000
00100000
00000000
10000000
00010000
10000000
00000000
01000000
00000000
00100000
00000000
00001000
00000000
,
00010000
00000010
00000000
00000010
00000100
00000000
00001000
00000100
00000000
00000100
00000010
00000000
00000100
00000000
00000001
00000000
,
00000001
00000010
00000100
00000000
00000100
00010000
00001000
00000000
00001000
01000000
00010000
00000000
00010000
00100000
01000000
00000000
,
10000000
00100000
01000000
00001000
00010000
00001000
00100000
00001000
00010000
00000010
00000100
00000001
00001000
00000100
00000010
00000000
,
00000001
00000100
00000010
00010000
00001000
00000000
00022000
00000000
00033000
00000000
00100000
00010000
00100000
00010000
10000000
00100000
,
00000000
00000000
00000000
00000000
,
10000000
01000000
00010000
00001000
00000010
00001000
00010000
01000000
00100000
00001000
00010000
00000010
00000000
00000000
00000000
00000000
,
00011000
00000000
00001000
00000100
00000001
00000000
00000020
00000000
00000000
00000000
00001000
00000000
00000000
00000000
00000031
00001000
,
00000001
00000000
00000000
00000100
00000010
00000000
00001000
00000000
00000000
00000000
00000001
00000000
00000100
00000000
00001000
00000000
,
00011000
00000000
00010000
01000000
10000000
00000000
00200000
00000000
00000000
00000000
00010000
00000000
00000000
00000000
10300000
01000000
,
00100000
00000000
00001000
00010000
00001000
00010000
00000010
00000000
00010000
00001000
00010000
00001000
00100000
00000000
01000000
00000000
,
10010000
00000000
10000000
00100000
00010000
00000000
00002000
00000000
00000000
00000000
00000100
00000000
00000000
00000000
00013000
00001000
,
00000010
00000000
00000001
00000000
00000100
00000000
00001000
00000000
00000100
00000000
00000000
00000010
00001000
00000000
00000001
00000000
,
00001001
00000000
00000001
00000010
00001000
00000000
00020000
00000000
00130000
00000000
10000000
01000000
00100000
00000000
00010000
01000000
,
00001000
00010000
00000010
00000100
00000001
00000100
00000010
00001000
00000100
00010000
00001000
00100000
01000000
10000000
00010000
01000000
,
00100000
00000000
10000000
00010000
10000000
00000000
00010000
01000000
00010000
00000000
00100000
00001000
00100000
00000000
00001000
00010000
,
00001000
00000000
00010000
00000010
00010000
00000000
00000010
00000100
00000010
00000000
00001000
00000100
00001000
00000000
00000001
00000010
,
00000001
00000000
00001000
00000100
00000010
00000000
00000001
00000100
00000010
00000000
00001000
00000100
00001000
00000000
00000100
00010000
,
00001000
00100000
01000000
10000000
00010000
00100000
00010000
01000000
00100000
00000000
00000000
00000000
10010000
00000000
00000000
00000000
,
10000000
00000000
00100000
00010000
00001000
00000000
00000100
00000000
00000001
00000000
00000010
00001000
00010000
00000000
01000000
00000000
,
10000000
00000000
00010000
01000000
00100000
00010000
00001000
00000100
00000010
00001000
00000001
00000010
00000100
00000000
00000000
00000000
,
00020000
00000000
00000000
00100000
00000000
00000000
00100000
00000000
00032000
00000000
00000000
00000000
00003010
00000000
00000000
00000000
,
00101000
00000000
00000000
00011000
00000000
00000000
00020020
00000000
00030030
00000000
00000000
00000000
00010000
00000010
00001000
00000010
,
00000200
00000000
00000000
00000000
00000300
00000000
00000000
00000000
00000002
00000000
00000000
00000100
00000000
00000000
00001000
00000000
,
00020000
00000000
00000000
00000000
00030003
00000000
00000000
00000000
00000101
00000000
00000000
00010100
00000000
00000000
00000100
00010000
,
00001000
00000000
00011000
00000000
00010000
01000000
00010000
00002000
00000000
00003000
00011000
00000000
00001000
00000100
00001000
00020000
,
00000000
00030000
00011000
00000000
00010000
01000000
00100000
00020000
00000000
00030000
00100000
00001000
00100000
00000000
00001000
00000000
,
00011000
00000000
00011000
00000000
00001000
00000010
00001000
00020000
00000000
00030000
00011000
00000000
00010000
00100000
00010000
00002000
,
00000000
00003000
00011000
00000000
00001000
00000010
00000001
00002000
00000000
00003000
00000110
00000000
00001001
00000000
00000000
00000000
,
00001001
00000000
00000001
00000000
00000100
00001000
00000100
00002000
00010000
00000000
00013000
00000000
01000000
00010000
01000000
00020000
,
00001000
00000000
00031000
00000000
00000100
00001000
00010000
02000000
00000000
03000000
10000000
00010000
10000000
00000000
00100000
00000000
,
00010000
00000000
00110000
00000000
00100000
00010000
00100000
00020000
00001000
00000000
00031000
00000000
00000010
00001000
00000010
00002000
,
00010000
00000000
00013000
00000000
00100000
00010000
00001000
00000010
00000001
00000000
00000000
00000000
00001001
00000000
00000000
00000000
;
