#TITLE:Official Bootleg;
#SUBTITLE:;
#ARTIST:Blacklolita;
#TITLETRANSLIT:;
#SUBTITLETRANSLIT:;
#ARTISTTRANSLIT:;
#GENRE:;
#CREDIT:;
#MUSIC:Official Bootleg.ogg;
#BANNER:Official Bootleg.png;
#BACKGROUND:Official Bootleg-bg.png;
#CDTITLE:;
#SAMPLESTART:21.701;
#SAMPLELENGTH:15.000;
#SELECTABLE:YES;
#OFFSET:-1.130;
#BPMS:0.000=140.000
,127.000=280.000
,128.000=140.000
;
#DISPLAYBBPM:140;
#STOPS:127.000=0.214;
#BGCHANGES:;
#FGCHANGES:;

//--------------- dance-single - Marten ----------------
#NOTES:
     dance-single:
     Marten:
     Beginner:
     5:
     0,0,0,0,0:
0000
0000
0000
0000
,
0000
0000
0000
0000
,
0000
0000
0000
0000
,
0000
0000
0000
0000
,
1000
0000
0000
0000
,
0001
0000
0000
0000
,
0100
0000
0000
0000
,
0010
0000
0000
0000
,
1000
0000
1000
0000
,
0001
0000
0001
0000
,
0010
0000
0010
0000
,
0100
0100
0100
0000
,
1001
0002
0003
2000
,
3000
0002
0003
0010
,
0010
0000
0001
0001
,
1000
1000
0002
0003
,
1001
2000
3000
0010
,
0010
0100
0100
0000
,
0002
0000
1003
1000
,
0001
1000
0020
0030
,
0110
0000
0010
0000
,
1000
0000
0001
1001
,
1000
0000
0100
0100
,
0010
0010
0200
0300
,
1001
0001
0020
0030
,
0020
0030
0020
0030
,
0110
0000
0100
0000
,
0110
0000
0010
0000
,
1002
0000
0000
0013
,
0000
0100
0100
0000
,
2000
0000
0000
3010
,
0000
0100
0100
0000
,
1001
0000
0001
0000
,
0010
0000
0100
0000
,
1001
0000
1000
0000
,
0100
0000
0010
0000
,
1001
0000
0000
0000
,
0110
0000
0000
0000
,
1001
0000
0000
0000
,
0110
0000
0000
0000
,
1000
0000
1000
0000
,
0001
0000
0001
0000
,
0010
0000
0010
0000
,
0100
0100
0100
0000
,
2000
3000
0002
0003
,
2000
3000
0010
0010
,
0110
0000
0100
0100
,
0010
0010
2000
3000
,
1001
0002
0003
0020
,
0030
0200
0300
1000
,
2000
0000
3001
0001
,
1000
0001
0020
0030
,
0110
0010
0002
0003
,
2000
3000
0002
0003
,
1001
0000
1000
1000
,
0001
1000
0002
0003
,
1001
0001
0020
0030
,
0200
0300
2000
3000
,
0010
0010
0010
0000
,
0100
0100
0100
0000
,
2002
3003
0000
0000
0000
0000
0000
0000
;

//--------------- dance-single - Marten ----------------
#NOTES:
     dance-single:
     Marten:
     Easy:
     8:
     0,0,0,0,0:
0000
0000
0000
0000
,
0000
0000
0000
0000
,
0000
0000
0000
0000
,
0000
0000
0000
0000
,
0001
0000
1000
1000
0000
0010
0010
0000
,
1000
0000
0001
0001
0000
0010
0010
0000
,
0100
0000
1000
1000
0000
0001
0001
0000
,
0100
0000
0001
0001
0000
1000
1000
0000
,
1001
0000
0001
0000
,
1000
1000
0001
0001
,
1000
0001
1000
0000
0001
1000
0001
0000
,
0010
0010
0100
0110
,
1100
2000
3001
0200
,
0301
0000
0020
0000
0031
0000
0100
0010
,
0100
0001
0020
0032
,
2003
3020
0230
0310
,
1001
0000
0002
0000
1003
0000
0100
0010
,
0010
0000
0100
0010
0010
0000
0110
0000
,
1001
0000
0001
0000
2000
0000
3001
0010
,
0002
0000
0203
0000
0320
0000
0000
0030
,
1010
1000
0002
0023
,
0032
0000
0203
0000
0320
0000
1030
0001
,
1000
0100
0011
0101
,
1010
1100
2002
3003
,
0001
0100
2000
3100
,
0002
0103
2000
3100
,
0001
0000
0000
0001
0000
0000
1000
0000
0000
1000
0000
0000
0010
0000
0000
0000
,
1000
0000
0000
1000
0000
0000
0001
0000
0000
0001
0000
0000
0010
0000
0000
0000
,
0210
0000
0001
2300
,
0000
0010
0000
0000
3001
0000
0100
0000
,
0020
0000
1000
0230
,
0000
0000
0000
0000
0000
0000
0000
0000
0000
0000
0000
0000
0301
0000
0000
0000
0000
0000
0000
0000
0000
0000
0000
0000
0001
0000
0000
0000
0000
0000
0000
0000
0000
0000
0000
0000
0020
0030
0000
0000
0000
0000
0000
0000
0000
0000
0000
0000
,
1001
0000
0010
0010
,
1000
0001
1000
0000
0001
0000
1000
0000
,
1001
0001
0010
0010
,
0001
1000
0001
0000
1000
0000
0000
0000
,
0001
0000
0000
0001
0000
0000
0010
0000
0000
0000
0000
0000
0000
0000
0000
0000
,
1000
0000
0000
1000
0000
0000
0100
0000
0000
0000
0000
0000
0000
0000
0000
0000
,
1000
0000
0000
1000
0000
0000
0010
0000
0000
0000
0000
0000
0000
0000
0000
0000
,
0001
0000
0000
0001
0000
0000
0100
0000
0000
0000
0000
0000
0000
0000
0000
0000
,
0002
0000
2003
0000
,
3010
0010
0100
0100
,
0001
1000
0001
0000
1000
0001
1000
0000
,
0100
0000
0100
0000
0010
0100
0010
0000
,
0001
2000
3000
2000
,
3000
0000
2000
0000
3010
0100
0010
0000
,
1002
2003
3002
0023
,
0230
2300
3002
1003
,
1001
0000
2000
0000
3001
0000
0100
0001
,
0001
0000
0010
0001
0001
0000
0010
0000
,
1001
0000
1000
0000
0002
0000
1003
0010
,
2000
0000
3200
0000
0320
0000
0000
0030
,
0011
0000
0001
0000
0000
0010
0010
0000
,
0000
0100
0100
0000
0000
1000
1000
0000
,
1001
1000
1010
0011
,
1100
0101
0220
0330
,
0101
0000
0100
0000
0001
0000
1000
0010
,
1000
0000
0001
0010
0001
0000
0100
0000
,
0010
0000
0000
0010
0000
0000
1000
0000
0000
0100
0000
0000
0010
0000
0000
0000
,
0010
0000
0000
0010
0000
0000
0001
0000
0000
0100
0000
0000
0010
0000
0000
0000
,
2002
3003
0000
0000
0000
0000
0000
0000
;

//--------------- dance-single - Marten ----------------
#NOTES:
     dance-single:
     Marten:
     Medium:
     13:
     0,0,0,0,0:
0000
0000
0000
0000
,
0000
0000
0000
0000
,
0000
0000
0000
0000
,
0000
0000
0000
0000
,
1010
0000
0000
0010
0000
0000
0100
0000
0000
0001
1000
0000
0001
0000
0000
0000
,
0011
0000
0000
0010
0000
0000
0100
0000
0000
1000
0001
0000
1000
0000
0100
0000
,
1100
0000
0000
0100
0000
0000
0010
0000
0000
0001
1000
0000
0001
0000
0000
0000
,
0101
0000
0000
0100
0000
0000
0010
0000
0000
1000
0001
0000
1000
0000
0010
0000
,
1010
0010
0100
0100
,
0001
1000
0001
1000
0010
0100
0010
0100
,
0001
0000
0100
0000
0010
0000
1000
0000
0100
0000
0010
0000
0001
1000
0001
0000
,
0020
0000
0000
0030
0020
0000
0030
0000
0200
0300
0010
0000
0110
0000
0000
0000
,
1002
0000
0000
0000
1003
0010
0000
1000
0020
0000
0000
0000
1030
0100
0000
1000
,
0200
0000
0000
0000
0310
0001
0000
0010
0002
0000
0103
0000
0010
0000
0000
0000
,
1000
0100
1000
0001
0200
0310
0200
1300
,
0200
0301
0020
1030
0020
0031
1001
0000
,
2000
0000
0000
0000
3100
0010
0000
0100
0010
0000
0002
0000
0000
1003
0000
0100
,
1000
0000
1000
0000
0000
0001
0000
0100
0001
0000
0001
0000
0010
0000
0000
0000
,
0100
1000
0001
0100
0020
0031
0020
1030
,
1001
0000
0000
1000
0100
0000
0010
0000
0002
0000
0200
0000
0000
0000
0303
0000
,
0101
0000
0100
0000
0010
0000
1000
0000
0001
0010
0000
0010
0000
0001
0000
0001
,
0000
1000
0000
1000
0000
0010
0000
0010
0000
0100
0000
0100
0010
0000
0000
0000
,
1001
0000
1000
0000
0100
0010
0100
0000
1000
0000
1000
0000
0001
0000
0001
0000
,
0100
0100
0010
0020
1030
0001
0010
0000
,
0011
0000
0001
0000
0100
0000
0010
0000
1000
0100
1000
0000
0000
0001
0000
0000
,
0001
0100
0001
0000
0000
1000
0000
0000
1000
0100
1000
0000
0010
0000
0000
0000
,
1010
0000
0000
1001
0000
0000
0101
0000
0000
0001
0010
0000
0100
0000
0000
0000
,
0011
0000
0000
1001
0000
0000
1100
0000
0000
1000
0010
0000
0100
0000
0100
0000
,
0002
0000
0013
0210
,
0000
0001
0000
1300
0100
0010
0001
0100
,
0200
0000
0000
0000
0310
1000
1002
0000
,
0000
0000
0000
0000
0000
0000
0010
0000
0000
0000
0000
0000
0000
0000
0000
0000
0000
0000
0013
0000
0000
0000
0000
0000
0100
0000
0000
0000
0000
0000
1000
0000
0000
0000
0000
0000
0020
0030
0000
0000
0000
0000
0000
0000
0000
0000
0000
0000
,
1001
0000
0000
0000
0001
1000
0001
0000
,
1000
0100
0001
0100
1000
0001
0001
0000
,
1001
0000
0001
0100
0010
0100
0010
0000
,
1000
0001
0010
0010
0200
0000
0310
0000
,
0011
0000
0000
0011
0000
0000
0101
0000
0000
0000
0000
0000
0000
0000
0000
0000
,
1010
0000
0000
1010
0000
0000
1100
0000
0000
0000
0000
0000
0000
0000
0000
0000
,
0101
0000
0000
0101
0000
0000
0011
0000
0000
0000
0000
0000
0000
0000
0000
0000
,
1100
0000
0000
0000
0000
0000
0000
0000
0000
1100
0000
0000
0000
0000
0000
0000
0000
0000
1020
0000
0000
0000
0000
0000
0000
0000
0000
0000
1030
0000
0000
0000
0001
0000
0000
0000
0010
0000
0000
0000
0000
0000
0000
0000
0000
0000
0000
0000
,
0001
0001
1000
1000
,
0010
1000
0100
0010
0001
0100
0010
1000
,
0001
0000
0001
0000
1000
0000
1000
0000
0010
0000
0010
0000
0100
0010
0100
0000
,
0002
0000
0000
0003
0002
0000
0003
0000
2000
3000
0100
0000
0110
0000
0000
0000
,
1002
0023
0230
2300
,
3020
0000
0230
0000
0301
1000
0010
0010
,
0110
0101
1001
1100
,
1000
0100
0001
0100
1000
0010
0100
0000
,
0101
0000
0001
0000
1000
0010
0000
1000
0020
0000
0000
0000
0130
0001
0000
0100
,
0002
0000
0000
0000
1003
0100
0000
1000
0200
0000
0000
0000
0310
0000
0001
0000
,
0100
0001
1000
0100
0020
1030
0020
0031
,
1001
0000
0000
0001
0100
0000
0010
0000
2000
0000
0200
0000
0000
0000
3300
0000
,
1100
0000
0000
0000
1000
0000
0010
0000
0100
0001
0000
0001
0010
0000
0100
0000
,
0000
1000
0000
1000
0010
0000
0100
0000
0000
0001
0000
0001
0010
0000
0000
0000
,
0110
0010
0001
1000
1010
1000
1100
0000
,
0011
0001
0101
0000
0110
0000
1001
0000
,
1010
0000
0010
0000
0100
0001
0000
1000
0001
0000
0010
0000
0100
1000
0100
0000
,
0000
0000
0010
0000
0001
0100
0001
0000
0000
0000
1000
0000
0010
0000
0100
0000
,
0101
0000
0000
0001
0000
0000
0010
0000
0000
0100
1000
0000
0001
0000
0000
0000
,
1100
0000
0000
1000
0000
0000
0010
0000
0000
0100
0001
0000
1000
0000
1000
0000
,
2002
3003
0000
0000
0000
0000
0000
0000
;

//--------------- dance-single - Marten ----------------
#NOTES:
     dance-single:
     Marten:
     Hard:
     16:
     0,0,0,0,0:
0000
0000
0000
0000
,
0000
0000
0000
0000
,
0000
0000
0000
0000
,
0000
0000
0000
0000
,
0101
0000
0000
0001
0010
0000
0100
0000
0000
1000
0002
0000
1003
0000
0000
0000
,
0100
0000
0000
1000
0010
0000
0100
0000
0000
0001
2000
0000
3001
0000
0001
0000
,
0010
0000
0001
0100
0010
0000
0100
0000
0001
0010
0200
0000
1300
0000
0000
0000
,
0010
0000
1000
0100
0010
0000
0100
0000
1000
0010
0200
0000
0301
0000
0001
0000
,
1001
1010
0101
0110
,
0010
0010
1000
1000
0001
0001
0010
0010
,
0100
1000
0100
1000
0001
1000
0001
1000
0010
1000
0010
1000
0100
0010
0001
1000
,
0020
0000
0000
0030
0020
0000
0030
0000
0200
0300
0010
0000
1001
0000
0000
0000
,
1010
0000
1000
0000
0100
0010
0000
0100
0010
0000
0002
0000
0103
0010
0000
0100
,
0010
0000
2000
0000
3100
0010
0000
0100
0010
0000
0002
0000
0103
0000
0100
0000
,
0110
0000
0010
1000
0100
0000
1000
0000
0020
0000
0031
0000
2000
0000
3100
0000
,
0020
1030
0200
0310
2000
3010
0001
0000
,
1001
0000
0002
0000
0103
1000
0000
0100
0010
0000
2000
0000
3100
0010
0000
0010
,
0100
0000
0001
0000
0100
0010
0000
0010
0100
0000
1000
0000
0010
0100
0001
0010
,
0100
1000
0001
0100
2000
3001
0020
1030
,
1010
0000
1000
0100
0010
0000
1000
0000
0010
0001
0200
0000
0000
0000
0300
0000
,
0110
0000
0100
0000
0001
0010
0000
0100
0010
0200
0300
2000
3001
2000
3000
0020
,
1030
0020
0030
0200
0301
0200
0300
0002
0013
0002
0003
0020
0130
0000
1000
0000
,
1001
0000
0001
0000
1000
0100
0010
0000
0011
0000
0001
0000
0101
0000
0100
0000
,
1100
0000
1000
0000
1010
0000
0020
0000
0031
0100
0001
0100
0010
1000
0010
1000
,
0001
0000
0010
0000
0100
1000
0000
0010
0001
0010
0100
0000
0002
0000
0013
0000
,
1000
0010
0100
0000
2000
0000
3010
0000
0001
0010
0100
0000
0002
0000
0013
0000
,
0011
0000
0000
1001
0000
0000
1100
0000
0000
1000
0010
0000
0001
0000
0010
0000
,
1010
0000
0000
1001
0000
0000
0101
0000
0000
0001
0010
0000
1000
0000
0010
0000
,
0002
0000
0000
0000
1003
0010
0210
0000
,
0000
0000
1000
0000
0000
0000
0301
0010
0100
0000
1000
0000
0001
0000
1000
0000
,
1002
0000
0000
0013
0110
1100
0201
0000
,
0300
0000
0000
0000
0000
0000
0001
0000
0000
0100
0000
0000
0001
0000
0000
0100
0000
0000
0010
0000
0000
1000
0000
0000
0001
0000
0000
0000
0000
0000
1000
0000
0000
0001
0000
0000
0020
0030
0000
0000
0000
0000
0000
0000
0000
0000
0000
0000
,
1001
0001
0000
1000
0010
0100
0010
0000
,
1000
0100
1000
0100
0010
0000
0001
0000
0100
0000
0001
0000
1000
0000
0000
0000
,
1001
0000
1000
0010
1000
0000
0100
0000
1000
0000
0001
0000
1000
0000
0010
1000
,
0001
0000
0010
0001
1000
0001
1000
0100
0010
0000
0001
0000
0101
0000
0000
0000
,
1010
0000
0000
1010
0000
0000
1100
0000
0200
0000
1300
0200
0000
0310
0001
0000
,
0011
0000
0000
0000
0000
0000
0000
0000
0000
0011
0000
0000
0000
0000
0000
0000
0000
0000
0101
0000
0000
0000
0000
0000
0001
0000
0000
0000
0100
0000
0000
0000
0100
0000
0000
0000
1000
0000
0000
0000
0100
0000
0000
0000
0100
0000
0000
0000
,
0101
0000
0000
0101
0000
0000
0011
0000
0020
0000
0031
0020
0000
0130
1000
0000
,
1100
0000
0000
0000
0000
0000
0000
0000
0000
1100
0000
0000
0000
0000
0000
0000
0000
0000
1020
0000
0000
0000
0000
0000
0000
0000
0000
0000
0130
0000
0000
0000
0001
0000
0000
0000
0010
0000
0000
0000
0000
0000
0000
0000
0000
0000
0000
0000
,
0001
0001
1000
1000
,
0010
1000
0100
0010
0001
0100
0010
1000
,
0001
1000
0001
1000
0001
1000
0001
1000
0010
0100
0010
0100
0010
0100
0010
0100
,
0002
0000
0000
0003
0002
0000
0003
0000
2000
3000
0010
0000
0110
0000
0000
0000
,
2001
3200
0302
0203
,
2300
0000
3002
0000
0203
0000
0310
0010
,
1001
0000
0001
0100
0010
0000
0100
0000
0101
0000
0001
0000
1001
0000
1000
0000
,
1100
0100
0110
0010
0011
0001
1000
0000
,
1010
0000
2000
0000
3001
0010
0000
0100
1000
0000
0002
0000
0103
0010
0000
0010
,
0100
0000
1000
0000
0100
0010
0000
0010
0100
0000
0001
0000
0010
0100
1000
0010
,
0100
0000
0001
0000
0100
0010
1000
0000
0200
0000
0301
0000
2000
0000
3010
0000
,
0011
0000
0001
0100
0010
0000
0001
0000
0010
1000
0200
0000
0000
0000
0300
0000
,
0110
0000
0010
0000
0001
0100
0010
0100
0001
0010
0000
0100
0010
0000
0010
0000
,
0001
0100
0000
0010
0100
0000
0100
0000
0010
1000
0000
0100
0010
0000
0100
0000
,
1100
0000
1000
0000
0010
1000
0100
1000
0010
0000
1000
0000
1100
0000
0100
0000
,
0101
0000
0001
0000
0011
0000
0020
0000
1030
0100
0010
0001
0100
0010
1000
0001
,
1000
0000
0100
0010
0001
0000
0100
0000
0001
1000
0100
0000
0001
0100
0020
0000
,
0031
0000
0100
0000
1000
0100
0020
0000
1030
0001
0000
0001
0020
0000
0130
0000
,
1100
0000
0000
1001
0000
0000
0011
0000
0000
0001
0100
0000
1000
0000
0100
0000
,
0101
0000
0000
1001
0000
0000
1010
0000
0000
1000
0100
0000
0001
0000
0100
0000
,
0220
0330
0000
0000
0000
0000
0000
0000
;

//--------------- dance-double - forcednature ----------------
#NOTES:
     dance-double:
     forcednature:
     Easy:
     8:
     0,0,0,0,0:
00000000
00000000
00000000
00000000
,
00000000
00000000
00000000
00000000
,
00000000
00000000
00000000
00000000
,
00000000
00000000
00000000
00000000
,
00011000
00000000
00000100
00001000
00000000
00000100
00010000
00000000
,
00001000
00000000
01000000
00010000
00000000
01000000
00001000
00000000
,
00011000
00000000
00000010
00001000
00000000
00000010
00010000
00000000
,
00001000
00000000
00100000
00010000
00000000
00100000
00001000
00000000
,
00011000
00000000
00001000
00000000
,
00000010
00000010
00000001
00000001
,
00000100
00000001
00000100
00000000
00000010
00001000
00000010
00000000
,
00010000
00010000
00001000
00011000
,
01001000
02000000
03010000
20000000
,
30010000
00000000
00200000
00000000
00310000
00000000
01000000
00010000
,
01000000
00001000
00020000
00030200
,
00002300
00003002
00000203
00000310
,
00001001
00000000
00002000
00000000
00003100
00000000
00010000
00001000
,
00001000
00000000
00010000
00001000
00001000
00000000
01000000
00000000
,
10010000
00000000
10000000
00000000
02000000
00000000
03100000
00010000
,
00200000
00000000
00302000
00000000
00023000
00000000
00000000
00030000
,
00011000
00000100
00002000
00003002
,
00000203
00000000
00000320
00000000
00002030
00000000
00003001
00000010
,
00000001
00000100
00000110
00001010
,
00010010
00011000
02002000
03003000
,
01000000
00010000
00200000
00301000
,
00020000
00031000
02000000
03001000
,
00010000
00000000
00000000
00010000
00000000
00000000
00001000
00000000
00000000
00001000
00000000
00000000
01000000
00000000
00000000
00000000
,
00001000
00000000
00000000
00001000
00000000
00000000
00010000
00000000
00000000
00010000
00000000
00000000
00000100
00000000
00000000
00000000
,
00000120
00000000
00000001
00000230
,
00000000
00001000
00000000
00000000
00010300
00000000
00001000
00000000
,
02000000
00000000
00010000
03200000
,
00000000
00000000
00000000
00000000
00000000
00000000
00000000
00000000
00000000
00000000
00000000
00000000
10300000
00000000
00000000
00000000
00000000
00000000
00000000
00000000
00000000
00000000
00000000
00000000
10000000
00000000
00000000
00000000
00000000
00000000
00000000
00000000
00000000
00000000
00000000
00000000
02000000
03000000
00000000
00000000
00000000
00000000
00000000
00000000
00000000
00000000
00000000
00000000
,
00100000
00000000
00001000
00001000
,
00010000
00000100
00010000
00000000
00001000
00000000
01000000
00000000
,
01100000
00100000
10000000
10000000
,
01000000
00100000
01000000
00000000
00010000
00000000
00000000
00000000
,
00001000
00000000
00000000
00001000
00000000
00000000
01000000
00000000
00000000
00000000
00000000
00000000
00000000
00000000
00000000
00000000
,
00010000
00000000
00000000
00010000
00000000
00000000
00000100
00000000
00000000
00000000
00000000
00000000
00000000
00000000
00000000
00000000
,
00001000
00000000
00000000
00001000
00000000
00000000
00100000
00000000
00000000
00000000
00000000
00000000
00000000
00000000
00000000
00000000
,
00010000
00000000
00000000
00010000
00000000
00000000
00000010
00000000
00000000
00000000
00000000
00000000
00000000
00000000
00000000
00000000
,
00020000
00000000
00032000
00000000
,
00003010
00000010
00000100
00000100
,
00001000
00000100
00001000
00000000
00000001
00000010
00000001
00000000
,
00000100
00000000
00000100
00000000
00001000
00010000
00001000
00000000
,
00100000
02000000
03000000
02000000
,
03000000
00000000
02000000
00000000
13000000
00010000
10000000
00000000
,
01020000
00230000
00302000
00023000
,
00030020
00002030
00003002
00000013
,
00000110
00000000
00000200
00000000
00001300
00000000
00000100
00010000
,
00010000
00000000
00001000
00010000
00010000
00000000
00100000
00000000
,
01100000
00000000
01000000
00000000
00020000
00000000
10030000
01000000
,
20000000
00000000
30020000
00000000
00230000
00000000
00000000
00300000
,
00011000
00000000
00010000
00000000
00000000
00000010
00000010
00000000
,
00000000
00000100
00000100
00000000
00000000
00000010
00000010
00000000
,
00001001
00001000
00001100
00011000
,
00110000
01100000
20020000
30030000
,
01010000
00000000
01000000
00000000
00001000
00000000
00010000
00000100
,
00010000
00000000
00001000
01000000
00001000
00000000
00010000
00000000
,
00001000
00000000
00000000
01000000
00000000
00000000
00010000
00000000
00000000
00100000
00000000
00000000
00001000
00000000
00000000
00000000
,
00010000
00000000
00000000
00000100
00000000
00000000
00001000
00000000
00000000
00000010
00000000
00000000
00010000
00000000
00000000
00000000
,
00022000
00033000
00000000
00000000
00000000
00000000
00000000
00000000
;

//--------------- dance-double - forcednature ----------------
#NOTES:
     dance-double:
     forcednature:
     Medium:
     13:
     0,0,0,0,0:
00000000
00000000
00000000
00000000
,
00000000
00000000
00000000
00000000
,
00000000
00000000
00000000
00000000
,
00000000
00000000
00000000
00000000
,
00011000
00000000
00000000
00001000
00000000
00000000
01000000
00000000
00000000
00010000
10000000
00000000
00100000
00000000
00000000
00000000
,
00010000
00000000
00000000
00010000
00000000
00000000
00000100
00000000
00000000
00001000
00000001
00000000
00000010
00000000
00000010
00000000
,
00001000
00000000
00000000
00001000
00000000
00000000
01000000
00000000
00000000
00010000
10000000
00000000
00100000
00000000
00000000
00000000
,
00010000
00000000
00000000
00010000
00000000
00000000
00000100
00000000
00000000
00001000
00000001
00000000
00000010
00000000
00000010
00000000
,
00000110
00000100
00010000
00010000
,
00001000
01000000
00001000
01000000
00010000
10000000
00010000
10000000
,
01000000
00000000
00100000
00000000
00010000
00000000
00100000
00000000
00001000
00000000
00010000
00000000
00000010
00001000
00000010
00000000
,
00000200
00000000
00000000
00000300
00000200
00000000
00000300
00000000
00000020
00000030
00010000
00000000
00011000
00000000
00000000
00000000
,
00020100
00000000
00000000
00000000
00031000
00100000
00000000
00010000
00200000
00000000
00000000
00000000
00301000
00010000
00000000
00000100
,
00002000
00000000
00000000
00000000
00003100
00010000
00000000
00001000
00200000
00000000
00310000
00000000
10000000
00000000
00000000
00000000
,
00100000
01000000
00100000
10000000
00020000
00130000
00020000
10030000
,
00020000
01030000
00200000
00310000
00002000
00013000
00010100
00000000
,
00020010
00000000
00000000
00000000
00031000
00010000
00000000
00001000
01000000
00000000
00020000
00000000
00000000
00130000
00000000
00001000
,
00010000
00000000
00010000
00000000
00000000
00000010
00000000
00010000
00001000
00000000
00001000
00000000
00100000
00000000
00000000
00000000
,
01000000
00010000
00001000
00000010
00000200
00000301
00000200
00001300
,
00001001
00000000
00000000
00000001
00000100
00000000
00001000
00000000
00020000
00000000
00002000
00000000
00000000
00000000
00033000
00000000
,
01001000
00000000
01000000
00000000
00010000
00000000
00100000
00000000
00010000
10000000
00000000
10000000
00000000
01000000
00000000
01000000
,
00000000
00100000
00000000
00100000
00000000
00010000
00000000
00010000
00000000
00001000
00000000
00001000
00000100
00000000
00000000
00000000
,
00000110
00000000
00000010
00000000
00000001
00001000
00000001
00000000
00000100
00000000
00000100
00000000
00001000
00000000
00001000
00000000
,
00010000
00010000
00100000
00200000
01300000
00010000
10000000
00000000
,
10100000
00000000
00100000
00000000
01000000
00000000
00010000
00000000
01000000
00010000
01000000
00000000
00000000
00001000
00010000
00000000
,
00000100
00001000
00000100
00000000
00000000
00010000
00001000
00000000
01000000
00010000
01000000
00000000
00100000
00000000
00000000
00000000
,
11000000
00000000
00000000
01100000
00000000
00000000
00110000
00000000
00000000
00001000
00010000
00000000
00000100
00000000
00000000
00000000
,
00000101
00000000
00000000
00000110
00000000
00000000
00001010
00000000
00000000
00010000
00001000
00000000
01000000
00000000
00000000
00000000
,
01200000
00000000
10300000
12000000
,
00000000
00010000
00000000
13000000
01000000
00010000
00001000
00000010
,
00000020
00000000
00000000
00000000
00000031
00000100
00000210
00000000
,
00000000
00000000
00000000
00000000
00000000
00000000
00001000
00000000
00000000
00000000
00000000
00000000
00000000
00000000
00000000
00000000
00000000
00000000
00001300
00000000
00000000
00000000
00000000
00000000
00000100
00000000
00000000
00000000
00000000
00000000
00000010
00000000
00000000
00000000
00000000
00000000
00020000
00030000
00000000
00000000
00000000
00000000
00000000
00000000
00000000
00000000
00000000
00000000
,
00002000
00000000
00000000
00000000
00013000
00010000
00100000
00000000
,
10000000
01000000
00010000
01000000
00010000
00001000
00001000
00000000
,
00000010
00000001
00000100
00000010
00001000
00000001
00000100
00000000
,
00001000
00010000
00001000
00010000
00200000
00000000
01300000
00000000
,
01001000
00000000
00000000
01001000
00000000
00000000
00010010
00000000
00000000
00000000
00000000
00000000
00000000
00000000
00000000
00000000
,
00010100
00000000
00000000
00010100
00000000
00000000
00101000
00000000
00000000
00000000
00000000
00000000
00000000
00000000
00000000
00000000
,
01100000
00000000
00000000
01100000
00000000
00000000
00011000
00000000
00000000
00000000
00000000
00000000
00000000
00000000
00000000
00000000
,
00000110
00000000
00000000
00000000
00000000
00000000
00000000
00000000
00000000
00000110
00000000
00000000
00000000
00000000
00000000
00000000
00000000
00000000
00012000
00000000
00000000
00000000
00000000
00000000
00000000
00000000
00000000
00000000
00013000
00000000
00000000
00000000
00001000
00000000
00000000
00000000
00100000
00000000
00000000
00000000
00000000
00000000
00000000
00000000
00000000
00000000
00000000
00000000
,
01000000
10000000
01000000
10000000
,
01000000
00010000
00001000
00000010
00000100
00010000
00001000
01000000
,
00100000
00000000
00100000
00000000
00010000
00000000
00010000
00000000
00001000
00000000
00001000
00000000
00010000
00000100
00010000
00000000
,
00002000
00000000
00000000
00003000
00002000
00000000
00003000
00000000
00000020
00000030
00000001
00000000
00000011
00000000
00000000
00000000
,
00001002
00000203
00000320
00002030
,
00023000
00000000
02030000
00000000
03100000
10000000
00010000
00010000
,
00110000
00101000
00010010
00001010
,
00000010
00000100
00001000
00000100
00000001
00001000
00000100
00000000
,
00001100
00000000
00001000
00000000
00000100
00010000
00000000
00001000
00200000
00000000
00000000
00000000
00301000
00010000
00000000
00000100
,
00002000
00000000
00000000
00000000
00003100
00010000
00000000
00001000
00200000
00000000
00000000
00000000
01300000
00000000
10000000
00000000
,
00010000
01000000
00001000
00010000
00000200
00000310
00000200
00001300
,
00001001
00000000
00000000
00000001
00000100
00000000
00001000
00000000
00020000
00000000
00002000
00000000
00000000
00000000
00033000
00000000
,
00011000
00000000
00000000
00000000
00010000
00000000
00000100
00000000
00001000
00000010
00000000
00000010
00010000
00000000
00001000
00000000
,
00000000
00100000
00000000
00100000
00001000
00000000
00010000
00000000
00000000
00000010
00000000
00000010
00010000
00000000
00000000
00000000
,
00011000
00001000
01000000
00100000
10100000
00100000
01100000
00000000
,
00110000
00100000
01100000
00000000
01001000
00000000
00010100
00000000
,
00001100
00000000
00000100
00000000
00001000
00000010
00000000
00000000
00010000
00000100
00010000
00000000
00000000
00001000
00010000
00000000
,
00001000
01000000
00001000
00000000
00000000
00010000
00001000
00000000
00000000
00000000
00010000
00000000
00100000
00000000
10000000
00000000
,
10010000
00000000
00000000
10000000
00000000
00000000
01000000
00000000
00000000
00010000
00001000
00000000
00000010
00000000
00000000
00000000
,
00001001
00000000
00000000
00000001
00000000
00000000
00000100
00000000
00000000
00001000
00010000
00000000
00100000
00000000
00000000
00000000
,
20020000
30030000
00000000
00000000
00000000
00000000
00000000
00000000
;

//--------------- dance-double - forcednature ----------------
#NOTES:
     dance-double:
     forcednature:
     Hard:
     16:
     0,0,0,0,0:
00000000
00000000
00000000
00000000
,
00000000
00000000
00000000
00000000
,
00000000
00000000
00000000
00000000
,
00000000
00000000
00000000
00000000
,
00011000
00000000
00000000
00001000
00010000
00000000
00100000
00000000
00000000
00100000
20000000
00000000
31000000
00000000
00000000
00000000
,
00010000
00000000
00000000
00010000
00001000
00000000
00000010
00000000
00000000
00000010
00000002
00000000
00000103
00000000
00000100
00000000
,
00001000
00000000
00010000
00000100
00010000
00000000
00001000
00000000
01000000
00010000
00200000
00000000
01300000
00000000
00000000
00000000
,
00010000
00000000
00001000
01000000
00001000
00000000
00010000
00000000
00000100
00001000
00000020
00000000
00000130
00000000
00000100
00000000
,
00000101
00010010
01001000
10100000
,
10000000
10000000
01000000
01000000
00010000
00010000
00001000
00001000
,
00010000
00000100
00010000
00000100
00001000
00000100
00001000
00000100
00000010
00000001
00000010
00000001
00001000
00000001
00000100
00000010
,
00002000
00000000
00000000
00003000
00002000
00000000
00003000
00000000
00000200
00000300
00010000
00000000
00011000
00000000
00000000
00000000
,
01001000
00000000
00001000
00000000
00100000
00001000
00000000
00010000
00000100
00000000
00020000
00000000
00030010
00010000
00000000
00001000
,
01000000
00000000
00002000
00000000
00103000
00001000
00000000
00010000
00000100
00000000
00020000
00000000
00030010
00000000
00000010
00000000
,
00000110
00000000
00000100
00000001
00001000
00000000
00000010
00000000
00000200
00000000
00001300
00000000
00020000
00000000
00130000
00000000
,
20000000
31000000
00020000
01030000
00200000
00301000
00010000
00000000
,
00010100
00000000
00020000
00000000
00030010
00001000
00000000
00010000
01000000
00000000
00002000
00000000
00103000
00010000
00000000
00010000
,
01000000
00000000
00001000
00000000
00100000
00010000
00000000
00010000
01000000
00000000
00001000
00000000
00010000
00000100
00001000
00000100
,
00000010
00000001
00000100
00000001
00000020
00001030
00020000
00130000
,
01100000
00000000
01000000
00010000
10000000
00000000
01000000
00000000
00010000
00001000
00020000
00000000
00000000
00000000
00030000
00000000
,
00011000
00000000
00001000
00000000
00000100
00000001
00000000
00000010
00000100
00000020
00000030
00000002
00001003
00000002
00000003
00000200
,
00001300
00000200
00000300
00000020
00010030
00000020
00000030
00002000
00003100
00002000
00003000
00000020
00010030
00000000
00010000
00000000
,
00011000
00000000
00001000
00000000
00010000
00100000
01000000
00000000
01100000
00000000
00100000
00000000
10100000
00000000
10000000
00000000
,
11000000
00000000
01000000
00000000
01010000
00000000
00020000
00000000
00031000
00010000
00001000
00010000
00000100
00001000
00000100
00000010
,
00000001
00000000
00000100
00000000
00001000
00010000
00000000
00001000
00010000
00001000
00000100
00000000
00000020
00000000
00010030
00000000
,
00001000
00010000
01000000
00000000
00200000
00000000
00301000
00000000
00010000
00001000
00000100
00000000
00000020
00000000
00010030
00000000
,
00011000
00000000
00000000
00010100
00000000
00000000
01001000
00000000
00000000
00001000
00010000
00000000
00100000
00000000
10000000
00000000
,
11000000
00000000
00000000
01010000
00000000
00000000
00011000
00000000
00000000
00001000
00000100
00000000
00000001
00000000
00001000
00000000
,
00000020
00000000
00000000
00000000
00000130
00001000
00021000
00000000
,
00000000
00000000
00100000
00000000
00000000
00000000
00031000
00010000
00000010
00000000
00001000
00000000
00010000
00000000
01000000
00000000
,
01200000
00000000
00000000
10300000
11000000
01100000
00120000
00000000
,
00030000
00000000
00000000
00000000
00000000
00000000
10000000
00000000
00000000
00010000
00000000
00000000
10000000
00000000
00000000
01000000
00000000
00000000
00100000
00000000
00000000
00010000
00000000
00000000
00001000
00000000
00000000
00000000
00000000
00000000
00000100
00000000
00000000
00001000
00000000
00000000
00000020
00000030
00000000
00000000
00000000
00000000
00000000
00000000
00000000
00000000
00000000
00000000
,
00000110
00000100
00000000
00000001
00000100
00001000
01000000
00000000
,
00100000
10000000
00100000
10000000
01000000
00000000
00010000
00000000
00001000
00000000
00000010
00000000
00000001
00000000
00000000
00000000
,
00001001
00000000
00000001
00000100
00000001
00000000
00000010
00000000
00001000
00000000
00000010
00000000
00000100
00000000
00001000
00000100
,
00010000
00000000
00001000
01000000
00010000
01000000
00100000
10000000
00010000
00000000
00100000
00000000
01100000
00000000
00000000
00000000
,
11000000
00000000
00000000
01100000
00000000
00000000
00110000
00000000
00020000
00000000
01030000
00020000
00000000
00130000
00001000
00000000
,
00011000
00000000
00000000
00000000
00000000
00000000
00000000
00000000
00000000
00010100
00000000
00000000
00000000
00000000
00000000
00000000
00000000
00000000
00001001
00000000
00000000
00000000
00000000
00000000
00000001
00000000
00000000
00000000
00000100
00000000
00000000
00000000
00000100
00000000
00000000
00000000
00001000
00000000
00000000
00000000
00000100
00000000
00000000
00000000
00000100
00000000
00000000
00000000
,
00000110
00000000
00000000
00001001
00000000
00000000
00010100
00000000
00020000
00000000
00031000
00020000
00000000
00031000
01000000
00000000
,
10100000
00000000
00000000
00000000
00000000
00000000
00000000
00000000
00000000
11000000
00000000
00000000
00000000
00000000
00000000
00000000
00000000
00000000
10020000
00000000
00000000
00000000
00000000
00000000
00000000
00000000
00000000
00000000
00130000
00000000
00000000
00000000
00001000
00000000
00000000
00000000
00020000
00000000
00000000
00000000
00000000
00000000
00000000
00000000
00000000
00000000
00000000
00000000
,
00031000
00001000
00010000
00010000
,
00100000
10000000
01000000
00010000
00001000
00000100
00000001
00000010
,
00000100
00010000
00000100
00010000
00000100
00010000
00000100
00010000
00001000
01000000
00001000
01000000
00001000
01000000
00001000
01000000
,
00020000
00000000
00000000
00030000
00020000
00000000
00030000
00000000
20000000
30000000
01000000
00000000
11000000
00000000
00000000
00000000
,
00120000
02030000
03002000
00003200
,
00002300
00000000
02003000
00000000
03020000
00000000
00130000
00100000
,
01100000
00000000
01000000
10000000
00100000
00000000
01000000
00000000
01001000
00000000
00001000
00000000
00011000
00000000
00010000
00000000
,
00010100
00000100
00000110
00000010
00000011
00000001
00000100
00000000
,
01001000
00000000
00002000
00000000
00103000
00010000
00000000
00001000
00000100
00000000
00020000
00000000
00030010
00001000
00000000
00001000
,
00000100
00000000
00010000
00000000
00000010
00001000
00000000
00001000
00000100
00000000
00010000
00000000
00001000
01000000
00010000
01000000
,
00100000
00000000
10000000
00000000
01000000
00100000
00010000
00000000
02000000
00000000
03001000
00000000
00020000
00000000
00031000
00000000
,
00010100
00000000
00000100
00001000
00000010
00000000
00010000
00000000
00000010
00001000
00000200
00000000
00000000
00000000
00000300
00000000
,
00000110
00000000
00000010
00000000
00000001
00000100
00000010
00001000
00000100
00010000
00000000
00001000
00000010
00000000
00000010
00000000
,
00000100
00010000
00000000
00001000
00000010
00000000
00000010
00000000
00000100
00010000
00000000
00001000
01000000
00000000
00100000
00000000
,
10100000
00000000
10000000
00000000
01000000
00100000
00010000
00100000
01000000
00000000
00010000
00000000
00011000
00000000
00001000
00000000
,
00001100
00000000
00000100
00000000
00000110
00000000
00000020
00000000
00001030
00000100
00000010
00000001
00001000
00000001
00000100
00000010
,
00001000
00000000
00010000
01000000
00100000
00000000
10000000
00000000
01000000
00010000
00001000
00000000
01000000
00001000
00020000
00000000
,
00130000
00000000
10000000
00000000
01000000
00010000
00002000
00000000
00003010
00000100
00000000
00000100
00002000
00000000
00003001
00000000
,
00000101
00000000
00000000
00001100
00000000
00000000
00011000
00000000
00000000
00010000
00100000
00000000
10000000
00000000
00000000
00000000
,
11000000
00000000
00000000
01010000
00000000
00000000
00011000
00000000
00000000
00001000
00000010
00000000
00000001
00000000
00000000
00000000
,
00000220
00000330
00000000
00000000
00000000
00000000
00000000
00000000
;
