#TITLE:Miroir Riorim;
#SUBTITLE:;
#ARTIST:cosMo@暴走P;
#TITLETRANSLIT:;
#SUBTITLETRANSLIT:;
#ARTISTTRANSLIT:cosMo@BousouP;
#GENRE:;
#CREDIT:;
#BANNER:Miroir Riorim.png;
#BACKGROUND:Miroir Riorim-bg.png;
#LYRICSPATH:;
#CDTITLE:;
#MUSIC:Miroir Riorim.ogg;
#OFFSET:1.030000;
#SAMPLESTART:92.910652;
#SAMPLELENGTH:18.700001;
#SELECTABLE:YES;
#DISPLAYBPM:195.000000:205.000000;
#BPMS:0.000000=195.000000
,30.000000=150.000000
,33.000000=145.000000
,34.000000=140.000000
,35.000000=95.000000
,36.250000=205.000000
;
#STOPS:
;
#BGCHANGES:;
#KEYSOUNDS:;
#ATTACKS:;

//---------------dance-single - ----------------
#NOTES:
     dance-single:
     :
     Hard:
     17:
     0.915674,1.373780,0.167356,0.317976,0.899536,766.000000,746.000000,20.000000,38.000000,0.000000,0.000000,0.915674,1.373780,0.167356,0.317976,0.899536,766.000000,746.000000,20.000000,38.000000,0.000000,0.000000:
0000
0000
0000
0000
,
0000
0000
0000
0000
,
0000
0000
0000
0000
,
0000
0000
0000
0000
,
0000
0000
0000
0000
,
0001
0100
0010
0100
,
1000
0100
0001
1000
,
0200
0000
0000
0000
,
0000
0000
0000
0000
,
0000
0300
0000
0000
0000
0000
0000
0000
,
1000
0001
0100
0000
0001
1000
0100
0000
,
0010
0001
1000
0000
0010
1000
0001
0000
,
1000
0100
0010
0000
0001
0010
0100
0000
,
1000
0000
0000
0001
0000
0000
0100
0000
0010
0000
1000
0000
0001
0000
1000
0000
0100
0000
0010
0000
0001
0000
1000
0000
,
0010
0100
0001
0000
0010
0100
1000
0000
,
0100
0000
0010
0000
0001
0000
0000
0000
0100
0000
0010
0000
1000
0001
1000
0001
,
1000
0000
0000
0100
0000
0000
0010
0000
1001
0000
0000
0001
0000
0000
0100
0000
,
1000
0000
0100
0000
0001
0000
1000
0000
0100
0010
0001
0000
0010
0100
1000
0000
,
0001
0100
0010
0001
0010
1000
0001
0020
,
0100
0000
0000
0000
0031
0000
0000
0000
0010
0000
0000
0010
0000
0000
0010
0000
,
0001
1000
0010
0001
0010
1000
0001
1000
,
0100
0000
0001
0000
0100
0000
1000
0000
0001
0000
0100
0000
1000
0000
0100
0010
,
0100
0001
1000
0200
0000
0301
1000
0010
,
0001
0000
2000
0000
0000
0000
0000
0000
3010
0000
0100
0000
1000
0000
0100
0010
,
0100
0000
0000
0001
0000
0000
1000
0000
0200
0000
0000
0000
0310
0000
0000
0000
,
0001
0000
1000
0000
0100
0000
0010
0000
0001
1000
0001
1000
0010
0000
0000
0000
,
1001
1000
0100
0001
0100
1000
0001
0200
,
0010
0000
0000
0000
0301
0000
0000
0000
0100
0000
0000
0100
0000
0000
0100
0000
,
0001
0000
0000
1000
0000
0000
0100
0000
0010
0000
0100
0000
0001
0000
0100
0000
0010
0000
0001
0000
1000
0000
0010
0000
,
0100
0000
0001
1000
0100
1000
0100
1000
0200
0000
0000
0320
0000
0000
0031
0000
,
1001
0000
0000
0000
1000
0000
0001
0010
0100
0010
0100
0010
0100
0000
1000
0000
,
0001
0000
0100
0001
1000
0000
0001
0010
0100
0000
0010
0001
1000
0010
1000
0010
,
1000
0001
0100
0010
1000
0010
0001
0010
0100
0001
1000
0100
,
0010
0000
0000
0001
0000
0000
1000
0000
0000
0010
0000
0000
0100
0000
0001
0000
1000
0000
0100
0000
0010
0000
0001
0000
,
0100
0010
0100
2000
0000
3100
0001
1000
,
0100
0010
0100
0002
0000
0103
0010
0001
,
1000
0010
0001
1000
0100
0001
1000
0100
,
0010
0000
0001
1000
0001
1000
0010
0000
0100
0001
1000
0001
0010
0000
0001
0000
,
1001
1000
0100
0110
0000
0001
1001
1000
,
0010
0000
0110
0000
0000
0000
1000
0000
0001
0000
0010
0100
1000
0000
0001
0000
,
0101
1000
0100
0110
0000
0001
0011
1000
,
0010
0000
0110
0000
1000
0000
0001
0000
0010
0000
0100
1000
0100
1000
0100
1000
,
0001
0100
0010
0100
1000
0100
0001
1000
,
0100
0000
0010
0000
0100
0000
0001
0000
0100
0010
0100
0010
0001
0000
1000
0000
,
1001
0001
0100
0010
0001
0010
1000
0001
,
1000
0000
0100
0010
0001
0000
1000
0000
0001
0100
0001
0100
0001
0100
0001
0100
,
0010
1000
0001
0010
0000
0001
1000
0100
,
0001
0000
0000
0100
0000
0000
1000
0000
0000
0001
0000
0000
1000
0000
0010
0000
0100
0000
0001
0000
1000
0000
0100
0000
,
0010
0001
1000
0010
0100
0001
1000
0100
0010
1000
0010
0100
,
1000
0001
0010
0100
0010
0001
1000
0010
0100
1000
0100
0010
,
0001
0010
1000
0001
0010
1000
0001
0100
1000
0001
0100
1000
,
0200
0000
0000
0000
,
0000
0000
0000
0000
,
0000
0000
0000
0000
,
0000
0000
0000
0000
,
0301
0000
0100
0001
1000
0100
0010
0100
,
0002
0000
0103
0010
0001
0000
1000
0001
,
0100
0010
1000
0100
0010
0100
0001
0100
,
0010
0001
1000
0010
0100
0001
0010
0100
,
1000
0100
0010
0001
1000
0010
0100
0010
,
0002
0000
1003
0100
0010
0100
0001
1000
,
0200
0000
0310
1000
0010
0100
1000
0001
,
0100
0010
1000
0001
0010
0100
0010
1000
,
0020
0000
0000
0130
1000
0001
0100
0010
1000
0001
0010
0100
,
0010
0001
1000
0001
0100
0010
1000
0010
0100
0001
1000
0100
,
0010
0000
0000
0001
1000
0010
0100
0001
1000
0100
0010
0100
,
0001
0100
0010
0001
1000
0010
0100
0001
1000
0100
0010
0001
,
1000
0000
0000
0001
0000
0000
0100
0000
0000
0010
0000
0000
0002
0000
0000
0000
0000
0000
0013
0000
1000
0000
0001
0000
,
0020
0000
0000
0230
0000
0000
2300
0000
0000
3001
0100
0010
,
0001
0010
1000
0001
0010
0100
1000
0001
0100
0010
1000
0010
,
0100
0001
0010
0100
1000
0001
0100
0010
0001
0020
0000
0000
,
0130
0001
0010
0200
0000
0310
0001
0010
,
0100
1000
0010
0200
0000
0301
1000
0100
,
0010
0001
0010
0001
0010
0001
2000
0000
0000
0000
3010
0100
0010
0100
0001
0000
,
1000
0100
1000
0100
1000
0100
0010
0000
0001
0000
1000
0010
0100
0010
1000
0010
,
0100
0002
0100
0103
0010
1000
0001
0010
,
0100
2000
0100
3100
0010
0001
1000
0010
,
0100
0001
0100
0001
1000
0100
1000
0100
0010
0001
0010
0001
1000
0010
1000
0010
,
0200
0000
0000
0000
0000
0000
0000
0000
0310
0000
0000
0000
1000
0001
1000
0001
,
0010
0000
0100
0000
1000
0000
0001
0100
0010
0000
0000
1000
0000
0000
1000
0000
,
0002
0023
2030
3002
,
0203
0000
0000
1000
0000
0000
0310
0000
0002
0000
0000
1000
0000
0000
0103
0000
,
0020
0000
0000
0000
1030
0000
0001
0000
1000
0010
1000
0010
0100
0001
0100
0001
,
2000
0000
0000
0000
3001
0000
0010
0000
0110
0000
0100
1000
0001
0000
1000
0000
,
0001
0100
0010
0100
0001
0100
0010
0100
0001
0000
1000
0000
0001
0010
0100
1000
,
0001
0000
1000
0010
0000
0100
0010
0001
0010
0100
0001
1000
,
0100
0000
0010
0000
0001
1000
0010
1000
0001
1000
0100
0010
0001
0000
1000
0000
,
1002
0000
0000
0000
0000
0000
0103
0010
1000
0000
0000
1000
0001
0000
0001
0000
,
0010
0000
0110
0000
1100
0000
0000
0000
1001
0000
1000
0010
0100
0001
1000
0100
,
0020
0000
0000
0001
0000
0000
0130
0000
1000
0000
0001
0000
1000
0000
1000
0000
,
0010
0000
0110
0000
0101
0000
0000
0000
0100
0000
0001
1000
0100
0010
0001
1000
,
0010
0000
1000
0000
0001
0000
0010
0000
0100
0000
1000
0000
0010
1000
0001
0010
,
0100
1000
0001
0000
0100
0010
1000
0000
0001
1000
0100
0010
0001
0000
1000
0000
,
0001
0100
0001
0100
0010
1000
0010
1000
0001
0010
0001
0010
0100
1000
0100
1000
,
0001
0100
0001
1000
0001
0010
0100
1000
0001
1000
0100
1000
0001
0100
0010
1000
,
0001
0000
0000
2002
0000
0000
0000
0000
,
0000
0000
0000
0000
,
0000
0000
0000
0000
,
0000
0000
0000
0000
,
0000
0000
3003
0000
;

//---------------dance-double - ----------------
#NOTES:
     dance-double:
     :
     Hard:
     17:
     0.876226,1.290521,0.092046,0.317976,0.828410,733.000000,722.000000,11.000000,38.000000,0.000000,0.000000,0.876226,1.290521,0.092046,0.317976,0.828410,733.000000,722.000000,11.000000,38.000000,0.000000,0.000000:
00000000
00000000
00000000
00000000
,
00000000
00000000
00000000
00000000
,
00000000
00000000
00000000
00000000
,
00000000
00000000
00000000
00000000
,
00000000
00000000
00000000
00000000
,
10000000
01000000
00100000
00010000
,
00001000
00000100
00000010
00000001
,
00002000
00000000
00000000
00000000
,
00000000
00000000
00000000
00000000
,
00000000
00003000
00000000
00000000
00000000
00000000
00000000
00000000
,
00000001
00000100
00000010
00000000
00000100
00000010
00001000
00000000
,
00000010
00010000
00001000
00000000
00010000
00001000
00100000
00000000
,
00010000
00100000
01000000
00000000
00100000
01000000
10000000
00000000
,
00010000
00000000
00000000
01000000
00000000
00000000
00100000
00000000
10000000
00000000
00100000
00000000
01000000
00000000
00010000
00000000
10000000
00000000
00010000
00000000
00100000
00000000
00001000
00000000
,
00010000
00000010
00000100
00000000
00000001
00000010
00000100
00000000
,
00010000
00000000
00001000
00000000
00100000
00000000
00000000
00000000
01000000
00000000
10000000
00000000
00010000
10000000
00010000
10000000
,
00010000
00000000
00000000
10000000
00000000
00000000
01000000
00000000
01100000
00000000
00000000
00100000
00000000
00000000
00001000
00000000
,
00010000
00000000
00000010
00000000
00000100
00000000
00000001
00000000
00001000
00000100
00000010
00000000
00000001
00000010
00000100
00000000
,
00001000
00000001
00000100
00000020
00000000
00000130
00001000
00020000
,
00000000
00000000
00000000
00000000
00030010
00000000
00000000
00000000
00010000
00000000
00000000
00010000
00000000
00000000
00010000
00000000
,
00001000
00000010
00001000
00010000
00100000
00010000
00001000
00000100
,
00001000
00000000
00010000
00000000
01000000
00000000
00010000
00000000
00001000
00000000
00100000
00000000
00010000
00000000
10000000
00010000
,
20000000
00000000
30100000
02000000
00000000
03010000
10000000
01000000
,
00010000
00000000
00002000
00000000
00000000
00000000
00000000
00000000
00103000
00000000
00001000
00000000
00010000
00000000
00000010
00000100
,
00000010
00000000
00000000
00001000
00000000
00000000
00000001
00000000
00000020
00000000
00000000
00000000
00002030
00000000
00000000
00000000
,
00013000
00000000
00000010
00000000
00010000
00000000
00001000
00000000
00100000
00010000
00100000
00010000
10000000
00000000
00000000
00000000
,
10010000
00010000
01000000
00200000
00000000
10300000
00010000
00200000
,
00000000
00000000
00000000
00000000
00301000
00000000
00000000
00000000
00010000
00000000
00000000
00010000
00000000
00000000
00010000
00000000
,
00001000
00000000
00000000
00000100
00000000
00000000
00000010
00000000
00001000
00000000
00000001
00000000
00000010
00000000
00000100
00000000
00001000
00000000
00000010
00000000
00000100
00000000
00000010
00000000
,
00010000
00000000
00001000
00100000
00010000
00000000
00100000
00010000
10000000
00000000
00000000
10000000
00000000
00000000
10000000
00000000
,
10020000
00000000
00000000
00000000
01030000
00000000
00100000
10000000
00010000
10000000
00010000
00000000
00100000
00001000
00010000
00000000
,
00001000
00010000
00000100
00010000
00000100
00000000
00001000
00000100
00000010
00000000
00000001
00001000
00000010
00000100
00000010
00000000
,
00000100
00000001
00001000
00000100
00000010
00000001
00001000
00000010
00000100
00001000
00010000
00001000
,
01000000
00000000
00000000
00010000
00000000
00000000
10000000
00000000
00000000
01000000
00000000
00000000
00100000
00000000
00001000
00000000
00010000
00000000
00000010
00000000
00001000
00000000
00000100
00000000
,
00000010
00000100
00000001
00000200
00000000
00000310
00000001
00001000
,
00000010
00000100
00001000
00020000
00000000
00031000
00100000
00001000
,
00010000
00100000
10000000
00010000
00100000
10000000
00010000
01000000
,
00100000
00000000
00010000
10000000
00010000
00000000
01000000
00000000
00100000
01000000
00001000
00000000
00010000
00000000
00000000
00000000
,
00011000
00000000
00001000
00001010
00000000
00000010
00000011
00000000
,
00000001
00001001
00000000
00001000
00000010
00000010
00000100
00000100
,
00001000
00010000
00100000
00010000
00001000
01000000
00001000
00010000
,
01000000
00000000
00100000
00010000
00100000
00000000
00010000
00000000
10000000
00000000
00100000
01000000
00100000
01000000
00100000
01000000
,
00010000
10000000
01000000
00010000
02000000
00000000
03100000
00001000
,
00010000
00001000
00000100
00001000
00010000
00010000
00001000
00001000
,
00010000
00000100
00001000
00000100
00000001
00000100
00000010
00000001
,
00001000
00000000
00000001
00000100
00000001
00000000
00000100
00000000
00000010
00010000
00000010
00010000
00000010
00010000
00000010
00010000
,
00001000
00010000
00100000
02000000
00000000
03010000
10000000
01000000
,
00010000
00000000
00000000
01000000
00000000
00000000
00100000
00000000
00000000
00010000
00000000
00000000
10000000
00000000
00100000
00000000
01000000
00000000
00010000
00000000
10000000
00000000
01000000
00000000
,
00100000
00001000
00100000
00010000
10000000
00010000
01000000
00100000
01000000
00001000
00000000
00010000
,
00000010
00000100
00000010
00001000
00000001
00001000
00000100
00000010
00000100
00010000
00001000
01000000
,
00010000
01000000
10000000
00010000
00100000
10000000
00010000
00100000
10000000
00010000
01000000
10000000
,
02000000
00000000
00000000
00000000
,
00000000
00000000
00000000
00000000
,
00000000
00000000
00000000
00000000
,
00000000
00000000
00000000
00000000
,
13000000
00010000
10000000
01000000
00100000
01000000
00010000
01000000
,
00200000
00000000
00301000
00010000
00000100
00000000
00000010
00000001
,
00001000
00000001
00000100
00000010
00000100
00001000
00010000
00001000
,
00100000
00001000
00010000
01000000
00100000
01000000
10000000
00010000
,
01000000
00100000
10000000
00010000
00100000
01000000
00010000
00001000
,
00020000
00000000
00031000
00000010
00000100
00000010
00000001
00001000
,
00000020
00000000
00000130
00000001
00000100
00000010
00000100
00001000
,
00010000
00100000
00010000
00001000
01000000
00010000
00100000
01000000
,
20000000
00000000
00000000
30010000
01000000
00100000
10000000
00010000
10000000
01000000
00100000
00010000
,
00100000
00001000
00010000
00000010
00000100
00000010
00001000
00000001
00001000
00000100
00000010
00000001
,
00001000
00000000
00000000
00000001
00000100
00000010
00001000
00000010
00010000
00001000
00100000
00010000
,
10000000
00100000
01000000
00010000
10000000
01000000
00100000
00001000
00010000
00000010
00010000
00001000
,
00100000
00001000
01000000
00100000
00020000
00000000
00031000
00100000
,
00002000
00000000
00000000
00003020
00000000
00000000
00000032
00000000
00000000
00001003
00000010
00000100
,
00001000
00000100
00000010
00001000
00000001
00001000
00000100
00000010
00000100
00010000
00001000
00100000
,
00001000
00010000
00100000
10000000
00010000
00100000
01000000
00100000
10000000
00200000
00000000
00000000
,
00310000
10000000
00100000
02000000
00000000
03010000
10000000
01000000
,
00100000
01000000
00010000
00002000
00000000
00103000
00001000
00010000
,
00000010
00001000
00000010
00001000
00000010
00001000
00000002
00000000
00000000
00000000
00001003
00000100
00001000
00000100
00000010
00000000
,
00000001
00001000
00000001
00001000
00000010
00000000
00000100
00000000
00001000
00000000
00010000
00001000
00100000
00010000
00100000
00010000
,
10000000
00100000
01000000
01000000
00100000
00010000
00001000
00000100
,
00000001
00000010
00000100
00000100
00000010
00001000
00010000
01000000
,
10000000
00010000
00100000
00000000
01000000
00100000
00010000
00000000
00100000
00001000
00100000
00001000
00010000
00000010
00010000
00000010
,
00002000
00000000
00000000
00000000
00000000
00000000
00000000
00000000
00003001
00000000
00000000
00000000
00000100
00000010
00000100
00000010
,
00010000
00000000
00001000
00000000
00010000
00000000
01000000
00100000
01000000
00000000
00000000
10000000
00000000
00000000
00010000
00000000
,
01000000
00200000
00320000
00032000
,
00003100
00000000
00000000
00000001
00000000
00000000
00001000
00000000
00000100
00000000
00000000
00000010
00000000
00000000
00001000
00000000
,
00020000
00000000
00000000
00000000
01030000
00000000
00100000
00000000
00010000
00000000
10000000
00100000
01000000
00100000
10000000
00000000
,
00020000
00000000
00000000
00000000
00130000
00000000
01000000
00000000
00010000
00000000
00001000
00010000
00001000
00000000
00000010
00000000
,
00000001
00001000
00000010
00001000
00000001
00001000
00000010
00001000
00000002
00000000
00000000
00000000
00000103
00000010
00001000
00000010
,
00000100
00000001
00001000
00000100
00000000
00010000
00001000
00000100
00001000
00010000
00100000
00010000
,
00001000
00000000
01000000
00000000
00010000
00000000
10000000
01000000
00100000
00010000
10000000
00010000
10000000
00000000
00010000
00000000
,
20010000
00000000
00000000
00000000
00000000
00000000
30100000
01000000
00100000
00000000
00000000
01000000
00001000
00000000
00001000
00000000
,
00010000
00000000
00000100
00000000
00000110
00000000
00000000
00000000
00001000
00000000
00000001
00000010
00000001
00001000
00000010
00000100
,
00000001
00000000
00000000
00001000
00000000
00000000
00000100
00000000
00000010
00000000
00001000
00000000
00010000
00000000
00010000
00000000
,
00001000
00000000
01000000
00000000
01100000
00000000
00000000
00000000
00010000
00000000
10000000
00100000
01000000
00010000
10000000
00000000
,
00010000
00000000
00100000
00000000
01000000
00000000
10000000
00000000
00010000
00000000
01000000
00000000
00100000
10000000
00010000
00000000
,
00100000
00001000
00010000
00000000
00001000
00010000
00000010
00000000
00000100
00000001
00001000
00000100
00000010
00000000
00000001
00000000
,
00001000
00000010
00000100
00000010
00001000
00000010
00010000
00000000
00001000
01000000
00010000
01000000
00001000
01000000
00010000
00000000
,
10000000
01000000
10000000
00010000
10000000
01000000
00100000
00010000
00100000
00001000
00010000
00000010
00010000
00001000
00010000
00000010
,
00001000
00000000
00000000
00002002
00000000
00000000
00000000
00000000
,
00000000
00000000
00000000
00000000
,
00000000
00000000
00000000
00000000
,
00000000
00000000
00000000
00000000
,
00000000
00000000
00003003
00000000
;

//---------------dance-single - ----------------
#NOTES:
     dance-single:
     :
     Medium:
     15:
     0.680181,0.999113,0.108781,0.343079,0.338895,569.000000,556.000000,13.000000,41.000000,0.000000,0.000000,0.680181,0.999113,0.108781,0.343079,0.338895,569.000000,556.000000,13.000000,41.000000,0.000000,0.000000:
0000
0000
0000
0000
,
0000
0000
0000
0000
,
0000
0000
0000
0000
,
0000
0000
0000
0000
,
0000
0000
0000
0000
,
1000
0000
0010
0000
,
0100
0000
0001
0000
,
0020
0000
0000
0000
,
0000
0000
0000
0000
,
0000
0030
0000
0000
0000
0000
0000
0000
,
0001
0000
0100
0000
0010
1000
0001
0000
,
1000
0000
0100
0000
0010
0001
1000
0000
,
0001
0000
0010
0000
0100
1000
0001
0000
,
1000
0000
0000
0010
0000
0000
0100
0000
0000
0000
0100
0000
0001
0000
0000
0000
0001
0000
1000
0000
0000
0000
1000
0000
,
0100
0000
1000
0000
0100
0010
0001
0000
,
0100
0000
0001
0000
0100
0010
1000
0001
,
0010
0000
0000
0100
0000
0000
0100
0000
0010
0000
0000
0001
0000
0000
0001
0000
,
0100
1000
0100
0001
0010
0100
0010
0000
,
1001
0000
0001
0100
0000
0010
1000
0200
,
0000
0000
0000
0000
0310
0000
0000
0000
0001
0000
0000
0001
0000
0000
0001
0000
,
0100
0000
1000
0100
0000
0001
0010
0000
,
1000
0010
0000
0001
1000
0010
0100
0001
,
1000
0000
0100
0020
0000
0031
1000
0001
,
0100
0020
0000
0000
1030
0000
0001
0000
,
0010
0000
0000
0010
0000
0000
0010
0000
0200
0000
0000
0000
2300
0000
0000
0000
,
3001
0100
1000
0100
0001
0010
0100
0000
,
1001
0000
1000
0010
0000
0100
0001
0020
,
0000
0000
0000
0000
0130
0000
0000
0000
1000
0000
0000
1000
0000
0000
1000
0000
,
0002
0000
1003
0010
0001
0010
0100
0001
,
1000
0000
0100
0000
0001
0000
0100
0000
1000
0000
0000
1000
0000
0000
1000
0000
,
0002
0000
0000
0103
1000
0100
0010
1000
,
0001
0010
0100
1000
0001
0100
0010
1000
,
0002
0000
0013
0000
0110
0000
1000
0100
,
0001
0100
0010
0001
1000
0010
0100
0001
,
1000
0100
0010
0002
0000
0000
0103
0000
,
0001
0100
0010
2000
0000
0000
3100
0000
,
1000
0100
0010
0001
1000
0010
0100
0001
,
1000
0100
0010
0001
0100
0100
0010
0000
,
1001
0000
0001
0101
0000
0000
1001
0000
,
1000
1100
0000
0000
0001
0100
0010
0100
,
0001
1000
0100
0000
0001
0100
0000
1000
,
0001
0100
1000
0100
0010
1000
0001
0010
,
0100
1000
0001
0100
2000
0000
3100
0010
,
0001
0010
1000
0002
0000
1003
0100
0010
,
0000
0001
1000
0010
0001
0010
0100
0001
,
1000
0000
0100
0000
0010
0000
0001
0000
1000
0000
0010
0000
0100
0010
0100
0010
,
0100
0001
1000
0100
,
0010
0001
1000
0010
0200
0000
0000
0000
,
0301
0000
0001
1000
0000
1000
0100
0000
0100
0001
0000
0001
,
0100
0000
0100
1000
0000
1000
0001
0100
0001
0100
0001
0100
,
0020
0000
0000
0230
0000
0000
0301
1000
0001
1000
0001
1000
,
0200
0000
0000
0000
,
0000
0000
0000
0000
,
0000
0000
0000
0000
,
0000
0000
0000
0000
,
1300
0000
0001
0000
0100
0000
0010
1000
,
0001
0000
0010
0100
1000
0000
0001
0100
,
0010
1000
0001
0010
0100
1000
0100
0001
,
0200
0000
0310
0001
1000
0000
0001
0000
,
0100
0010
1000
0010
0100
0001
1000
0100
,
0002
0000
0103
0010
0001
1000
0010
0001
,
0020
0000
0130
0001
1000
0100
0010
0001
,
0100
0010
1000
0010
0100
0001
1000
0000
,
1001
0000
0000
0001
0000
0001
0010
0000
0010
0100
1000
0100
,
2000
0000
3001
0100
0010
0000
0100
0000
,
0001
0000
0001
1000
0000
1000
0100
0000
0100
0010
0000
0010
,
1000
0000
1000
0010
0000
0010
0001
0000
0001
1000
0010
1000
,
0010
0000
0100
0001
0010
0000
0100
1000
,
0020
0000
0000
0100
0000
0000
0130
0000
0000
0001
1000
0001
,
0010
0000
0010
0100
0000
0100
1000
0000
1000
0001
0000
0001
,
0200
0000
0000
0310
0000
0010
1000
0001
0010
0100
0000
0000
,
1000
0001
0100
2000
0000
3100
0010
0000
,
1000
0001
0010
2000
0000
3010
0001
1000
,
0010
0010
0100
2000
0000
3100
0001
1000
,
0100
0000
0100
0000
0010
0000
1000
0000
0010
0000
0001
0000
1000
0001
1000
0001
,
2000
0000
3010
0010
0000
0100
0010
1000
,
0002
0000
0013
0010
0000
0100
1000
0001
,
0100
0000
0010
0000
1000
0000
0001
0000
0010
0001
0010
0000
0001
1000
0001
1000
,
0002
0000
1003
1000
,
1002
0000
0000
0000
0103
0000
0010
0100
0010
0000
0000
0100
0000
0000
0100
0000
,
0001
2000
3200
0320
,
0031
0000
0000
1000
0000
0000
1000
0000
0010
0000
0000
0100
0000
0000
0100
0000
,
0002
0000
0000
0000
0000
0000
1003
0000
0100
0000
0010
0000
0001
1000
0001
0000
,
0200
0000
0000
0310
0001
0010
1000
0001
,
0010
0001
0010
0000
0100
0010
0100
0000
0020
0000
0000
0000
0031
1000
0001
1000
,
0001
0000
0001
0100
0000
0100
0010
1000
0010
1000
0010
1000
,
0001
0000
0000
0010
0000
0000
0100
0000
1000
0001
1000
0001
1000
0000
0000
0000
,
1002
0000
0000
0103
0010
0000
0001
0010
,
1000
0000
0001
0000
0011
0000
0000
0000
0010
0000
0001
1000
0001
0000
0100
0000
,
0001
0000
0000
0001
0000
0000
0001
0000
0010
0000
0000
0000
1000
0000
0010
0000
,
0001
0000
1000
0000
1010
0000
0000
0000
0010
0000
1000
0001
1000
0001
1000
0000
,
0100
0010
0001
1000
0020
0000
0130
0001
,
1000
0100
0001
0100
1000
0010
0001
0010
,
1000
0000
0001
0010
0001
0000
0010
0000
0001
0000
1000
0010
1000
0000
0010
0000
,
0100
0010
0100
0000
0010
1000
0010
0000
1000
0001
1000
0000
0001
0010
0001
0010
,
0001
0000
0000
2002
0000
0000
0000
0000
,
0000
0000
0000
0000
,
0000
0000
0000
0000
,
0000
0000
0000
0000
,
0000
0000
3003
0000
;

//---------------dance-double - ----------------
#NOTES:
     dance-double:
     :
     Medium:
     15:
     0.684963,0.999113,0.108781,0.368182,0.330527,573.000000,560.000000,13.000000,44.000000,0.000000,0.000000,0.684963,0.999113,0.108781,0.368182,0.330527,573.000000,560.000000,13.000000,44.000000,0.000000,0.000000:
00000000
00000000
00000000
00000000
,
00000000
00000000
00000000
00000000
,
00000000
00000000
00000000
00000000
,
00000000
00000000
00000000
00000000
,
00000000
00000000
00000000
00000000
,
00000001
00000000
00000100
00000000
,
00000010
00000000
00010000
00000000
,
00002000
00000000
00000000
00000000
,
00000000
00000000
00000000
00000000
,
00000000
00003000
00000000
00000000
00000000
00000000
00000000
00000000
,
00010000
00000000
00001000
00000000
00010000
00001000
00100000
00000000
,
00010000
00000000
10000000
00000000
00100000
10000000
00010000
00000000
,
00100000
00000000
00001000
00000000
00010000
00001000
00100000
00000000
,
00001000
00000000
00000000
00010000
00000000
00000000
00000100
00000000
00000000
00000000
00000100
00000000
00000010
00000000
00000000
00000000
00000010
00000000
00000001
00000000
00000000
00000000
00000001
00000000
,
00001000
00000000
00000010
00000000
00000100
00000010
00010000
00000000
,
00001000
00000000
00010000
00000000
00001000
00100000
01000000
00100000
,
00010000
00000000
00000000
10000000
00000000
00000000
00100000
00000000
01100000
00000000
00000000
00000000
10000000
00000000
00000000
00000000
,
00010000
00100000
01000000
00010000
00001000
00010000
00001000
00000000
,
00011000
00000000
00010000
00000100
00000000
00000010
00000001
00000200
,
00000000
00000000
00000000
00000000
00000310
00000000
00000000
00000000
00001000
00000000
00000000
00001000
00000000
00000000
00001000
00000000
,
00000001
00000000
00000100
00001000
00000000
00010000
00100000
00000000
,
01000000
00010000
10000000
01000000
00100000
10000000
00100000
00010000
,
20000000
00000000
00000000
30200000
00000000
01300000
00010000
10000000
,
00010000
00200000
00000000
00000000
00000000
00000000
00301000
00000000
,
00010000
00000000
00000000
00010000
00000000
00000000
00010000
00000000
00000200
00000000
00000000
00000000
00000320
00000000
00000000
00000000
,
00000031
00001000
00000010
00000100
00001000
00010000
00001000
00000000
,
00011000
00000000
00010000
00100000
00000000
01000000
00010000
00200000
,
00000000
00000000
00000000
00000000
01300000
00000000
00000000
00000000
10000000
00000000
00000000
10000000
00000000
00000000
10000000
00000000
,
00020000
00000000
01030000
00100000
00010000
00100000
10000000
00010000
,
00100000
00000000
01000000
00000000
00010000
00000000
01000000
00000000
00100000
00000000
00000000
00100000
00000000
00000000
00100000
00000000
,
00002000
00000000
00000000
00013000
00000010
00000100
00000001
00001000
,
00000100
00000010
00001000
00000001
00000100
00000010
00000001
00001000
,
00000020
00000000
00000130
00001000
00011000
00000000
00010000
00001000
,
01000000
00100000
00010000
10000000
01000000
00100000
10000000
00000000
,
00010000
00100000
01000000
20000000
00000000
00000000
31000000
00000000
,
00010000
00001000
01000000
00200000
00000000
00000000
00310000
00000000
,
00001000
00010000
00001000
00000010
00000100
00000010
00000001
00001000
,
00000010
00000100
00001000
00010000
00100000
00100000
01000000
00000000
,
10010000
00000000
00010000
00110000
00000000
00000000
00101000
00000000
,
00001000
00011000
00000000
00000000
00010000
00000010
00000100
00000010
,
00001000
00000001
00000010
00001000
00000010
00000001
00001000
00000010
,
00000100
00001000
00010000
00001000
01000000
00010000
10000000
10000000
,
01000000
00100000
10000000
00100000
00020000
00000000
10030000
00100000
,
01000000
00100000
00010000
00002000
00000000
00103000
00001000
00010000
,
00000000
00000100
00001000
00000100
00000010
00000100
00000001
00000100
,
00000010
00000000
00000001
00000000
00001000
00000000
00000010
00000000
00000100
00000000
00001000
00000000
00010000
00001000
00010000
00001000
,
00010000
00001000
01000000
00100000
,
10000000
00010000
00100000
01000000
00020000
00000000
00000000
00000000
,
00031000
00000000
00001000
00100000
00000000
00100000
00010000
00000000
00010000
10000000
00000000
10000000
,
00100000
00000000
00100000
00010000
00000000
00010000
00001000
00100000
00001000
00100000
00001000
00100000
,
00020000
00000000
00000000
20030000
00000000
00000000
30100000
00010000
00100000
00010000
00100000
00010000
,
00002000
00000000
00000000
00000000
,
00000000
00000000
00000000
00000000
,
00000000
00000000
00000000
00000000
,
00000000
00000000
00000000
00000000
,
00103000
00000000
00010000
00000000
10000000
00000000
00100000
01000000
,
00010000
00000000
10000000
01000000
00100000
00000000
00010000
00100000
,
00001000
00010000
00000010
00000100
00000010
00001000
00000001
00000010
,
00000100
00001000
00000100
00000010
00000001
00000000
00000001
00000000
,
00001000
00000010
00000100
00001000
00010000
00000100
00010000
00001000
,
00200000
00000000
00310000
10000000
00100000
01000000
00100000
00010000
,
00002000
00000000
00103000
00010000
10000000
00100000
01000000
00010000
,
10000000
01000000
00100000
00001000
00010000
00000100
00010000
00001000
,
00200000
00000000
00000000
00301000
00000000
00001000
00010000
00000000
00010000
00000010
00001000
00000010
,
00002000
00000000
00000000
00000000
00000000
00000000
00003001
00000000
00000000
00000010
00000000
00000000
00000100
00000000
00000000
00000000
00000000
00000000
00000010
00000000
00000001
00000000
00000010
00000000
,
00000002
00000000
00000000
00001003
00000000
00001000
00000010
00000000
00000010
00000100
00000000
00000100
,
00001000
00000000
00001000
00010000
00000000
00010000
00100000
00000000
00100000
01000000
00010000
01000000
,
00020000
00000000
10030000
01000000
00100000
00000000
00010000
10000000
,
02000000
00000000
00000000
00100000
00000000
00000000
03100000
00000000
00000000
00010000
10000000
00010000
,
01000000
00000000
01000000
00100000
00000000
00100000
00010000
00000000
00010000
00001000
00000000
00001000
,
00100000
00000000
00100000
00001000
00000000
00001000
00010000
00000100
00001000
00000200
00000000
00000000
,
00000310
00000001
00001000
00000020
00000000
00000130
00001000
00010000
,
00100000
00010000
00001000
00200000
00000000
00310000
10000000
00010000
,
00100000
00100000
01000000
00020000
00000000
00031000
00000010
00000001
,
00001000
00000000
00001000
00000000
00000010
00000000
00000200
00000000
00000000
00000000
00001300
00010000
00001000
00010000
00001000
00000000
,
00010000
00100000
01000000
00020000
00000000
10030000
10000000
01000000
,
00100000
01000000
00010000
00002000
00000000
00013000
00010000
00000010
,
00000100
00000000
00000001
00000000
00001000
00000000
00000100
00000000
00010000
00000100
00010000
00000000
00001000
00010000
00001000
00010000
,
00002000
00000000
00013000
00010000
,
00011000
00000000
00000000
00000000
00001000
00000000
01000000
00001000
01000000
00000000
00000000
00100000
00000000
00000000
00100000
00000000
,
10000000
00020000
20030000
32000000
,
03100000
00000000
00000000
00001000
00000000
00000000
00010000
00000000
00000100
00000000
00000000
00000010
00000000
00000000
00000001
00000000
,
00002000
00000000
00000000
00000000
00000000
00000000
00003100
00000000
00000010
00000000
00000001
00001000
00000001
00000000
00000100
00000000
,
00000020
00000000
00000130
00001000
00010000
00100000
01000000
00010000
,
10000000
01000000
10000000
00000000
01000000
00100000
01000000
00000000
00200000
00000000
00000000
00000000
00310000
10000000
00010000
00000000
,
10000000
00000000
10000000
00100000
00000000
00100000
01000000
00001000
01000000
00001000
01000000
00001000
,
00010000
00000000
00000000
00000100
00000000
00000000
00001000
00000000
00000001
00001000
00000001
00001000
00000001
00000000
00000000
00000000
,
00002001
00000000
00000000
00003010
00000100
00000000
00001000
00001000
,
00010000
00000000
00001000
00000000
00011000
00000000
00000000
00000000
00010000
00000000
00100000
00000000
10000000
00010000
10000000
00000000
,
01000000
00000000
00000000
00100000
00000000
00000000
01000000
00000000
00010000
00000000
00000000
00000000
00001000
00000000
00001000
00000000
,
00010000
00001000
00011000
00000000
00010000
00000100
00001000
00000100
,
00000010
00000001
00001000
00000010
00000200
00000000
00001300
00010000
,
00100000
00010000
00001000
01000000
00010000
00100000
01000000
10000000
,
00010000
00000000
00100000
01000000
00100000
00000000
00001000
00000000
00100000
00000000
00001000
00010000
00001000
00000000
00010000
00000000
,
00000010
00001000
00000010
00000000
00000100
00000010
00000100
00000000
00000001
00000100
00000001
00000000
00001000
00000100
00001000
00000100
,
00001000
00000000
00000000
00002002
00000000
00000000
00000000
00000000
,
00000000
00000000
00000000
00000000
,
00000000
00000000
00000000
00000000
,
00000000
00000000
00000000
00000000
,
00000000
00000000
00003003
00000000
;

//---------------dance-single - ----------------
#NOTES:
     dance-single:
     :
     Easy:
     11:
     0.359815,0.624446,0.083678,0.217562,0.016736,301.000000,291.000000,10.000000,26.000000,0.000000,0.000000,0.359815,0.624446,0.083678,0.217562,0.016736,301.000000,291.000000,10.000000,26.000000,0.000000,0.000000:
0000
0000
0000
0000
,
0000
0000
0000
0000
,
0000
0000
0000
0000
,
0000
0000
0000
0000
,
0000
0000
0000
0000
,
0001
0000
0000
0000
,
1000
0000
0000
0000
,
0200
0000
0000
0000
,
0000
0000
0000
0000
,
0000
0300
0000
0000
0000
0000
0000
0000
,
1000
0001
0100
0010
,
1000
0001
0010
0100
,
1000
0100
0010
0001
,
1000
0000
0010
0000
0100
0010
0100
0000
,
0001
1000
0100
0010
,
0001
1000
0010
0100
,
0002
0000
2003
0000
,
3100
0001
1000
0010
,
0001
1000
0010
0100
,
0002
0000
1000
1003
,
0100
0000
0000
0010
0000
0000
0100
0000
,
0000
0010
0000
0000
0001
0000
1000
0000
,
0010
0000
0000
0020
0000
0000
0000
0000
,
0130
0100
0000
0001
,
1000
0100
0010
0001
,
1000
1000
1001
0000
,
0001
0010
0100
1000
,
0002
0000
1000
1003
,
0010
0000
0100
0010
,
1000
1000
0001
0001
,
1001
0000
1000
0100
,
0010
0010
0100
0100
,
2000
0000
3001
0000
,
1000
0000
0010
0000
0100
0010
0100
0000
,
0020
0000
0000
0000
,
2030
0000
0000
0000
,
3002
0000
0000
0000
,
0023
0000
0130
0100
,
1000
0000
0000
1001
0000
0000
0001
0000
,
0000
1001
0000
0000
0100
0000
0100
0000
,
0010
0000
0000
1001
0000
0000
0100
0000
,
0000
1001
0000
0000
0100
0000
0100
0000
,
1001
0001
0010
0100
,
1000
0000
0001
0000
1000
0001
1000
0000
,
0010
0001
0010
0100
,
0001
0000
1000
0000
0001
1000
0001
0000
,
2000
0000
0000
0000
,
3002
0000
0203
0000
,
0310
0010
0100
0100
,
0001
0001
1000
1000
,
0100
0000
0000
0010
0000
0000
0001
0000
0001
1000
0000
1000
,
0002
0000
0000
0000
,
0000
0000
0000
0000
,
0000
0000
0000
0000
,
0000
0000
0000
0000
,
1003
0000
0010
0000
,
0100
0000
0001
1000
,
0100
0000
0010
0000
,
0001
0000
1000
0000
,
0010
0000
0100
0001
,
0010
0000
0100
1000
,
0010
0000
0100
0001
,
0010
0100
1000
0001
,
0200
0000
0000
0000
0310
0000
1000
0001
,
2000
0000
3001
0000
,
0010
0001
1000
0010
,
0001
0000
0010
0000
0100
0000
0001
1000
,
0002
0000
1003
0000
,
0001
0000
0010
0000
0100
0000
1000
0001
,
2000
0000
3001
0000
,
0100
0010
1000
0001
,
0010
0000
0000
0010
0000
0000
0000
0000
,
0100
0000
0000
0100
0000
0000
0000
0000
,
1000
0000
0001
2000
0000
0000
3001
0000
,
1000
0010
0100
0100
,
0001
0000
0000
0001
0000
0000
0001
0000
,
1000
0000
0000
1000
0000
0000
1000
0000
,
0100
0000
0010
0000
0001
1000
0001
1000
,
0002
0000
1003
1000
,
0020
0000
1030
0001
,
0010
1000
0010
0001
,
1000
0010
0001
0010
,
2000
0000
3001
0001
,
0100
0010
1000
0001
,
1000
0001
1000
0001
1000
0000
0000
0000
,
0001
0000
0000
0100
0000
0100
0010
0000
0010
0100
0000
0000
,
0001
0000
1000
0000
0001
1000
0001
1000
,
0200
0000
0000
0310
,
0000
0110
0000
0000
0001
0000
1000
0000
,
0010
0100
0001
0100
,
0000
0110
0000
0000
0001
0000
1000
0000
,
0100
0010
1000
0010
,
0001
1000
0001
0000
1000
0001
1000
0000
,
0001
0100
0001
0000
1000
0100
1000
0000
,
0001
1000
0001
1000
0001
1000
0001
1000
,
0100
0000
0000
2002
0000
0000
0000
0000
,
0000
0000
0000
0000
,
0000
0000
0000
0000
,
0000
0000
0000
0000
,
0000
0000
3003
0000
;

//---------------dance-double - ----------------
#NOTES:
     dance-double:
     :
     Easy:
     11:
     0.370573,0.624446,0.058574,0.251033,0.016736,310.000000,303.000000,7.000000,30.000000,0.000000,0.000000,0.370573,0.624446,0.058574,0.251033,0.016736,310.000000,303.000000,7.000000,30.000000,0.000000,0.000000:
00000000
00000000
00000000
00000000
,
00000000
00000000
00000000
00000000
,
00000000
00000000
00000000
00000000
,
00000000
00000000
00000000
00000000
,
00000000
00000000
00000000
00000000
,
10000000
00000000
00000000
00000000
,
00010000
00000000
00000000
00000000
,
00200000
00000000
00000000
00000000
,
00000000
00000000
00000000
00000000
,
00000000
00300000
00000000
00000000
00000000
00000000
00000000
00000000
,
00010000
10000000
00100000
01000000
,
00010000
10000000
01000000
00100000
,
00001000
00010000
00001000
00100000
,
00001000
00000000
00010000
00000000
00000010
00000100
00000010
00000000
,
00001000
00000001
00000010
00000100
,
00001000
00000100
00010000
00001000
,
02000000
00000000
03200000
00000000
,
10300000
00010000
00100000
00100000
,
01000000
10000000
00010000
01000000
,
00200000
00000000
00010000
00310000
,
00001000
00000000
00000000
00010000
00000000
00000000
00001000
00000000
,
00000000
00010000
00000000
00000000
00000100
00000000
00000010
00000000
,
00000001
00000000
00000000
00000002
00000000
00000000
00000000
00000000
,
00001003
00001000
00000000
00000010
,
00000100
00001000
00010000
00001000
,
00100000
00000000
01000000
00000000
10000000
00010000
10000000
00000000
,
00010000
01000000
00100000
00010000
,
00002000
00000000
00010000
00013000
,
00000100
00000010
00001000
00000010
,
00000001
00000100
00000010
00000100
,
00002000
00000000
00013000
00100000
,
01000000
00010000
10000000
01000000
,
00200000
00000000
00320000
00000000
,
10030000
00000000
00100000
00000000
01000000
00100000
01000000
00000000
,
00002000
00000000
00000000
00000000
,
00023000
00000000
00000000
00000000
,
00030200
00000000
00000000
00000000
,
00000310
00000001
00001000
00001000
,
00000001
00000000
00000000
00001001
00000000
00000000
00001000
00000000
,
00000000
00001001
00000000
00000000
00000001
00000000
00000100
00000000
,
00001000
00000000
00000000
00011000
00000000
00000000
00010000
00000000
,
00000000
00011000
00000000
00000000
00001000
00000000
01000000
00000000
,
00010000
10000000
01000000
00100000
,
00010000
00000000
01000000
00000000
00100000
01000000
00100000
00000000
,
10000000
00010000
00100000
01000000
,
00100000
00000000
00001000
00000000
00010000
00001000
00010000
00000000
,
00002000
00000000
00000000
00000000
,
00003200
00000000
00000302
00000000
,
00001003
00001000
00000100
00000100
,
00000010
00000010
00001000
00001000
,
00010000
00000000
00000000
00010000
00000000
00000000
00001000
00000000
00001000
00010000
00000000
00010000
,
00002000
00000000
00000000
00000000
,
00000000
00000000
00000000
00000000
,
00000000
00000000
00000000
00000000
,
00000000
00000000
00000000
00000000
,
00013000
00000000
00100000
00000000
,
01000000
00010000
10000000
00000000
,
01000000
00100000
00001000
00010000
,
00200000
00000000
00310000
00010000
,
00002000
00000000
00003100
00000001
,
00002000
00000000
00003001
00000010
,
00002000
00000000
00013000
00001000
,
01000000
00100000
10000000
00010000
,
00200000
00000000
00000000
00000000
01300000
00000000
10000000
00010000
,
20000000
00000000
30100000
01000000
,
00001000
00010000
00100000
00010000
,
00001000
00000000
00010000
00000000
00000100
00000000
00000010
00000100
,
00000020
00000000
00000031
00001000
,
00000010
00000000
00000010
00000000
00000010
00000000
00000100
00000010
,
00000100
00000010
00010000
00001000
,
01000000
00010000
10000000
10000000
,
01000000
00000000
00000000
01000000
00000000
00000000
00000000
00000000
,
00100000
00000000
00000000
00100000
00000000
00000000
00000000
00000000
,
00001000
00000000
00010000
00002000
00000000
00000000
00003100
00000000
,
00000010
00001000
00000001
00000001
,
00000010
00000000
00000000
00000010
00000000
00000000
00000010
00000000
,
00000100
00000000
00000000
00000100
00000000
00000000
00000100
00000000
,
00010000
00000000
00001000
00000000
00010000
00001000
00010000
00001000
,
00020000
00000000
00031000
00001000
,
02000000
00000000
03010000
10000000
,
01000000
00010000
01000000
10000000
,
00010000
01000000
10000000
01000000
,
00020000
00000000
01030000
00001000
,
00010000
00000100
00000001
00000100
,
00001000
00000001
00001000
00000001
00001000
00000000
00000000
00000000
,
00000001
00000000
00000001
00001000
00000000
00001000
00000001
00000000
00000000
00000100
00000000
00000000
,
00000010
00000000
00010000
00000000
00001000
00010000
00001000
00010000
,
00002000
00000000
01003000
00100000
,
00000000
01100000
00000000
00000000
10000000
00000000
00010000
00000000
,
00100000
00001000
00010000
00000100
,
00000000
00000110
00000000
00000000
00000001
00000000
00001000
00000000
,
00000010
00000100
00001000
00010000
,
00001000
00010000
00001000
00000000
00010000
00001000
00010000
00000000
,
00100000
01000000
00100000
00000000
10000000
00010000
10000000
00000000
,
01000000
00100000
01000000
00100000
01000000
00100000
01000000
00100000
,
01000000
00000000
00000000
20020000
00000000
00000000
00000000
00000000
,
00000000
00000000
00000000
00000000
,
00000000
00000000
00000000
00000000
,
00000000
00000000
00000000
00000000
,
00000000
00000000
30030000
00000000
;

//---------------dance-single - ----------------
#NOTES:
     dance-single:
     :
     Beginner:
     8:
     0.199631,0.374667,0.033471,0.200827,0.000000,167.000000,163.000000,4.000000,24.000000,0.000000,0.000000,0.199631,0.374667,0.033471,0.200827,0.000000,167.000000,163.000000,4.000000,24.000000,0.000000,0.000000:
// measure 0
0000
0000
0000
0000
,  // measure 1
0000
0000
0000
0000
,  // measure 2
0000
0000
0000
0000
,  // measure 3
0000
0000
0000
0000
,  // measure 4
0000
0000
0000
0000
,  // measure 5
0000
0000
0000
0000
,  // measure 6
0000
0000
0000
0000
,  // measure 7
0000
0000
0000
0000
,  // measure 8
0000
0000
0000
0000
,  // measure 9
0000
0000
0000
0000
,  // measure 10
1000
0000
1000
0000
,  // measure 11
0001
0000
0001
0000
,  // measure 12
0100
0000
0100
0000
,  // measure 13
0010
0100
0010
0000
,  // measure 14
1000
0000
1000
0000
,  // measure 15
0001
0000
0001
0000
,  // measure 16
0020
0000
0000
0000
,  // measure 17
0130
0000
0010
0100
,  // measure 18
0010
0000
0001
0000
,  // measure 19
2000
0000
0000
0000
,  // measure 20
3001
0000
0001
0000
,  // measure 21
0001
0000
0100
0000
,  // measure 22
0010
0000
0200
0000
,  // measure 23
0000
0000
0000
0000
,  // measure 24
0310
0000
1000
0000
,  // measure 25
0001
1000
0001
0000
,  // measure 26
1001
0000
1000
0000
,  // measure 27
0200
0000
0000
0000
,  // measure 28
0310
0000
0001
0000
,  // measure 29
1000
0001
1000
0000
,  // measure 30
0001
0000
0100
0000
,  // measure 31
0010
0000
0010
0000
,  // measure 32
2000
0000
0000
0000
,  // measure 33
3001
0000
1000
0001
,  // measure 34
2000
0000
0000
0000
,  // measure 35
3200
0000
0000
0000
,  // measure 36
0320
0000
0000
0000
,  // measure 37
0032
0000
0000
0000
,  // measure 38
1003
0000
0001
0000
,  // measure 39
1001
0000
1000
0000
,  // measure 40
0010
0000
0100
0000
,  // measure 41
0110
0000
0010
0000
,  // measure 42
1000
0000
0001
0000
,  // measure 43
0010
0100
0010
0000
,  // measure 44
0001
0000
1000
0000
,  // measure 45
0010
0100
0010
0000
,  // measure 46
0200
0000
0000
0000
,  // measure 47
0320
0000
0000
0000
,  // measure 48
1030
0000
0001
0000
,  // measure 49
0010
0000
0100
0000
,  // measure 50
1000
0001
1000
0001
,  // measure 51
2000
0000
0000
0000
,  // measure 52
0000
0000
0000
0000
,  // measure 53
0000
0000
0000
0000
,  // measure 54
0000
0000
0000
0000
,  // measure 55
3001
0000
0000
0000
,  // measure 56
1000
0000
0000
0000
,  // measure 57
0010
0000
0000
0000
,  // measure 58
0100
0000
0001
0000
,  // measure 59
2000
0000
0000
0000
,  // measure 60
3200
0000
0000
0000
,  // measure 61
0320
0000
0000
0000
,  // measure 62
0032
0000
0000
0000
,  // measure 63
1003
0000
0010
0100
,  // measure 64
0010
0000
1000
0000
,  // measure 65
0001
0000
0010
0000
,  // measure 66
0100
0000
0100
0010
,  // measure 67
0100
0000
1000
0000
,  // measure 68
0001
0000
0100
0010
,  // measure 69
0100
0000
0001
0000
,  // measure 70
1000
0000
0100
0000
,  // measure 71
0020
0000
0000
0000
,  // measure 72
0230
0000
0000
0000
,  // measure 73
1300
0000
1000
0000
,  // measure 74
0001
1000
0001
0000
,  // measure 75
0100
0000
0100
0000
,  // measure 76
0010
0000
0010
0000
,  // measure 77
1000
0001
1000
0001
,  // measure 78
2000
0000
0000
0000
,  // measure 79
3001
0000
0010
0000
,  // measure 80
0100
0000
0100
0000
,  // measure 81
1000
0000
0001
0000
,  // measure 82
0200
0000
0000
0000
,  // measure 83
0310
0000
1000
0000
,  // measure 84
0001
1000
0001
0000
,  // measure 85
1000
0000
0100
0000
,  // measure 86
0010
0100
0010
0100
,  // measure 87
0020
0000
0000
0000
,  // measure 88
0031
0000
0001
0000
,  // measure 89
0002
0000
0000
0000
,  // measure 90
1003
0000
1000
0000
,  // measure 91
0010
0000
0100
0000
,  // measure 92
0001
1000
0001
0000
,  // measure 93
0010
0100
0010
0100
,  // measure 94
0010
0100
0010
0100
,  // measure 95
0010
0000
0000
0220
0000
0000
0000
0000
,  // measure 96
0000
0000
0000
0000
,  // measure 97
0000
0000
0000
0000
,  // measure 98
0000
0000
0000
0000
,  // measure 99
0000
0000
0330
0000
;
