#TITLE:Floating Eternity;
#SUBTITLE:;
#ARTIST:BEMANI Sound Team "Philosophy";
#TITLETRANSLIT:;
#SUBTITLETRANSLIT:;
#ARTISTTRANSLIT:;
#GENRE:;
#CREDIT:;
#MUSIC:Floating Eternity.ogg;
#BANNER:Floating Eternity.png;
#BACKGROUND:;
#CDTITLE:;
#SAMPLESTART:40.500;
#SAMPLELENGTH:15.000;
#SELECTABLE:YES;
#OFFSET:0.000;
#BPMS:0.000=180.000
,116.500=90.000
,118.250=180.000
;
#STOPS:118.250=0.417;
#DISPLAYBPM:180.000;
#BGCHANGES:;
#FGCHANGES:;

//--------------- dance-single - Marten ----------------
#NOTES:
     dance-single:
     Marten:
     Beginner:
     4:
     0,0,0,0,0:
0000
0000
0000
0000
,
0000
0000
0000
0000
,
0000
0000
0000
0000
,
0000
0000
0000
0000
,
0000
0000
0000
0000
,
0000
0000
0000
0000
0000
2002
0000
0000
,
0000
0000
0000
0000
,
0000
0000
0000
0000
,
0000
0000
0000
0000
,
0000
0000
0000
3003
,
0000
0001
0000
0000
0000
0000
0000
1000
,
0000
1000
0000
0000
,
0010
0000
0000
0010
0000
0000
0000
0000
,
0000
0100
0000
0000
0200
0000
0000
0000
,
0000
0000
0300
0000
0000
0020
0000
0000
,
0000
0000
0000
0030
0000
0000
1000
0000
,
0000
0000
0000
0000
0001
0000
0000
0001
,
0000
0000
0000
0000
0000
0010
0000
0000
,
0010
0000
0000
0100
,
0000
0200
0000
0000
0000
0000
0000
0300
,
0000
0020
0000
0000
,
0030
0000
0000
0001
,
0000
0001
0000
0000
0000
0000
0000
1000
,
0000
1001
0000
0000
,
1000
0000
0000
1000
0000
0000
0000
0000
,
0000
0001
0000
0000
1001
0000
0000
0000
,
0000
0000
0010
0000
0000
0010
0000
0000
,
0000
0000
0000
0100
0000
0000
0100
0000
,
0000
0000
0000
0000
0010
0000
0000
0020
,
0000
0000
0000
0000
0030
1001
0000
0000
,
0000
0000
0000
1001
,
0000
0000
0000
0000
0000
0000
0000
1000
,
0000
0000
0001
0000
0000
1000
0000
0000
,
2002
0000
0000
0000
,
0000
0000
0000
0000
0000
0000
0000
3003
,
0000
0110
0000
0000
,
0000
0000
0000
0110
0000
0000
0000
0000
,
0000
0000
0000
0000
0010
0000
0000
0100
,
0000
0000
0010
0000
0000
0220
0000
0000
,
0000
0000
0000
0000
,
0000
0000
0000
0000
0000
0330
0000
0100
,
0000
0000
0000
0000
,
0001
0000
0000
1000
,
0000
1000
0000
0000
0000
0000
0000
0000
,
0000
0000
0100
0000
0000
0100
0000
0000
,
0100
0000
0000
0020
0000
0000
0000
0000
,
0000
0000
0000
0000
,
0000
0000
0000
0030
0000
0001
0000
0000
,
0000
0000
0000
0001
0000
0000
2000
0000
,
0000
0000
0000
0000
0000
3000
0000
1000
,
0000
0000
0000
0000
0000
1000
0000
0000
,
0002
0000
0000
0003
,
0000
0010
0000
0000
0000
0000
0000
0010
,
0000
0020
0000
0000
,
0000
0030
0000
0002
0000
0000
0000
0000
,
0000
0000
2000
0000
,
0000
0000
0000
0000
,
0000
0000
0000
0000
0000
3003
0000
0000
0000
0000
0000
0000
1000
0000
0000
0000
,
0000
0000
0000
0000
0000
0000
0000
0010
,
0000
0000
0000
0000
,
0100
0000
0000
0000
,
0000
0001
0000
0000
0001
0000
0000
0001
,
0000
0001
0000
0000
,
0000
0000
0000
1000
0000
0000
0000
0000
,
0000
0010
0000
0000
0120
0000
0000
0000
,
0000
0000
0000
0030
0000
2000
0000
0000
,
0000
0000
3000
0002
,
0000
0000
0000
0000
0000
0003
0000
0200
,
0000
0000
0000
0300
,
0020
0000
0000
0000
0000
0000
0000
0030
,
0000
1000
0000
0000
0001
0000
0000
0020
,
0000
0000
0000
0030
,
0000
0000
0000
1000
0000
0000
1000
0000
,
0000
0001
0000
0000
0002
0000
0000
0000
,
0000
0000
0000
0003
0000
0010
0000
0000
,
0010
0000
0000
0100
0000
0000
0200
0000
,
0000
0000
0000
0000
0000
0300
0000
1000
,
0000
0000
1000
0000
0000
0001
0000
0000
,
0001
0000
0000
1000
0000
0000
1001
0000
,
0000
2001
0000
0000
0000
0000
0000
0000
,
3000
0020
0000
0030
,
0100
0000
0000
0200
0000
0000
0000
0000
,
0000
0300
0002
0000
,
0000
0000
0000
0003
0000
1000
0000
0000
,
0000
0000
0000
0100
0000
0000
0100
0000
,
0000
0010
0000
0000
0001
0000
0000
2000
,
0000
0000
0000
3000
,
0001
0000
0000
0100
,
0000
0100
0000
0000
0000
0000
0000
0010
,
0000
0010
0000
0000
,
1000
0000
0000
1000
0000
0000
0000
0000
,
0000
1001
0000
0000
0000
0000
0000
0000
;

//--------------- dance-single - Marten ----------------
#NOTES:
     dance-single:
     Marten:
     Easy:
     7:
     0,0,0,0,0:
0000
0000
0000
0000
,
0000
0000
0000
0000
,
0000
0000
0000
0000
,
0000
0000
0000
0000
,
0000
0000
0000
0000
,
0000
0000
0000
0000
0000
2002
0000
0000
,
0000
0000
0000
0000
,
0000
0000
0000
0000
,
0000
0000
0000
0000
,
0000
0000
0000
3003
,
0000
0001
0000
0000
0100
0000
0000
0001
,
0000
0000
1000
0000
0000
0010
0000
0000
,
0001
0000
0000
0010
0000
0000
1000
0000
,
0000
0001
0000
0000
0020
0000
0000
0000
,
0000
0000
0000
0000
0000
0230
0000
0000
,
0000
0000
0000
0300
0000
0000
1000
0000
,
0000
0100
0000
0000
1000
0000
0000
0001
,
0000
0000
0010
0000
0000
1000
0000
0000
,
0010
0000
0000
0001
0000
0000
1000
0000
,
0000
0020
0000
0000
0000
0000
0000
0000
,
0000
0230
0000
0000
,
0000
0300
0000
0001
,
0000
0100
0000
0000
0010
0000
0000
1000
,
0000
0002
0000
0003
,
1000
0000
0000
0100
0000
0000
0010
0000
,
0000
0001
0000
0000
2000
0000
0000
0000
,
3000
0000
0001
0000
0000
0010
0000
0000
,
0100
0000
0000
1000
0000
0000
0002
0000
,
0000
0000
0003
0000
1000
0000
0000
0020
,
0000
0000
0000
0000
0030
1000
0000
0000
,
0100
0000
0000
0001
0000
0000
1000
0000
,
0000
0010
0000
0000
0001
0000
0000
0100
,
0000
0000
1000
0000
0000
0100
0000
0000
,
0002
0000
0000
0010
0000
0000
0100
0000
,
0000
2003
0000
0000
0010
0000
0000
0100
,
0000
0000
3001
0000
0000
0100
0000
0000
,
1000
0000
0000
0001
0000
0000
0010
0000
,
0000
1000
0000
0000
0100
0000
0000
0001
,
0000
0000
0100
0000
0000
2000
0000
0000
,
0100
0000
0000
0010
0000
0000
3002
0000
,
0000
0100
0000
0000
0010
0000
0000
2003
,
0000
0000
3020
0000
0000
0230
0000
0000
,
1300
0000
0000
0100
0000
0000
0001
0000
,
0000
1002
0000
0000
0023
0000
0000
0230
,
0000
0000
0301
0000
0000
0100
0000
0000
,
1000
0000
0000
2002
0000
0000
0000
0000
,
0000
0000
0000
0000
3003
0000
0000
0000
0001
0000
0000
0010
0000
0000
0100
0000
,
0000
1000
0000
0000
0010
0000
0000
0000
0000
0000
1000
0000
0000
0000
1000
0000
,
0001
0000
0001
1000
0000
0000
0020
0000
,
0000
2030
0000
0000
3200
0000
0000
0310
,
0000
0010
0100
0000
0100
0010
0000
0000
,
0002
0000
0000
0203
0000
0000
0320
0000
,
0000
1030
0000
1000
0001
0000
0001
1000
,
0000
1000
0020
0000
0000
0230
0000
0000
,
0302
0000
0000
0000
0000
0000
0013
0000
0000
0001
0000
0000
1000
0000
0000
0001
,
0000
0000
0100
0000
0000
0010
0000
0000
2000
0000
0000
0000
0000
0000
0000
0000
,
0000
0000
0000
0000
,
0000
0000
0000
0000
0000
3000
0000
0000
0000
0000
0000
0000
0001
0000
0000
0000
,
0000
0010
0000
0000
0001
0000
0000
1000
,
0000
0000
0010
0000
0000
1000
0000
0000
,
0001
0000
0000
1000
0000
0000
0001
0000
,
0000
0010
0000
0000
0100
0000
0000
1000
,
0000
0000
0010
0000
0000
1000
0000
0000
,
0010
0000
0000
0100
0000
0000
0001
0000
,
0000
0010
0000
0000
2100
0000
0000
0010
,
0000
0000
0001
0000
0000
3002
0000
0000
,
0010
0000
0000
0100
0000
0000
0203
0000
,
0000
0010
0000
0000
0001
0000
0000
0301
,
0000
0000
0010
0000
0000
0100
0000
0000
,
2000
0000
0000
0100
0000
0000
0001
0000
,
0000
3002
0000
0000
0010
0000
0000
2000
,
0000
0000
0000
3003
,
0000
0000
0000
1100
0000
0000
0110
0000
,
0000
0011
0000
0000
0001
0000
0000
0100
,
0000
0000
0000
0000
0010
0000
0000
1000
0000
0000
0010
0000
0000
0000
0000
0000
,
0100
0000
0000
0001
0000
0000
0010
0000
,
0000
0001
0000
0000
0100
0000
0000
0010
,
0000
0000
1000
0000
0000
0100
0000
0000
,
2000
0000
0000
3200
0000
0000
0310
0000
,
0000
0021
0000
0000
0100
0000
0000
1000
,
0000
0000
0230
0000
0000
1000
0000
0000
,
0010
0000
0000
2300
0000
0000
0010
0000
,
0000
0100
0000
0000
3002
0000
0000
0010
,
0000
0000
1000
0000
0000
0203
0000
0000
,
0310
0000
0000
1000
0000
0000
0001
0000
0000
1000
0000
0000
0200
0000
0000
0000
,
0000
0320
0000
0000
0032
0000
0000
2000
,
0000
0000
0000
3003
,
1000
0000
0000
0100
0000
0000
0001
0000
,
0000
1000
0000
0000
0010
0000
0000
0001
,
0000
0000
0001
0000
0000
0100
0000
0000
,
1000
0000
0000
0001
0000
0000
0010
0000
,
0000
0000
1000
0000
0000
0001
0000
0000
0000
0000
0000
0000
0000
0000
0000
0000
;

//--------------- dance-single - Marten ----------------
#NOTES:
     dance-single:
     Marten:
     Medium:
     13:
     0,0,0,0,0:
0000
0000
0000
0000
,
0000
0000
0000
0000
,
0000
0000
0000
0000
,
0000
0000
0000
0000
,
0000
0000
0000
0000
,
0000
0000
0000
0000
0000
2002
0000
0000
,
0000
0000
0000
0000
,
0000
0000
0000
0000
,
0000
0000
0000
0000
,
0000
0000
0000
3003
,
0000
0002
0000
0013
0200
0000
0310
0002
,
0000
0103
0020
0000
1030
0001
0010
0100
,
1000
0010
0001
0010
0100
1000
0100
0001
,
0010
0100
1000
0001
2000
0000
0000
0000
,
0000
0000
0000
0000
0000
3002
0000
0000
,
0000
0000
0000
2003
,
3010
0200
0000
0310
2000
0000
3100
0020
,
0000
0031
1000
0010
0100
0001
0010
1000
,
0010
0100
0001
0100
1000
0010
0100
0001
,
1000
0002
0000
0000
0000
0000
0000
0000
,
0000
2003
0000
0000
,
0000
3000
0000
0100
,
0100
1000
0000
1000
0001
0000
0001
1000
,
0000
1000
0020
0000
0000
0030
0000
0000
,
0100
0000
0100
0001
0000
0001
1000
0000
,
1000
0001
0000
0001
0010
1000
0001
0100
,
0000
0000
1000
0000
0100
0010
0000
0001
,
0100
0000
0010
0001
0000
0010
2000
0000
,
0000
3000
0000
0000
0001
0000
1000
0020
,
0000
0000
0000
0000
0030
0201
0000
0301
,
0020
0000
0031
0200
0000
0310
0002
0000
,
0013
1000
0100
0010
0001
0010
1000
0001
,
0100
0010
0001
0100
0010
1000
0100
0001
,
0200
0000
0000
0000
,
0000
0320
0000
0000
0000
0000
0000
0030
,
0000
0000
1200
0000
1300
0020
0000
1030
,
0200
0000
0310
2000
0000
3010
0001
0100
,
0010
1000
0010
0001
1000
0100
0010
1000
,
0100
0010
0001
0100
1000
0200
0000
0000
,
0000
0000
0000
0320
,
0000
0000
0000
0000
0000
0030
0000
0200
,
0000
0000
0320
0000
0000
2030
0000
3100
,
0020
0000
0031
2000
0000
3100
0001
0100
,
1000
0200
0000
0000
0320
0000
0000
0032
,
0000
0103
0010
1000
0100
0010
0001
0100
,
0010
0001
0010
2000
0000
0000
0000
0000
,
0000
0000
0000
0000
3000
0000
0000
0000
1010
0000
0000
1010
0000
0000
0110
0000
,
0000
0110
0000
0000
0101
0000
0000
0000
0000
0000
0002
0000
0000
0000
0013
0000
,
2000
0000
3010
0001
0100
0010
1000
0010
,
0001
1000
0100
0001
1000
0000
0000
2000
,
0000
3010
0002
0000
0013
1000
0100
0010
,
0001
0010
1000
0001
0100
1000
0001
0000
,
0000
2000
0000
3100
0002
0000
0103
1000
,
0010
0100
0001
0010
0100
0001
1000
0010
,
0100
1000
0010
0100
1000
0001
0010
0100
,
0001
0100
1000
0100
0020
0000
0000
0000
,
0000
0000
0000
0000
,
0000
0000
0000
0000
0000
0030
0000
0000
0000
0000
0000
0000
1000
0000
0000
0000
,
0000
0100
0000
0000
0100
0000
0000
0001
,
0000
0000
0100
0000
0000
0100
0000
0000
,
1000
0000
0000
0010
0000
0000
0010
0000
,
0000
0001
0010
0001
1000
0010
1000
0100
,
0010
0001
1000
0000
0000
0100
0000
0000
,
0010
0000
0000
0001
0000
0000
0100
0000
,
0000
0010
1000
0001
2001
0000
0000
0010
,
0000
0000
0001
0000
0000
3002
0000
0000
,
0010
0000
0000
1000
0000
0000
2003
0000
,
0000
0100
0000
0000
0001
0000
0000
3001
,
0100
0010
1000
0100
0010
1000
0010
0001
,
2000
0000
0000
0010
0000
0000
0100
0000
,
0000
3002
0000
0000
0203
0000
0000
0020
,
0000
0000
0000
0330
,
0000
0000
0000
1002
0000
0000
0203
0000
,
0000
0320
0000
1030
0100
0010
0001
0100
,
0010
0001
1000
0100
0010
2000
0000
0000
,
3200
0000
0000
0320
0000
0031
0100
0010
,
1000
0100
0010
1000
0001
0100
0010
0002
,
0000
0103
0010
0001
0010
1000
0100
0001
,
0100
0010
0001
0100
1000
0100
0010
1000
,
0100
0020
0000
0000
0032
0000
0000
0203
,
0000
0310
2000
0000
3001
0010
0100
1000
,
0010
0001
0010
0200
0000
0310
2000
0000
,
3100
0020
0000
0031
1000
0010
0100
0001
,
0010
1000
0010
0001
0100
0010
1000
0001
,
1000
0100
0001
0100
1000
0001
0200
0000
,
0310
0002
0000
1003
0200
0000
0310
2000
,
0000
0000
0000
3000
,
0001
0010
0100
0010
0001
0100
1000
0100
,
0001
0010
0100
0001
0100
1000
0001
0100
,
0020
1030
0010
0100
0010
1000
0100
0001
,
0100
1000
0010
0100
1000
0100
0001
1000
,
0100
0010
0001
1000
0000
0000
0000
0000
;

//--------------- dance-single - Marten ----------------
#NOTES:
     dance-single:
     Marten:
     Hard:
     16:
     0,0,0,0,0:
0000
0000
0000
0000
,
0000
0000
0000
0000
,
0000
0000
0000
0000
,
0000
0000
0000
0000
,
0000
0000
0000
0000
,
0000
0000
0000
0000
0000
2002
0000
0000
,
0000
0000
0000
0000
,
0000
0000
0000
0000
,
0000
0000
0000
0000
,
0000
0000
0000
3003
,
0000
2000
0000
3001
0020
0000
0031
2000
,
0000
3010
0100
0000
0002
0000
0000
0000
0103
0010
1000
0000
0100
0000
0010
0000
,
1000
0000
0010
0000
0001
0000
1000
0000
0001
0100
0010
0000
0001
0000
0010
0000
,
1000
0000
0001
0000
0010
0100
0010
0100
2000
0000
0000
0000
0000
0000
0010
0000
,
0000
0000
0001
0000
0000
3002
0000
0000
,
0100
0000
0000
1003
0000
0000
0002
0000
,
1003
0000
0200
0000
0000
0000
1300
0000
0002
0000
0000
0103
0010
0000
2000
0000
,
0000
0000
3010
0100
0001
0000
0010
0000
0100
0000
0001
0000
0100
0000
1000
0000
,
0001
0000
1000
0010
0100
0000
1000
0000
0100
0000
0001
0000
1000
0000
0100
0010
,
0100
0010
0002
0000
0000
0000
0000
0000
0010
0000
0000
0000
0000
0000
1000
0000
,
0000
0000
2003
0000
0000
0100
0000
0000
,
0001
0000
0000
0000
0000
0000
3010
0000
0000
0000
0000
0000
0200
0000
0000
0301
,
1000
0000
0002
0000
0000
0000
0013
0000
0200
0000
0000
1300
0001
0000
2000
0000
,
0000
0000
3100
0000
0020
0000
0000
0031
0100
0000
0010
0100
0010
0000
1000
0000
,
0200
0000
0000
1300
0001
0000
2000
0000
0000
0000
3010
0000
0200
0000
0000
0301
,
1000
0000
0002
0000
0000
1003
0100
0000
0020
0000
0000
0000
0000
0000
0030
0000
,
0000
0000
0000
0000
0200
0000
0000
1300
0010
0000
0002
0000
0000
0000
0013
0000
,
2000
0000
0000
3100
0010
0000
2000
0000
0000
0000
3010
0000
0002
0000
0000
0103
,
1000
0000
0100
0000
0010
0100
0010
0000
0200
0000
0000
0301
0010
0000
0200
0000
,
0000
0000
0000
0000
0300
1002
0000
1003
,
0020
0000
0000
0000
0130
0000
0002
0000
0000
0013
0100
0000
2000
0000
0000
0000
,
3100
0010
1000
0000
0010
0000
0001
0000
1000
0000
0010
0000
0001
0000
1000
0000
,
0100
0010
1000
0000
0001
0000
0010
0000
1000
0000
0010
0000
0001
0010
0100
1000
,
0200
0000
0000
0000
0000
0000
0001
0000
0000
0001
0000
0000
0010
0000
0000
0010
,
0000
0000
0320
0000
0000
0000
0000
0000
1000
0000
0000
1000
0000
0000
0001
0000
,
0000
0031
0000
0000
2001
0000
0000
0000
3001
0000
0200
0000
0000
0000
0310
0000
,
2000
0000
0000
3100
0010
0000
0002
0000
0000
0000
0013
0100
0001
0000
0100
0000
,
1000
0000
0001
0000
0100
0000
1000
0000
0001
0000
0010
0100
0001
0000
1000
0000
,
0100
0000
0001
0000
0100
0000
1000
0100
0010
0001
0200
0000
0000
0000
0000
0000
,
0001
0000
0000
0001
0000
0000
0010
0000
0000
0010
0000
0000
0320
0000
0000
0000
,
0000
0000
0001
0000
0000
0001
0000
0000
1000
0000
0000
1030
0000
0000
2000
0000
,
0000
0000
3020
0000
0000
0230
0000
0301
,
0020
0000
1030
0020
0000
0031
0100
0100
,
0001
0002
0000
0000
0023
0000
0000
0230
,
0000
0000
1300
0000
0001
0000
1000
0010
1000
0000
0100
0000
0010
0001
0010
0000
,
0100
0000
1000
0001
1000
0000
0020
0000
0000
0000
0000
0000
0000
0000
0000
0000
,
0000
0000
0000
0000
0000
0000
0130
0001
0010
0000
0000
0110
0000
0000
1100
0000
,
0000
0110
0000
0000
0011
0000
0010
0001
0010
0001
0200
0000
0000
0301
0010
0000
,
0200
0000
0000
1300
0010
0000
1000
0000
0100
0010
0001
0000
1000
0100
1000
0000
,
0001
0100
0001
0000
0010
0100
0010
0000
0200
0000
0000
0000
0300
0000
0210
0000
,
0000
1300
0010
0000
0200
0000
0000
0301
0010
0000
0001
0000
0100
0010
1000
0000
,
0001
0010
0001
0000
1000
0010
1000
0000
0100
0010
0100
0000
0020
0000
0000
0000
,
0030
0000
0002
0000
0000
0103
0010
0000
2000
0000
0000
3100
0010
0000
0001
0000
,
0010
0100
1000
0000
0001
0000
0010
0000
0010
0000
1000
0000
0010
0000
0010
0000
,
0001
0000
1000
0000
0100
0000
0010
0001
0010
0001
1000
0001
1000
0001
1000
0010
,
1000
0010
0100
0010
0100
0010
1000
0001
0020
0000
0000
0000
0000
0000
0000
0000
,
0000
0000
0000
0000
,
0000
0000
0000
0000
0000
0030
0000
0000
0000
0000
0000
0000
0001
0000
0000
0000
,
0000
0010
0000
0000
0100
0000
0000
1000
,
0000
0000
0010
0000
0000
0100
0000
0000
,
0001
0000
0000
0100
0000
0000
0010
0000
,
0000
1000
0100
1000
0001
0100
0001
1000
,
0010
0100
0001
0010
0100
0000
0000
0000
0000
0000
1000
0000
0000
0000
0000
0000
,
0010
0000
0000
0100
0000
0000
0001
0000
,
0000
0000
0010
0000
0100
0010
0001
1000
0020
0000
0000
0000
0000
0000
1000
0000
,
0000
0000
0001
0000
0000
0230
0000
0000
,
0001
0000
0000
1000
0000
0000
0302
0000
,
0000
0010
0000
0000
0100
0000
0000
1003
,
0010
0000
0001
0000
1000
0000
0100
0000
0001
0000
1000
0000
0100
0010
0001
0010
,
0200
0000
0000
0001
0000
0000
1000
0000
,
0000
0320
0000
0000
1000
0000
0000
0002
,
0000
0000
0000
0033
,
0000
0000
0000
0000
0000
0000
1000
0000
0001
0100
0001
0000
0010
0000
0100
1000
,
0100
0000
0010
0000
0001
1000
0010
0000
0100
0000
0010
1000
0010
0100
0001
0000
,
0010
0000
1000
0000
0001
0000
0100
0000
1000
0000
0001
0000
1000
0100
1000
0000
,
0010
0000
0100
0001
0100
0000
0010
0000
1000
0001
0010
0000
0100
0000
0010
0001
,
0010
0100
1000
0000
0001
0100
0001
0010
0100
0000
1000
0000
0010
0000
1000
0000
,
0100
0010
0001
0010
1000
0000
0010
0000
0001
0000
0100
0000
0010
0100
0010
1000
,
0100
0000
0010
0001
0100
0000
0010
0000
0100
0001
0010
0000
0100
0000
0001
0100
,
1000
0002
0000
0000
0203
0000
0000
0320
,
0000
0000
1030
0000
0002
0000
0000
0013
0100
0010
0100
0000
0010
0000
1000
0010
,
0001
0000
1000
0000
0010
0000
0120
0000
0000
1030
0001
0000
0020
0000
0000
0130
,
1000
0000
0020
0000
0000
0130
0001
0100
0010
1000
0001
1000
0100
0000
0010
0001
,
1000
0001
0100
0000
0010
0000
1000
0001
1000
0000
0010
0000
1000
0100
0010
0100
,
0001
0000
0100
0000
1000
0000
0010
0000
0001
0000
0010
0100
0002
0000
0000
0000
,
0013
0001
0200
0000
0000
0000
1300
0100
0020
0000
0000
0000
1030
0100
0020
0000
,
0000
0000
0000
0030
,
0001
0000
0010
0000
0100
0010
0001
0000
0010
0000
0100
0000
1000
0000
0001
0010
,
0100
0010
0001
0000
0010
0000
0001
0010
0100
0000
0010
0000
0100
0000
1000
0000
,
0001
0010
0002
0000
1003
0000
0010
0000
0100
0010
1000
0000
0010
0000
0100
0000
,
0001
0000
1000
0010
0100
0010
1000
0000
0010
0000
1000
0010
0100
0000
0010
0000
,
0100
0010
1000
0100
1000
0010
0100
0001
0000
0000
0000
0000
0000
0000
0000
0000
;

//--------------- dance-double - forcednature ----------------
#NOTES:
     dance-double:
     forcednature:
     Easy:
     7:
     0,0,0,0,0:
00000000
00000000
00000000
00000000
,
00000000
00000000
00000000
00000000
,
00000000
00000000
00000000
00000000
,
00000000
00000000
00000000
00000000
,
00000000
00000000
00000000
00000000
,
00000000
00000000
00000000
00000000
00000000
00022000
00000000
00000000
,
00000000
00000000
00000000
00000000
,
00000000
00000000
00000000
00000000
,
00000000
00000000
00000000
00000000
,
00000000
00000000
00000000
00033000
,
00000000
00010000
00000000
00000000
00100000
00000000
00000000
10000000
,
00000000
00000000
01000000
00000000
00000000
00010000
00000000
00000000
,
00001000
00000000
00000000
00000010
00000000
00000000
00000001
00000000
,
00000000
00000100
00000000
00000000
00002000
00000000
00000000
00000000
,
00000000
00000000
00000000
00000000
00000000
00023000
00000000
00000000
,
00000000
00000000
00000000
00030000
00000000
00000000
00001000
00000000
,
00000000
00000010
00000000
00000000
00000001
00000000
00000000
00000100
,
00000000
00000000
00001000
00000000
00000000
00010000
00000000
00000000
,
00100000
00000000
00000000
10000000
00000000
00000000
01000000
00000000
,
00000000
00020000
00000000
00000000
00000000
00000000
00000000
00000000
,
00000000
00032000
00000000
00000000
,
00000000
00003000
00000000
00001000
,
00000000
00100000
00000000
00000000
00010000
00000000
00000000
01000000
,
00000000
00002000
00000000
00003000
,
00010000
00000000
00000000
00000010
00000000
00000000
00001000
00000000
,
00000000
00000100
00000000
00000000
00020000
00000000
00000000
00000000
,
00030000
00000000
00001000
00000000
00000000
00100000
00000000
00000000
,
01000000
00000000
00000000
00010000
00000000
00000000
00002000
00000000
,
00000000
00000000
00003000
00000000
00010000
00000000
00000000
00000020
,
00000000
00000000
00000000
00000000
00000030
00000100
00000000
00000000
,
00000001
00000000
00000000
00001000
00000000
00000000
00000100
00000000
,
00000000
00010000
00000000
00000000
00001000
00000000
00000000
01000000
,
00000000
00000000
00010000
00000000
00000000
10000000
00000000
00000000
,
02000000
00000000
00000000
00100000
00000000
00000000
00100000
00000000
,
00000000
03020000
00000000
00000000
10000000
00000000
00000000
10000000
,
00000000
00000000
01030000
00000000
00000000
00010000
00000000
00000000
,
00100000
00000000
00000000
00001000
00000000
00000000
00010000
00000000
,
00000000
00000010
00000000
00000000
00001000
00000000
00000000
00000100
,
00000000
00000000
00000010
00000000
00000000
00000002
00000000
00000000
,
00000100
00000000
00000000
00000100
00000000
00000000
00002003
00000000
,
00000000
00000010
00000000
00000000
00000010
00000000
00000000
00003200
,
00000000
00000000
00020300
00000000
00000000
00032000
00000000
00000000
,
01003000
00000000
00000000
00010000
00000000
00000000
10000000
00000000
,
00000000
10020000
00000000
00000000
00230000
00000000
00000000
00302000
,
00000000
00000000
00013000
00000000
00000000
00000010
00000000
00000000
,
00001000
00000000
00000000
00002002
00000000
00000000
00000000
00000000
,
00000000
00000000
00000000
00000000
00003003
00000000
00000000
00000000
00000001
00000000
00000000
00000100
00000000
00000000
00001000
00000000
,
00000000
00010000
00000000
00000000
00100000
00000000
00000000
00000000
00000000
00000000
10000000
00000000
00000000
00000000
10000000
00000000
,
01000000
00000000
01000000
00010000
00000000
00000000
00020000
00000000
,
00000000
00032000
00000000
00000000
00003020
00000000
00000000
00000031
,
00000000
00000001
00000100
00000000
00000100
00001000
00000000
00000000
,
00002000
00000000
00000000
00023000
00000000
00000000
00230000
00000000
,
00000000
10300000
00000000
10000000
01000000
00000000
01000000
00010000
,
00000000
00010000
00002000
00000000
00000000
00003020
00000000
00000000
,
00000032
00000000
00000000
00000000
00000000
00000000
00000103
00000000
00000000
00001000
00000000
00000000
00010000
00000000
00000000
01000000
,
00000000
00000000
10000000
00000000
00000000
00010000
00000000
00000000
20000000
00000000
00000000
00000000
00000000
00000000
00000000
00000000
,
00000000
00000000
00000000
00000000
,
00000000
00000000
00000000
00000000
00000000
30000000
00000000
00000000
00000000
00000000
00000000
00000000
01000000
00000000
00000000
00000000
,
00000000
01000000
00000000
00000000
00010000
00000000
00000000
00001000
,
00000000
00000000
00001000
00000000
00000000
00000100
00000000
00000000
,
00000010
00000000
00000000
00000010
00000000
00000000
00001000
00000000
,
00000000
00010000
00000000
00000000
00010000
00000000
00000000
00100000
,
00000000
00000000
01000000
00000000
00000000
10000000
00000000
00000000
,
00010000
00000000
00000000
01000000
00000000
00000000
00001000
00000000
,
00000000
00010000
00000000
00000000
00021000
00000000
00000000
00000100
,
00000000
00000000
00000010
00000000
00000000
00032000
00000000
00000000
,
01000000
00000000
00000000
00100000
00000000
00000000
00023000
00000000
,
00000000
00000010
00000000
00000000
00000100
00000000
00000000
00031000
,
00000000
00000000
00010000
00000000
00000000
00100000
00000000
00000000
,
02000000
00000000
00000000
00100000
00000000
00000000
00010000
00000000
,
00000000
03002000
00000000
00000000
00100000
00000000
00000000
00020000
,
00000000
00000000
00000000
00033000
,
00000000
00000000
00000000
00010100
00000000
00000000
00011000
00000000
,
00000000
00101000
00000000
00000000
00100000
00000000
00000000
00010000
,
00000000
00000000
00000000
00000000
01000000
00000000
00000000
00010000
00000000
00000000
01000000
00000000
00000000
00000000
00000000
00000000
,
00001000
00000000
00000000
00010000
00000000
00000000
00000100
00000000
,
00000000
00001000
00000000
00000000
00000001
00000000
00000000
00000100
,
00000000
00000000
00001000
00000000
00000000
00010000
00000000
00000000
,
00000200
00000000
00000000
00000000
00000000
00000000
00000320
00000000
00000000
00000000
00000000
00000000
00000031
00000000
00000000
00001000
,
00000000
00002001
00000000
00000000
00000010
00000000
00000000
00000100
,
00000000
00000000
00003200
00000000
00000000
00001000
00000000
00000000
,
00010000
00000000
00000000
00020300
00000000
00000000
00000010
00000000
,
00000000
00001000
00000000
00000000
00032000
00000000
00000000
00100000
,
00000000
00000000
00010000
00000000
00000000
00023000
00000000
00000000
,
00130000
00000000
00000000
10000000
00000000
00000000
01000000
00000000
00000000
00010000
00000000
00000000
00002000
00000000
00000000
00000000
,
00000000
00003020
00000000
00000000
00000032
00000000
00000000
00002000
,
00000000
00000000
00000000
00003003
,
00000001
00000000
00000000
00000100
00000000
00000000
00001000
00000000
,
00000000
00010000
00000000
00000000
00100000
00000000
00000000
10000000
,
00000000
00000000
10000000
00000000
00000000
01000000
00000000
00000000
,
00010000
00000000
00000000
00001000
00000000
00000000
00000010
00000000
,
00000000
00000000
00000001
00000000
00000000
00000001
00000000
00000000
00000000
00000000
00000000
00000000
00000000
00000000
00000000
00000000
;

//--------------- dance-double - forcednature ----------------
#NOTES:
     dance-double:
     forcednature:
     Medium:
     13:
     0,0,0,0,0:
00000000
00000000
00000000
00000000
,
00000000
00000000
00000000
00000000
,
00000000
00000000
00000000
00000000
,
00000000
00000000
00000000
00000000
,
00000000
00000000
00000000
00000000
,
00000000
00000000
00000000
00000000
00000000
00022000
00000000
00000000
,
00000000
00000000
00000000
00000000
,
00000000
00000000
00000000
00000000
,
00000000
00000000
00000000
00000000
,
00000000
00000000
00000000
00033000
,
00000000
00020000
00000000
00130000
20000000
00000000
30010000
02000000
,
00000000
03100000
00020000
00000000
00031000
00000010
00000100
00001000
,
00000001
00000100
00001000
00000100
00000010
00010000
00001000
00000010
,
00000100
00010000
00001000
01000000
00020000
00000000
00000000
00000000
,
00000000
00000000
00000000
00000000
00000000
00230000
00000000
00000000
,
00000000
00000000
00000000
02300000
,
13000000
00200000
00000000
00310000
00002000
00000000
00003010
00000200
,
00000000
00001300
00000001
00000100
00001000
00010000
00000100
00000010
,
00000001
00001000
00000010
00010000
00001000
00100000
01000000
00010000
,
01000000
20000000
00000000
00000000
00000000
00000000
00000000
00000000
,
00000000
30200000
00000000
00000000
,
00000000
00300000
00000000
00010000
,
00010000
00001000
00000000
00001000
00000010
00000000
00000010
00000001
,
00000000
00000001
00000200
00000000
00000000
00000300
00000000
00000000
,
00000010
00000000
00000010
00010000
00000000
00010000
01000000
00000000
,
01000000
00100000
00000000
00100000
00010000
10000000
00010000
01000000
,
00000000
00000000
00100000
00000000
10000000
01000000
00000000
00010000
,
00001000
00000000
00000100
00000001
00000000
00000010
00000200
00000000
,
00000000
00000300
00000000
00000000
00010000
00000000
00001000
02000000
,
00000000
00000000
00000000
00000000
03000000
20100000
00000000
31000000
,
00200000
00000000
00301000
00020000
00000000
00130000
02000000
00000000
,
13000000
01000000
00010000
00100000
00001000
00010000
00000010
00001000
,
00000100
00000001
00000100
00000010
00001000
00010000
00100000
01000000
,
00020000
00000000
00000000
00000000
,
00000000
00230000
00000000
00000000
00000000
00000000
00000000
00300000
,
00000000
00000000
00012000
00000000
00003010
00000002
00000000
00000103
,
00000020
00000000
00010030
00002000
00000000
00103000
00010000
01000000
,
10000000
01000000
00010000
00100000
01000000
00010000
00001000
00000010
,
00000100
00001000
00000001
00000100
00001000
00020000
00000000
00000000
,
00000000
00000000
00000000
00230000
,
00000000
00000000
00000000
00000000
00000000
00300000
00000000
20000000
,
00000000
00000000
32000000
00000000
00000000
03020000
00000000
00031000
,
00000020
00000000
00000031
00002000
00000000
00003010
00000100
00001000
,
00010000
02000000
00000000
00000000
03200000
00000000
00000000
00302000
,
00000000
00013000
00100000
10000000
00010000
10000000
01000000
00010000
,
00001000
00000010
00000001
00000200
00000000
00000000
00000000
00000000
,
00000000
00000000
00000000
00000000
00000300
00000000
00000000
00000000
00010010
00000000
00000000
00010000
00000000
00000000
00101000
00000000
,
00000000
00001000
00000000
00000000
01000000
00000000
01000000
00000000
01000000
00000000
00200000
00000000
00000000
00000000
10300000
00000000
,
02000000
00000000
03010000
00001000
01000000
00010000
00100000
01000000
,
00100000
00001000
00010000
00000010
00000100
00000000
00000000
00002000
,
00000000
00013000
00000200
00000000
00000310
00001000
00000010
00000001
,
00000100
00001000
00010000
01000000
00100000
00001000
00010000
00000000
,
00000000
00200000
00000000
10300000
00020000
00000000
00130000
01000000
,
00010000
00001000
00000100
00000010
00001000
00000001
00000010
00001000
,
00000010
00000100
00010000
00001000
00000100
00001000
00010000
01000000
,
00100000
00001000
00010000
01000000
20000000
00000000
00000000
00000000
,
00000000
00000000
00000000
00000000
,
00000000
00000000
00000000
00000000
00000000
30000000
00000000
00000000
00000000
00000000
00000000
00000000
01000000
00000000
00000000
00000000
,
00000000
00010000
00000000
00000000
00001000
00000000
00000000
00000100
,
00000000
00000000
00001000
00000000
00000000
00010000
00000000
00000000
,
00100000
00000000
00000000
00010000
00000000
00000000
00001000
00000000
,
00000000
00000010
00001000
00000010
00000001
00000100
00001000
00010000
,
01000000
10000000
00100000
00000000
00000000
00010000
00000000
00000000
,
00001000
00000000
00000000
00000010
00000000
00000000
00001000
00000000
,
00000000
00010000
00100000
10000000
20010000
00000000
00000000
01000000
,
00000000
00000000
00010000
00000000
00000000
30200000
00000000
00000000
,
01000000
00000000
00000000
10000000
00000000
00000000
00320000
00000000
,
00000000
00000100
00000000
00000000
00001000
00000000
00000000
00030010
,
00010000
00001000
00000010
00000100
00000001
00000100
00010000
00001000
,
00000200
00000000
00000000
00000001
00000000
00000000
00000010
00000000
,
00000000
00002300
00000000
00000000
00023000
00000000
00000000
00200000
,
00000000
00000000
00000000
00330000
,
00000000
00000000
00000000
00012000
00000000
00000000
00003020
00000000
,
00000000
00000032
00000000
00000103
00001000
00010000
00100000
01000000
,
00010000
00100000
01000000
00010000
00001000
00000020
00000000
00000000
,
00000032
00000000
00000000
00000203
00000000
00000310
00001000
00010000
,
01000000
00100000
00010000
00100000
10000000
01000000
00010000
00002000
,
00000000
00003010
00000100
00010000
00001000
00000100
00000010
00010000
,
00001000
00100000
01000000
00010000
01000000
10000000
00010000
01000000
,
00001000
00200000
00000000
00000000
00302000
00000000
00000000
00003020
,
00000000
00000031
00002000
00000000
00003010
00010000
00001000
00100000
,
00010000
10000000
00010000
02000000
00000000
03100000
00020000
00000000
,
00031000
00000020
00000000
00000130
00000001
00000100
00001000
00000010
,
00010000
00001000
00000010
00000100
00000001
00000100
00010000
00001000
,
01000000
00100000
00010000
00100000
10000000
00010000
00200000
00000000
,
01300000
00020000
00000000
00031000
00000200
00000000
00000310
00002000
,
00000000
00000000
00000000
00003000
,
00010000
01000000
00100000
10000000
00010000
10000000
01000000
00010000
,
00001000
00000100
00000001
00000010
00000100
00001000
00000001
00000100
,
00002000
00013000
01000000
10000000
00100000
01000000
00010000
10000000
,
01000000
00010000
00001000
00000100
00000001
00000010
00000100
00001000
,
00010000
00100000
01000000
10000000
00000000
00000000
00000000
00000000
;

//--------------- dance-double - forcednature ----------------
#NOTES:
     dance-double:
     forcednature:
     Hard:
     16:
     0,0,0,0,0:
00000000
00000000
00000000
00000000
,
00000000
00000000
00000000
00000000
,
00000000
00000000
00000000
00000000
,
00000000
00000000
00000000
00000000
,
00000000
00000000
00000000
00000000
,
00000000
00000000
00000000
00000000
00000000
00022000
00000000
00000000
,
00000000
00000000
00000000
00000000
,
00000000
00000000
00000000
00000000
,
00000000
00000000
00000000
00000000
,
00000000
00000000
00000000
00033000
,
00000000
00002000
00000000
00013000
00200000
00000000
10300000
00020000
,
00000000
00130000
00001000
00000000
00020000
00000000
00000000
00000000
00030010
00001000
00000001
00000000
00000010
00000000
00001000
00000000
,
00000010
00000000
00000100
00000000
00010000
00000000
00001000
00000000
01000000
00010000
00100000
00000000
01000000
00000000
00010000
00000000
,
00001000
00000000
00000100
00000000
00000001
00001000
00000001
00001000
00000200
00000000
00000000
00000000
00000000
00000000
00000001
00000000
,
00000000
00000000
00000010
00000000
00000000
00002300
00000000
00000000
,
00000010
00000000
00000000
00003100
00000000
00000000
00000002
00000000
,
00000103
00000000
00002000
00000000
00000000
00000000
00013000
00000000
00200000
00000000
00000000
10300000
00010000
00000000
00200000
00000000
,
00000000
00000000
01300000
10000000
00010000
00000000
00100000
00000000
01000000
00000000
00010000
00000000
00001000
00000000
00000100
00000000
,
00000010
00000000
00001000
00000001
00000100
00000000
00000001
00000000
00000100
00000000
00001000
00000000
00000010
00000000
00010000
00001000
,
00010000
00001000
02000000
00000000
00000000
00000000
00000000
00000000
10000000
00000000
00000000
00000000
00000000
00000000
00010000
00000000
,
00000000
00000000
03002000
00000000
00000000
00000010
00000000
00000000
,
00010000
00000000
00000000
00000000
00000000
00000000
01003000
00000000
00000000
00000000
00000000
00000000
00200000
00000000
00000000
10300000
,
00010000
00000000
02000000
00000000
00000000
00000000
03001000
00000000
00020000
00000000
00000000
00030100
00001000
00000000
00000020
00000000
,
00000000
00000000
00000130
00000000
00002000
00000000
00000000
00013000
00000100
00000000
00001000
00000001
00001000
00000000
00000010
00000000
,
00020000
00000000
00000000
00031000
00100000
00000000
02000000
00000000
00000000
00000000
13000000
00000000
00020000
00000000
00000000
01030000
,
00001000
00000000
00200000
00000000
00000000
00301000
00010000
00000000
00000020
00000000
00000000
00000000
00000000
00000000
00000030
00000000
,
00000000
00000000
00000000
00000000
00000200
00000000
00000000
00000301
00000010
00000000
00000200
00000000
00000000
00000000
00010300
00000000
,
00002000
00000000
00000000
01003000
00010000
00000000
00200000
00000000
00000000
00000000
01300000
00000000
20000000
00000000
00000000
30010000
,
01000000
00000000
00100000
00000000
00010000
00001000
00010000
00000000
00000200
00000000
00000000
00000310
00000001
00000000
00000200
00000000
,
00000000
00000000
00000000
00000000
00000300
00021000
00000000
00130000
,
20000000
00000000
00000000
00000000
31000000
00000000
00200000
00000000
00000000
00301000
00010000
00000000
00000020
00000000
00000000
00000000
,
00000130
00000001
00001000
00000000
00000100
00000000
00000001
00000000
00000100
00000000
00010000
00000000
00001000
00000000
00000100
00000000
,
00000010
00010000
00001000
00000000
00100000
00000000
01000000
00000000
00010000
00000000
01000000
00000000
10000000
00010000
01000000
00100000
,
20000000
00000000
00000000
00000000
00000000
00000000
01000000
00000000
00000000
01000000
00000000
00000000
00010000
00000000
00000000
00010000
,
00000000
00000000
30200000
00000000
00000000
00000000
00000000
00000000
10000000
00000000
00000000
10000000
00000000
00000000
00010000
00000000
,
00000000
00310000
00000000
00000000
00021000
00000000
00000000
00000000
00030100
00000000
00000020
00000000
00000000
00000000
00001030
00000000
,
00020000
00000000
00000000
00130000
01000000
00000000
00020000
00000000
00000000
00000000
00130000
00001000
00010000
00000000
00000100
00000000
,
00000010
00000000
00000001
00000000
00000100
00000000
00001000
00000000
00010000
00000000
00100000
10000000
00010000
00000000
00100000
00000000
,
01000000
00000000
00010000
00000000
00001000
00000000
00100000
00010000
00100000
00001000
00020000
00000000
00000000
00000000
00000000
00000000
,
00100000
00000000
00000000
00100000
00000000
00000000
00001000
00000000
00000000
00001000
00000000
00000000
00030200
00000000
00000000
00000000
,
00000000
00000000
00000001
00000000
00000000
00000001
00000000
00000000
00001000
00000000
00000000
00001300
00000000
00000000
00020000
00000000
,
00000000
00000000
00230000
00000000
00000000
20300000
00000000
31000000
,
00020000
00000000
00031000
00020000
00000000
00030010
00000100
00000100
,
00001000
00002000
00000000
00000000
00003200
00000000
00000000
00000302
,
00000000
00000000
00000013
00000000
00000100
00000000
00001000
00000001
00001000
00000000
00000010
00000000
00010000
00000100
00010000
00000000
,
00001000
00000000
01000000
00010000
01000000
00000000
00200000
00000000
00000000
00000000
00000000
00000000
00000000
00000000
00000000
00000000
,
00000000
00000000
00000000
00000000
00000000
00000000
10300000
01000000
00100000
00000000
00000000
00101000
00000000
00000000
00010100
00000000
,
00000000
01001000
00000000
00000000
00010010
00000000
00000010
00001000
00000001
00001000
00000200
00000000
00000000
00000310
00000001
00000000
,
00000200
00000000
00000000
00000310
00001000
00000000
00010000
00000000
01000000
00100000
10000000
00000000
01000000
00100000
00010000
00000000
,
00100000
00001000
00010000
00000000
00000010
00010000
00001000
00000000
00000020
00000000
00000000
00000000
00000030
00000000
00000210
00000000
,
00000000
00001300
00000001
00000000
00000200
00000000
00000000
00001300
00010000
00000000
01000000
00000000
00100000
00010000
10000000
00000000
,
00100000
10000000
00100000
00000000
01000000
00010000
01000000
00000000
00001000
00010000
00001000
00000000
00000020
00000000
00000000
00000000
,
00000030
00000000
00000002
00000000
00000000
00000103
00000010
00000000
00002000
00000000
00000000
00003100
00000010
00000000
00001000
00000000
,
00010000
00000100
00001000
00000000
00010000
00000000
01000000
00000000
01000000
00000000
10000000
00000000
01000000
00000000
01000000
00000000
,
00010000
00000000
00001000
00000000
00000100
00000000
00000010
00000001
00000010
00000001
00000100
00000001
00000100
00000001
00001000
00000010
,
00001000
00000010
00010000
00001000
00010000
00001000
00010000
00100000
02000000
00000000
00000000
00000000
00000000
00000000
00000000
00000000
,
00000000
00000000
00000000
00000000
,
00000000
00000000
00000000
00000000
00000000
03000000
00000000
00000000
00000000
00000000
00000000
00000000
00010000
00000000
00000000
00000000
,
00000000
00001000
00000000
00000000
00000001
00000000
00000000
00001000
,
00000000
00000000
00010000
00000000
00000000
10000000
00000000
00000000
,
01000000
00000000
00000000
00001000
00000000
00000000
00000100
00000000
,
00000000
00000010
00000001
00000010
00000100
00001000
00000100
00010000
,
00001000
01000000
00010000
10000000
00010000
00000000
00000000
00000000
00000000
00000000
00100000
00000000
00000000
00000000
00000000
00000000
,
00001000
00000000
00000000
00000010
00000000
00000000
00000001
00000000
,
00000000
00000000
00000100
00000000
00000010
00001000
00000010
00010000
00002000
00000000
00000000
00000000
00000000
00000000
00000100
00000000
,
00000000
00000000
00100000
00000000
00000000
00023000
00000000
00000000
,
01000000
00000000
00000000
00000010
00000000
00000000
00032000
00000000
,
00000000
00000100
00000000
00000000
01000000
00000000
00000000
00013000
,
00001000
00000000
00010000
00000000
01000000
00000000
00100000
00000000
00010000
00000000
10000000
00000000
00100000
01000000
00010000
01000000
,
00002000
00000000
00000000
00100000
00000000
00000000
00000010
00000000
,
00000000
00023000
00000000
00000000
00100000
00000000
00000000
00000020
,
00000000
00000000
00000000
00030030
,
00000000
00000000
00000000
00000000
00000000
00000000
00000001
00000000
00000100
00000010
00000100
00000000
00001000
00000000
00010000
00000100
,
00010000
00000000
00001000
00000000
00100000
00010000
01000000
00000000
00100000
00000000
10000000
01000000
00100000
00010000
10000000
00000000
,
00100000
00000000
00010000
00000000
00001000
00000000
00000010
00000000
00000001
00000000
00001000
00000000
00000001
00000100
00000001
00000000
,
00000010
00000000
00000100
00001000
00000100
00000000
00010000
00000000
00001000
01000000
00010000
00000000
10000000
00000000
01000000
00100000
,
00010000
00100000
00001000
00000000
00010000
00000010
00001000
00000010
00000100
00000000
00001000
00000000
00000100
00000000
00000001
00000000
,
00001000
00000100
00000010
00000001
00001000
00000000
00000010
00000000
00010000
00000000
00001000
00000000
00100000
00010000
00100000
01000000
,
10000000
00000000
01000000
00010000
00001000
00000000
00100000
00000000
00001000
00010000
01000000
00000000
00100000
00000000
00001000
00010000
,
00001000
00000020
00000000
00000000
00000032
00000000
00000000
00000203
,
00000000
00000000
00000310
00000000
00002000
00000000
00000000
00003100
00010000
00001000
00010000
00000000
00100000
00000000
10000000
01000000
,
00100000
00000000
00001000
00000000
00010000
00000000
00010200
00000000
00000000
00000310
00000001
00000000
00000200
00000000
00000000
00000310
,
00001000
00000000
00020000
00000000
00000000
01030000
00010000
10000000
00010000
10000000
01000000
00100000
00010000
00000000
01000000
00001000
,
00010000
00001000
00100000
00000000
01000000
00000000
00010000
00001000
00010000
00000000
00000100
00000000
00001000
00000010
00000100
00000010
,
00010000
00000000
00001000
00000000
00000100
00000000
00010000
00000000
00000100
00000000
00000001
00001000
00000020
00000000
00000000
00000000
,
00010030
00001000
00200000
00000000
00000000
00000000
01300000
10000000
00020000
00000000
00000000
00000000
01030000
00001000
00020000
00000000
,
00000000
00000000
00000000
00030000
,
00000100
00000000
00010000
00000000
00001000
00100000
00010000
00000000
01000000
00000000
00001000
00000000
00010000
00000000
00000010
00001000
,
00000001
00001000
00000100
00000000
00000010
00000000
00000100
00010000
00001000
00000000
00000100
00000000
00001000
00000000
00010000
00000000
,
01000000
00100000
02000000
00000000
13000000
00000000
00010000
00000000
01000000
00100000
10000000
00000000
01000000
00000000
00010000
00000000
,
00001000
00000000
00000100
00000001
00001000
00000001
00000010
00000000
00000100
00000000
00010000
00001000
00010000
00000000
00100000
00000000
,
10000000
01000000
00100000
00010000
01000000
00001000
00010000
00001000
00000000
00000000
00000000
00000000
00000000
00000000
00000000
00000000
;
