#TITLE:DEEP PSYCHEDELIC STRIKER;
#SUBTITLE:;
#ARTIST:影虎。;
#TITLETRANSLIT:;
#SUBTITLETRANSLIT:;
#ARTISTTRANSLIT:Kagetora.;
#GENRE:;
#CREDIT:;
#MUSIC:DEEP PSYCHEDELIC STRIKER.ogg;
#BANNER:DEEP PSYCHEDELIC STRIKER.png;
#BACKGROUND:DEEP PSYCHEDELIC STRIKER-bg.png;
#CDTITLE:;
#SAMPLESTART:82.099;
#SAMPLELENGTH:15.000;
#SELECTABLE:YES;
#OFFSET:-0.051;
#BPMS:0.000=155.000;
#STOPS:;
#BGCHANGES:;
#FGCHANGES:;

//--------------- dance-single - forcednature ----------------
#NOTES:
     dance-single:
     forcednature:
     Beginner:
     5:
     0,0,0,0,0:
0000
0000
0000
0000
,
0000
0000
0000
0000
,
0000
0000
0000
0000
,
0000
0000
0000
0000
,
0000
0000
0000
0000
,
0000
0000
0000
0000
,
0000
0000
0000
0000
,
1000
1000
1000
0000
,
0001
0001
0001
0000
,
0100
0100
0100
0100
,
0100
0000
0000
0000
,
1001
0000
0001
0000
,
0010
0000
0100
0000
,
1000
0000
0010
0000
,
0100
0000
0000
0000
,
0110
0000
0001
0000
,
1000
0000
0010
0000
,
1001
0000
0110
0000
,
1001
0000
0000
0000
,
1000
0000
0100
0000
,
1000
0000
0001
0000
,
0100
0000
0001
0000
,
0010
0000
0100
0000
,
1001
0000
1000
0000
,
0000
0010
0000
0010
,
0100
0100
0100
0100
,
0001
0000
0010
0000
,
1001
0000
1000
0000
,
1000
1000
1000
0000
,
0001
0000
0001
0000
,
0001
0001
0001
0000
,
0110
0000
0100
0000
,
0100
0100
0100
0000
,
0010
0000
0010
0000
,
1001
0000
0000
0000
,
2002
0000
0000
0000
,
0000
0000
0000
0000
,
0000
0000
0000
0000
,
0000
0000
3003
0000
,
0200
0000
0000
0000
,
0000
0000
0000
0000
,
0000
0000
0000
0000
,
0000
0000
0300
0000
,
0010
0010
0010
0000
,
1000
0001
1000
0000
,
0010
0010
0010
0000
,
0001
1000
0001
0000
,
1000
1000
1000
0000
,
0001
0001
0001
0000
,
0100
0010
0100
0010
,
0100
0010
0100
0000
,
2002
0000
0000
0000
,
3003
0000
0000
0000
,
1000
0100
0010
0000
,
0001
0100
0001
0001
,
0001
0100
0010
0000
,
1000
0100
1000
1000
,
1000
0010
0100
0000
,
0001
0100
0001
0001
,
0001
0010
0100
0000
,
1000
0010
1000
0000
,
2002
0000
0000
3003
,
0100
0100
0100
0000
,
0110
0000
0001
0000
,
1000
0010
0100
0001
,
0010
0010
0010
0000
,
0100
0100
0100
0000
,
1000
0001
0100
0010
,
2000
0000
3000
0000
,
0100
0100
0100
0100
,
0010
0001
0010
0001
,
0100
0100
0100
0100
,
0010
1000
0010
1000
,
0100
0100
0100
0000
,
0010
0001
1000
0010
,
0100
0001
1000
0100
,
0010
0100
0010
0000
,
1001
0000
0000
0000
;

//--------------- dance-single - forcednature ----------------
#NOTES:
     dance-single:
     forcednature:
     Easy:
     10:
     0,0,0,0,0:
0000
0000
0000
0000
,
0000
0000
0000
0000
,
0000
0000
0000
0000
,
0000
0000
0000
0000
,
0000
0000
0000
0000
,
0000
0000
0000
0000
,
0000
0000
0000
0000
,
1001
0001
0100
0010
,
1001
1000
0100
0010
,
0001
0100
0001
0100
0010
1000
0010
1000
,
0200
0000
0000
0300
,
1001
0000
0101
0000
1000
0010
0100
0000
,
0001
0010
0100
0000
1000
0001
0100
0000
,
0110
0000
1001
0000
1000
0100
0010
0000
,
0100
1000
0010
0000
0100
0100
0100
0000
,
0101
0000
1100
0000
0001
0010
0100
0000
,
0010
0001
1000
0000
0010
0100
0001
0000
,
1001
0100
1001
0010
,
1100
0000
0101
0000
1000
0001
0100
0000
,
1001
0000
1100
0000
0001
0010
0100
0000
,
1000
0010
0100
0001
0100
0010
1000
0000
,
0011
0000
0001
0000
0100
0010
1000
0000
,
0100
0010
0001
0100
0020
0000
0030
0000
,
1001
0000
1100
0000
0001
1000
0010
0000
,
0100
0000
0001
0100
0000
0001
0100
0000
0001
1000
0000
0000
,
0100
0010
0001
0000
0100
0010
1000
0001
,
0010
0000
0000
0000
0000
0000
0100
0000
0100
1000
0000
1000
,
0001
0101
0001
0101
,
0001
0000
0000
0101
0000
0000
0001
0000
0000
0101
0000
0001
,
1000
1100
1000
1100
,
1000
0000
0000
1100
0000
0000
0010
0000
0010
0000
0010
0000
,
0100
1001
0010
1001
,
1000
0000
0000
0101
0000
0000
0001
0000
0000
1100
0000
0001
,
1000
0011
0001
1010
,
2002
0000
0000
3003
,
0220
0000
0000
0000
,
0000
0000
0000
0000
,
0000
0000
0000
0000
,
0000
0000
0000
0330
,
1001
1000
0000
1000
,
0001
0001
0000
0001
,
0100
0010
0000
0100
,
0020
0000
0000
0030
,
1000
0000
0001
0000
0000
1000
0000
0000
0002
0000
0000
0000
0003
0000
0000
0000
,
0010
0000
0100
0000
0000
0010
0000
0200
0000
0000
0000
0000
0300
0000
0000
0000
,
1000
0000
0010
0000
0000
0100
0000
0000
0002
0000
0000
0000
0003
0000
0000
0000
,
0001
0000
0000
0010
0000
0100
0000
0000
2000
0000
0000
0000
3000
0000
0000
0000
,
1000
0100
1000
0100
0010
0001
0010
0000
,
0001
0100
0001
0100
0010
1000
0010
0000
,
1000
0001
1000
0001
0010
0100
0010
0100
,
1000
0001
1000
0001
0100
0010
0100
0000
,
2002
0000
0000
3003
,
0220
0000
0000
0330
,
0001
0100
0010
0000
1000
0100
0010
0000
,
0100
1000
0100
1000
0001
0010
0001
0000
,
1000
0010
0100
0000
0001
0100
0010
0000
,
1000
0001
1000
0001
0010
0100
0010
0000
,
1001
0000
0001
0000
1000
0010
0100
0000
,
0001
0010
0100
1000
0100
0010
0001
0000
,
0101
0000
1000
0000
0010
1000
0001
0000
,
1000
0000
1000
0000
1000
0000
0000
0000
0001
0000
0000
0010
0000
0000
0100
0000
,
2000
0000
0000
0000
,
3000
0001
0000
0000
0100
0000
0000
0010
0000
0000
1000
0000
0000
0001
0000
0000
,
1001
0000
1100
0000
0001
0010
0100
0000
,
1000
0001
0100
0010
1000
0001
0010
0000
,
0110
0000
0001
0000
1000
0010
1000
0000
,
0001
0010
0100
1000
0100
0010
0001
0000
,
1000
0010
0100
0001
1000
0100
0010
0001
,
0200
0000
0300
0000
,
0010
0000
0010
1000
0000
1000
0001
0000
0001
0010
0000
0000
,
0100
0000
1000
0000
0001
0000
0100
0000
0001
0000
1000
0000
,
0001
0000
0001
0010
0000
0010
0100
0000
0100
1000
0000
0000
,
0010
0000
0100
0000
0001
0000
1000
0000
0100
0000
0010
0000
,
0100
0000
1001
0000
0110
0000
2002
0000
0000
3003
0000
0000
,
1000
0000
1000
0010
0000
0010
0100
0000
0100
0001
0000
0000
,
0110
0000
0000
0001
0000
1000
0100
0000
0010
0001
0000
0000
,
0100
0000
0100
0000
0010
0000
0200
0000
0000
0300
0000
0000
,
1001
0000
0000
0000
;

//--------------- dance-single - forcednature ----------------
#NOTES:
     dance-single:
     forcednature:
     Medium:
     14:
     0,0,0,0,0:
0000
0000
0000
0000
,
0000
0000
0000
0000
,
0000
0000
0000
0000
,
0000
0000
0000
0000
,
0000
0000
0000
0000
,
0000
0000
0000
0000
,
0000
0000
0000
0000
,
1000
0001
1000
0010
1000
0001
0100
0000
,
0001
0010
0100
1000
0100
0010
0001
0000
,
1000
0100
1000
0000
0001
0000
0010
0000
0001
0100
0001
0000
1000
0000
0010
0000
,
2002
0000
0000
3003
,
1000
0000
0100
0000
0010
0000
0000
0001
0000
1000
0000
0000
0001
0000
0100
0000
,
0010
0000
1000
0000
0001
0000
0000
0010
0000
0100
0000
0000
1000
0000
0001
0000
,
1000
0000
0010
0000
0100
0000
0000
1000
0000
0100
0000
0000
0001
0000
1000
0000
,
0100
0000
0001
0000
0100
0000
0000
0010
0000
0001
0000
0000
1000
0000
0001
0000
,
1001
0000
0001
0000
0100
0000
0000
0010
0000
1000
0000
0000
0001
0000
1000
0000
,
0100
0000
0010
0000
0001
0000
0000
1000
0000
0010
0000
0000
0100
0000
0000
0000
,
1001
0000
0010
0010
1001
0000
0100
0100
,
1001
0000
0000
0000
0110
0000
0000
0000
0001
0000
1000
0000
0100
0010
0100
0000
,
1000
0000
0001
0000
0010
0001
0000
1000
0000
0010
0000
0000
0100
0000
0001
0000
,
1000
0000
0100
0000
0010
0001
0000
1000
0010
1000
0000
1000
0001
0000
0001
0000
,
0010
0000
0100
0000
0010
0001
0000
1000
0000
0010
0000
0000
0100
0000
0001
0000
,
1000
0000
0100
0000
0010
0100
0000
0000
2002
0000
0000
0000
3003
0000
0000
0000
,
0101
0000
0001
0000
1000
0010
0000
1000
0000
0100
0000
0100
0010
0000
0001
0000
,
1000
0010
0100
0001
0000
0001
0010
0000
0010
0100
0000
0000
,
1100
0001
0010
0001
0101
1000
0010
1000
,
2002
0000
0000
3003
0000
0000
1000
0100
0010
0001
0100
0010
,
1000
1100
1001
1010
,
1001
0000
0000
1100
0000
0000
1001
0000
0000
1010
0000
1000
,
0001
0101
1001
0011
,
1001
0000
0000
0101
0000
0000
1001
0000
1001
0000
1001
0000
,
0110
0000
0000
1001
0000
0000
1000
0000
0100
0001
0000
0000
,
0110
0000
0000
1001
0000
0000
0001
0000
0100
1000
0000
0100
,
0001
0000
0000
0110
0000
0000
1001
0000
0100
0010
0000
0000
,
2002
0000
0000
3003
,
0220
0000
0000
0000
,
0000
0000
0000
0000
,
0000
0000
0000
0000
,
0000
0000
0000
0330
,
1001
0100
1000
0010
,
1000
0100
0001
0010
,
0001
0100
0010
0100
,
1000
0000
0100
0000
0010
0000
0001
0001
,
1000
0100
1000
0100
0000
0010
0001
0010
0001
0000
0000
0000
0000
0000
0000
0000
,
0001
0100
0001
0000
1000
0010
0000
1000
0010
0000
0000
0000
0000
0000
0000
0000
,
1000
0100
0010
0001
0000
0001
0100
0010
1000
0000
0000
0000
0000
0000
0000
0000
,
1000
0010
0100
0001
0000
0001
0010
0100
1000
0000
0000
0000
0000
0000
0000
0000
,
0001
0001
0100
0100
0010
0010
1000
1000
,
0100
0100
0010
0010
0001
0001
1000
1000
,
0001
0100
0001
0100
0010
0000
0010
0000
1000
0100
1000
0100
0010
0000
0010
0000
,
0001
1000
0001
1000
0001
1000
0001
1000
0001
1000
0001
1000
0001
1000
0001
1000
,
0020
0000
0000
0030
,
2002
0000
0000
3003
,
1000
0100
0010
0001
0000
0010
0001
0000
0100
0000
0010
1000
0000
0001
1000
0000
,
0000
0100
0010
0000
0100
1000
0000
0001
0010
0000
0001
1000
0000
0001
0100
0000
,
0010
1000
0001
1000
0000
0001
0010
0100
1000
0000
0010
0100
0000
0001
0100
0000
,
0010
1000
0001
1000
0000
0001
0010
0001
0000
0100
0000
0010
0000
1000
0001
0000
,
1001
0000
1000
0100
0000
1000
0010
0000
1000
0000
0001
0100
0000
0001
0010
0000
,
0001
0000
1000
0010
0000
0100
0001
0000
1000
0000
0001
0010
0000
0100
1000
0000
,
0001
0000
0100
0010
0000
1000
0100
0010
0001
0000
1000
0010
0000
0100
0001
0000
,
1001
0000
0001
0010
0000
0100
1000
0000
0010
0000
0000
1001
0000
0000
0100
0000
,
2002
0000
0000
3003
,
1000
0100
0010
0000
0001
1000
0000
0001
0100
0000
0010
1000
0000
0001
1000
0100
,
0010
0000
0001
0100
0000
0010
1000
0000
0001
0000
0010
0100
0000
1000
0100
0000
,
0010
0000
0001
1000
0000
0001
0100
0001
0000
0010
0000
0010
0000
0100
1000
0000
,
1001
0000
1000
0000
0100
0010
0100
0000
1000
0000
0001
0000
0100
0010
0100
0000
,
0001
0000
1000
0000
0010
0100
0010
0000
1000
0000
0001
0000
0010
0100
0010
0000
,
0001
0010
0001
0000
1000
0010
1000
0000
0001
0100
0001
0000
1000
0100
1000
0000
,
0020
0000
0030
0000
,
1000
0100
0010
0001
0100
0010
1000
0000
1000
0001
0000
0001
,
0010
0000
0110
0000
1100
0000
0001
0100
0010
1000
0010
0100
,
0001
1000
0100
0010
0001
0100
0010
0000
1000
0001
0000
0010
,
0001
0000
0101
0000
1100
0000
0001
1000
0010
0100
0001
0010
,
0100
0000
0110
0000
1001
0000
0110
0000
0000
0001
1000
0001
,
1000
0000
1010
0000
0101
0000
0001
1000
0100
0010
0100
1000
,
0001
0010
0001
1000
0001
0100
0010
0000
1000
0001
0000
1000
,
0100
0010
0001
0100
0010
1000
0002
0000
0000
0003
0000
0000
,
1001
0000
0000
0000
;

//--------------- dance-single - forcednature ----------------
#NOTES:
     dance-single:
     forcednature:
     Hard:
     15:
     0,0,0,0,0:
0000
0000
0000
0000
,
0000
0000
0000
0000
,
0000
0000
0000
0000
,
0000
0000
0000
0000
,
0000
0000
0000
0000
,
0000
0000
0000
0000
,
0000
0000
0000
0000
,
0001
0010
0100
1000
0001
0100
0010
1000
,
0100
1000
0100
1000
0001
1000
0010
0000
0100
0001
0100
0001
1000
0001
0010
0000
,
0100
1000
0100
1000
0001
0100
0001
0100
0010
1000
0001
0010
0100
1000
0001
0100
,
0020
0000
0000
0000
0000
0000
0130
0110
,
1001
0000
1000
0000
0010
0100
0000
0001
0000
0010
0000
0100
0010
0000
0001
0000
,
1000
0000
0010
0000
0100
0001
0000
1000
0000
0100
0000
0010
0001
0000
0100
0000
,
0010
0000
1000
0000
0001
0010
0000
0001
0000
0100
0000
0010
1000
0000
0100
0000
,
0001
0000
0100
0000
1000
0001
0000
0100
0010
1000
0000
0001
1000
0100
0010
0000
,
1001
0000
0001
0000
0100
0001
0000
0010
0000
0100
0000
1000
0010
0000
0100
0000
,
0001
0000
0010
0000
0001
0100
0000
0010
1000
0001
0000
1000
0200
0000
0300
0000
,
0110
0000
0001
0000
1000
0010
1000
0010
0100
0001
0100
0001
0010
0000
0000
0000
,
0011
0000
0001
0000
0100
0010
0000
1000
0100
0010
0000
0100
1000
0001
1000
0001
,
0100
0000
1000
0000
0100
0010
0000
1000
0000
0001
0000
0010
0100
0000
1000
0000
,
0001
0000
0010
0000
0001
0100
0000
0010
0000
1000
0000
0001
0010
0000
0010
0000
,
1001
0000
0001
0000
1000
0010
0000
1000
0000
0001
0000
0010
0100
0000
1000
0000
,
0001
0000
0100
0000
0010
1000
0000
0100
0010
0000
0010
0001
0000
0010
0001
0010
,
0100
0000
1000
0000
0001
0100
0000
0010
0000
1000
0000
0001
0010
0000
0100
0000
,
1000
0001
1000
0010
0000
0010
0001
0000
0001
0010
0000
0010
,
0100
0000
0100
0000
0001
0000
0001
0000
1000
0100
1000
0100
0010
0001
0010
0001
,
0200
0000
0000
0000
0000
0000
0310
1000
0001
0010
0001
1000
,
0100
0011
0101
1001
,
1010
0000
0000
1100
0000
0000
1001
0000
0000
0110
0000
0001
,
1000
1010
1100
1001
,
0011
0000
0000
0101
0000
0000
1001
0000
0110
0000
1001
0000
,
0110
0000
0000
1001
0000
0000
0001
0000
0100
1000
0000
0100
,
0001
0000
0000
1001
0000
0000
0001
0000
1000
0100
0001
0100
,
1000
0000
0000
1001
0000
0000
1000
0010
0100
0001
1000
0001
,
0020
0000
0000
0000
0000
0000
0130
1000
0100
0010
0001
1000
,
0002
0000
0000
0000
,
0000
0000
0000
0000
0000
0000
0000
0000
0100
0000
0000
0100
0000
0000
1000
0000
,
2003
0000
0000
0000
,
0000
0000
0000
0000
0000
0000
0000
0000
0100
0000
0000
0100
0000
0000
0001
0000
,
3002
0010
1000
0100
,
1000
0000
0000
0000
0010
0000
0000
0000
0100
0000
0000
0100
0000
0000
1000
0000
,
2003
0010
0001
0100
,
0001
0000
0010
0000
0001
0000
3010
0010
,
1000
0100
1000
0010
0000
0100
0001
0010
0002
0000
0000
0000
0000
0000
0000
0000
,
0103
0001
1000
0000
0100
0010
0000
0001
0020
0000
0000
0000
0000
0000
0000
0000
,
0130
1000
0001
0100
0000
0010
1000
0100
2000
0000
0000
0000
0000
0000
0000
0000
,
3010
0100
0001
0010
0000
0100
1000
0001
0200
0000
0000
0000
0300
0000
0000
0000
,
1010
1000
1100
1000
0011
0001
0101
0001
,
1100
0000
0001
0000
0101
0000
1000
0000
1010
0000
0001
0000
0011
0000
1000
0001
,
1000
0100
0010
0001
0100
0010
1000
0001
0010
0001
1000
0010
0100
0001
1000
0001
,
1000
0100
0010
0001
0100
0010
1000
0100
0010
0001
0100
0010
1000
0001
0100
0000
,
2002
0000
0000
3003
,
0220
0000
0000
0330
,
0001
0100
0010
1000
0000
0001
0010
0001
0100
0000
0010
0001
0000
0010
1000
0001
,
1000
0100
0010
0000
0001
0100
0000
0010
1000
0000
0001
0010
0000
1000
0010
0001
,
1000
0001
0100
0010
0000
1000
0100
0010
0001
0000
0100
0010
0000
1000
0001
0010
,
0001
0100
0010
1000
0000
0100
1000
0010
0000
0001
0000
0010
0000
0100
0001
1000
,
0100
0000
0010
0001
0000
0100
0010
1000
0001
0000
0010
0100
0000
1000
0010
0100
,
0001
0000
1000
0100
0000
0001
0100
0000
0010
0000
0001
1000
0000
0010
0100
0001
,
0010
0001
0100
0010
0000
1000
0100
0010
0001
0000
0100
1000
0000
0100
0010
0100
,
0001
0000
1000
0100
0000
0010
0001
0100
0010
0000
0000
1001
0000
0000
0110
0000
,
2002
0000
0000
0000
0000
0000
0000
0000
3003
0000
0000
0000
0001
1000
0001
1000
,
0010
1000
0100
0000
0010
0001
0000
0010
1000
0000
0010
0001
0000
1000
0001
0100
,
0010
1000
0001
0010
0000
0100
1000
0001
0100
0000
0010
1000
0000
0100
1000
0010
,
1000
0100
0010
0001
0000
0100
0010
0100
0000
0001
0000
0010
0000
0100
0001
0100
,
1000
0000
0001
0100
0010
1000
0001
1000
0100
0000
0010
0001
1000
0001
0100
0010
,
1000
0000
0001
0010
0100
1000
0001
0100
0010
0000
1000
0100
0010
0001
0100
0010
,
1000
0100
1000
0001
0100
0001
1000
0010
0100
0001
0010
0100
1000
0001
0100
0010
,
1000
0000
0000
0000
0000
0000
0001
0000
0000
0010
0000
0000
0000
0000
0000
0100
0000
0000
1000
0000
0000
0001
0000
0000
0100
0000
0000
0000
0001
0000
0000
0000
0100
0000
0000
0000
0010
0000
0000
0000
1000
0000
0000
0000
0001
0000
0000
0000
,
0010
1000
0010
0001
1000
0001
0100
0000
0010
1000
0000
0001
,
0011
0000
1001
0000
1100
0000
1000
0010
0001
0010
0100
0001
,
1000
0100
0001
0100
1000
0010
0100
0000
0001
0010
0000
0100
,
1100
0000
0110
0000
0011
0000
0001
1000
0010
0100
0001
0010
,
0110
0000
1001
0000
0110
0000
1001
0000
0000
0001
0100
0100
,
1000
0000
0110
0000
1001
0000
1000
0010
0100
0001
0010
0100
,
0001
0100
1000
0001
1000
0010
0001
0000
0010
0100
0000
0001
,
1000
0100
0100
0001
0100
0100
0020
0000
0000
0030
0000
0000
,
1001
0000
0000
0000
;

//--------------- dance-double - forcednature ----------------
#NOTES:
     dance-double:
     forcednature:
     Easy:
     10:
     0,0,0,0,0:
00000000
00000000
00000000
00000000
,
00000000
00000000
00000000
00000000
,
00000000
00000000
00000000
00000000
,
00000000
00000000
00000000
00000000
,
00000000
00000000
00000000
00000000
,
00000000
00000000
00000000
00000000
,
00000000
00000000
00000000
00000000
,
00001000
00010000
01000000
00100000
,
01000000
10000000
01000000
10000000
00010000
01000000
00001000
00000000
,
00010000
00000100
00010000
00000100
00001000
00000001
00000100
00000000
,
00000220
00000000
00000000
00000330
,
00001001
00000000
00001000
00000000
00000100
00000010
00000100
00000000
,
00010000
00001000
00100000
00001000
00010000
00000000
00100000
00000000
,
01100000
00000000
00010000
00000000
10000000
01000000
00100000
00000000
,
01000000
10000000
00010000
01000000
00001000
00000000
00010000
00000000
,
00011000
00000000
00001000
00000000
00000100
00000001
00001000
00000000
,
00000100
00000001
00000100
00001000
00000010
00000000
00010000
00000000
,
00011000
00100000
00011000
00000010
,
00010000
00001000
00010000
00000000
01000000
00000000
00100000
00000000
,
10010000
00010000
01000000
00001000
,
00010000
00000000
00000100
00000000
00000010
00000010
00000110
00000000
,
00001001
00000001
00000100
00001000
,
00010000
01000000
02200000
03300000
,
10010000
00010000
01000000
00001000
,
00010000
00000000
00010000
00000100
00000000
00000100
00000010
00000000
00000010
00000001
00000000
00000000
,
00000100
00001000
00000100
00001000
00010000
01000000
00010000
01000000
,
00100000
00000000
00000000
00000000
00000000
00000000
00010000
00000000
10000000
00000000
00010000
00000000
,
10010000
10010000
01010000
01010000
,
01000000
00001000
00010000
00000100
,
00001001
00001001
00001100
00001100
,
00000100
00000000
00000000
00010000
00000000
00000000
00001000
00000000
00001000
00000000
00001000
00000000
,
01000000
00000000
00000000
01100000
00000000
00000000
10000000
00000000
01000000
00100000
00000000
00000000
,
00001000
00000000
00000000
00011000
00000000
00000000
00010000
00000000
00000010
00001000
00000000
00000010
,
00001000
00000000
00000000
00000110
00000000
00000000
00000001
00000000
00000100
00000010
00000000
00000000
,
00002002
00000000
00000000
00003003
,
00022000
00000000
00000000
00000000
,
00000000
00000000
00000000
00000000
,
00000000
00000000
00000000
00000000
,
00000000
00000000
00000000
00033000
,
01000000
01000000
00000000
00001000
,
00010000
00000100
00000000
00000100
,
00010000
00001000
00000000
01000000
,
00100000
00000000
10000000
00000000
01000000
00000000
00100000
00100000
,
00001000
00000000
00010000
00000000
00000000
00000010
00000000
00000000
00001001
00000000
00000000
00000000
00000000
00000000
00000000
00000000
,
00000001
00000000
00000100
00000000
00000000
00001000
00000000
00000000
00011000
00000000
00000000
00000000
00000000
00000000
00000000
00000000
,
00010000
00000000
01000000
00000000
00000000
00100000
00000000
00000000
10010000
00000000
00000000
00000000
00000000
00000000
00000000
00000000
,
10000000
00000000
01000000
00000000
00000000
00010000
00000000
00000000
00011000
00000000
00000000
00000000
00000000
00000000
00000000
00000000
,
00001000
01000000
00001000
00010000
00000010
00010000
00001000
00000000
,
00100000
00001000
00010000
00000100
00010000
00001000
00100000
00000000
,
01000000
01000000
00010000
00010000
00001000
00001000
00000100
00000100
,
00000020
00000001
00000100
00001030
,
00022000
00000000
00000000
00033000
,
02200000
00000000
00000000
03300000
,
10000000
01000000
00100000
00000000
00010000
01000000
00001000
00000000
,
00010000
00000100
00001000
00000010
00010000
00000100
00001000
00000000
,
00000001
00000100
00000010
00000000
00001000
00000010
00010000
00000000
,
00001000
00100000
00010000
00100000
01000000
10000000
00010000
00000000
,
01000000
00001000
00010000
00000000
01000000
00100000
00010000
00000000
,
10000000
00100000
01000000
00000000
00001000
00010000
00000100
00000000
,
00001000
00000001
00000100
00000010
00001000
00000100
00000010
00000000
,
00000100
00000000
00010000
00000000
00001000
00000000
00100000
00000000
01000000
00000000
00000000
01000000
00000000
00000000
01000000
00000000
,
20000000
00000000
00000000
00000000
00000000
00000000
30010000
00010000
,
00000000
01000000
00000000
00000000
00001000
00000000
00000000
00010000
00000000
00000000
00000100
00000000
00000000
00000010
00000000
00000000
,
00000001
00000100
00000010
00001000
00000100
00000010
00000100
00000000
,
00010000
00001000
00100000
00000000
00010000
10000000
00100000
00000000
,
01100000
00000000
01000000
00001000
00010000
00000000
00000100
00010000
,
00001000
00000000
00100000
00001000
00010000
00000000
00000010
00010000
,
00001000
01000000
00001000
01000000
00010000
10000000
00010000
10000000
,
02000000
00000000
03000000
00000000
,
00100000
00000000
00100000
00001000
00000000
00001000
00010000
00000000
00010000
00000010
00000000
00000000
,
00000100
00000000
00000110
00000000
00001001
00000000
00000001
00000000
00000010
00000000
00000100
00000000
,
00010000
00000000
00010000
00001000
00000000
00001000
01000000
00000000
01000000
00010000
00000000
00000000
,
00100000
00000000
01100000
00000000
10010000
00000000
10000000
00000000
01000000
00000000
00010000
00000000
,
00001000
00000000
00001000
00000000
00001000
00000000
00011000
00000000
00000000
00000100
00001000
00000100
,
00001000
00000000
00000001
00000000
00000100
00000000
00000010
00000000
00010000
00000000
00001000
00000000
,
00011000
00000000
00000000
00010000
00000000
00010000
01000000
00000000
10000000
00010000
00000000
00000000
,
00010000
10000000
00010000
01000000
00001000
00010000
00002000
00000000
00000000
00000000
00000000
00000000
,
00003010
00000000
00000000
00000000
;

//--------------- dance-double - forcednature ----------------
#NOTES:
     dance-double:
     forcednature:
     Medium:
     14:
     0,0,0,0,0:
00000000
00000000
00000000
00000000
,
00000000
00000000
00000000
00000000
,
00000000
00000000
00000000
00000000
,
00000000
00000000
00000000
00000000
,
00000000
00000000
00000000
00000000
,
00000000
00000000
00000000
00000000
,
00000000
00000000
00000000
00000000
,
00010000
00001000
00010000
00000100
00010000
00000010
00010000
00000000
,
00001000
00010000
00001000
01000000
00001000
00100000
00001000
00000000
,
00010000
01000000
10000000
01000000
00100000
00001000
00010000
00000000
,
00022000
00000000
00000000
00033000
,
00000100
00000000
00001000
00000000
00000010
00000000
00000000
00000100
00000000
00000001
00000000
00000000
00000010
00000000
00000100
00000000
,
00001000
00000000
00000100
00000000
00010000
00000000
00000000
00001000
00000000
01000000
00000000
00000000
00010000
00000000
10000000
00000000
,
01000000
00000000
00010000
00000000
10000000
00000000
00000000
00100000
00000000
01000000
00000000
00000000
00010000
00000000
00100000
00000000
,
00001000
00000000
00010000
00000000
00001000
00000000
00000000
01000000
00000000
00010000
00000000
00000000
00100000
00000000
00001000
00000000
,
00011000
00000000
00010000
00000000
00000010
00000000
00000000
00001000
00000000
00000001
00000000
00000000
00000010
00000000
00000100
00000000
,
00001000
00000000
00000100
00000000
00000010
00000000
00000000
00000001
00000000
00001000
00000000
00000000
00000010
00000000
00000000
00000000
,
00001001
00000000
00000100
00001000
00011000
00000000
01000000
00010000
,
00011000
00000000
00000000
00000000
01001000
00000000
00000000
00000000
01000000
00000000
00010000
00000000
10000000
00100000
10000000
00000000
,
01000000
00000000
00010000
00000000
00001000
00010000
00000000
00000100
00000000
00001000
00000000
00000000
00000001
00000000
00000100
00000000
,
00000010
00000000
00001000
00000000
00000010
00010000
00000000
00001000
01000000
00001000
00000000
00001000
00010000
00000000
00010000
00000000
,
00100000
00000000
10000000
00000000
01000000
00100000
00000000
00010000
00000000
10000000
00000000
00000000
00010000
00000000
01000000
00000000
,
00001000
00000000
00010000
00000000
00000100
00001000
00000000
00000000
00000022
00000000
00000000
00000000
00000033
00000000
00000000
00000000
,
00000001
00000000
00000100
00000000
00001000
00010000
00000000
00001000
00000000
01000000
00000000
01000000
00100000
00000000
10000000
00000000
,
01000000
00010000
00001000
00010000
00000000
00010000
00000010
00000000
00000010
00001000
00000000
00000000
,
00000001
00000001
00000100
00001000
00010000
00010000
01000000
01000000
,
20020000
00000000
00000000
30030000
00000000
00000000
10000000
01000000
00100000
00010000
00100000
00001000
,
00010000
00010010
00011000
00010100
,
00011000
00000000
00000000
01001000
00000000
00000000
00011000
00000000
00000000
00101000
00000000
00100000
,
00010000
01010000
10100000
10010000
,
11000000
00000000
00000000
01010000
00000000
00000000
00011000
00000000
00011000
00000000
00011000
00000000
,
00010100
00000000
00000000
00001100
00000000
00000000
00000001
00000000
00000100
00001000
00000000
00000000
,
00010000
00000000
00000000
01100000
00000000
00000000
10000000
00000000
01000000
00010000
00000000
00001000
,
00010000
00000000
00000000
00001100
00000000
00000000
00000001
00000000
00000100
00001000
00000000
00000000
,
00022000
00003000
00200000
00330000
,
00022000
00000000
00000000
00000000
,
00000000
00000000
00000000
00000000
,
00000000
00000000
00000000
00000000
,
00000000
00000000
00000000
00033000
,
00011000
00010000
01000000
01000000
,
10000000
00010000
01000000
00001000
,
00010000
00010000
00000100
00000100
,
00001000
00000000
00000001
00000000
00000100
00000000
00000010
00000010
,
00001000
00000000
00000100
00001000
00000000
00000100
00010000
00000000
00011000
00000000
00000000
00000000
00000000
00000000
00000000
00000000
,
01000000
00010000
01000000
00000000
00100000
10000000
00000000
10000000
01000000
00000000
00000000
00000000
00000000
00000000
00000000
00000000
,
00100000
00000000
00010000
01000000
00000000
00001000
00010000
00000000
00011000
00000000
00000000
00000000
00000000
00000000
00000000
00000000
,
00000100
00000000
00010000
00001000
00000000
01000000
00010000
00000000
00200000
00000000
00000000
00000000
00300000
00000000
00000000
00000000
,
01000000
10000000
00100000
10000000
01000000
00010000
00001000
00000000
,
00000100
00000001
00000010
00000001
00000100
00001000
00010000
00000000
,
00100000
10000000
00100000
00000000
01000000
00000000
00001000
00000000
00010000
00000100
00010000
00000000
00001000
00000000
00000010
00000000
,
00000001
00001000
00000001
00001000
00000001
00001000
00000001
00001000
00000001
00001000
00000001
00001000
00000001
00001000
00000001
00001000
,
00000002
00000000
00000000
00000003
,
00000220
00000000
00000000
00000330
,
00000001
00000000
00001000
00000100
00000000
00000100
00010000
00000000
00001000
00000000
01000000
00010000
00000000
00010000
10000000
00000000
,
00000000
01000000
00100000
00000000
00010000
00100000
00000000
00001000
00010000
00000000
00000010
00001000
00000000
00000001
00000010
00000000
,
00000100
00000000
00001000
00000001
00000000
00000001
00000100
00000000
00001000
00000000
00010000
00001000
00000000
00001000
00100000
00000000
,
00010000
00000000
10000000
00100000
00000000
00100000
01000000
00010000
00000000
00100000
00000000
01000000
00000000
00010000
00001000
00000000
,
00011000
00000000
00010000
00000100
00000000
00001000
00000100
00000000
00010000
00000000
00001000
01000000
00000000
00010000
01000000
00000000
,
00001000
00000000
00010000
00000010
00000000
00001000
00000010
00000000
00010000
00000000
00001000
00100000
00000000
00010000
00100000
00000000
,
01000000
00000000
10000000
00010000
00000000
00010000
01000000
00000000
00001000
00000000
00010000
00000100
00000000
00000100
00001000
00000000
,
00001001
00000000
00000001
00000100
00000000
00000100
00001000
00000000
00010000
00000000
00000000
01100000
00000000
00000000
10000000
00000000
,
20020000
00000000
00000000
30030000
,
10000000
01000000
00100000
00000000
00010000
01000000
00000000
00001000
00010000
00000000
00000100
00001000
00000000
00000001
00000010
00000001
,
00000010
00000000
00000100
00001000
00000000
00001000
00000010
00000000
00000100
00000000
00001000
00010000
00000000
00010000
00100000
00000000
,
10000000
00000000
00010000
00100000
00000000
00100000
01000000
10000000
00000000
00100000
00000000
01000000
00000000
00010000
01000000
00000000
,
00001000
00000000
00010000
00000000
00000100
00001000
00000100
00000000
00010000
00000000
00001000
00000000
01000000
00010000
01000000
00000000
,
00001000
00000000
00010000
00000000
00000010
00001000
00000010
00000000
00010000
00000000
00001000
00000000
00100000
00010000
00100000
00000000
,
00001000
01000000
00001000
01000000
00001000
00010000
00001000
00000000
00010000
00000100
00010000
00000100
00010000
00001000
00010000
00000000
,
00022000
00000000
00033000
00000000
,
00001000
01000000
00001000
00100000
00010000
00100000
01000000
00000000
01000000
10000000
00000000
10000000
,
00010000
00000000
01010000
00000000
01001000
00000000
00001000
00010000
00000100
00001000
00000100
00000010
,
00000001
00001000
00000001
00000100
00000010
00001000
00000010
00000000
00000010
00010000
00000000
00010000
,
00001000
00000000
00101000
00000000
01010000
00000000
10000000
01000000
00100000
00010000
00100000
00001000
,
00010000
00000000
00010010
00000000
00001010
00000000
00001001
00000000
00000000
00000001
00000100
00000100
,
00001000
00000000
00000110
00000000
00001001
00000000
00001000
00000100
00010000
00001000
01000000
00010000
,
00100000
01000000
00100000
00010000
10000000
00100000
01000000
00000000
01000000
00001000
00000000
00001000
,
00010000
00000100
00001000
00000100
00010000
00001000
00000200
00000000
00000000
00000300
00000000
00000000
,
00001001
00000000
00000000
00000000
;

//--------------- dance-double - forcednature ----------------
#NOTES:
     dance-double:
     forcednature:
     Hard:
     15:
     0,0,0,0,0:
00000000
00000000
00000000
00000000
,
00000000
00000000
00000000
00000000
,
00000000
00000000
00000000
00000000
,
00000000
00000000
00000000
00000000
,
00000000
00000000
00000000
00000000
,
00000000
00000000
00000000
00000000
,
00000000
00000000
00000000
00000000
,
00010000
00001000
00000100
00001000
00010000
00001000
01000000
00001000
,
00100000
00010000
00100000
00010000
10000000
01000000
00100000
00000000
00010000
01000000
00010000
01000000
00001000
00010000
00000100
00000000
,
00001000
00000100
00001000
00000100
00000010
00000001
00000010
00000001
00001000
00000010
00001000
00000100
00010000
00001000
01000000
00010000
,
02000000
00000000
00000000
00000000
00000000
00000000
03100000
01100000
,
10010000
00000000
10000000
00000000
01000000
00010000
00000000
00001000
00000000
00010000
00000000
00000100
00001000
00000000
00000010
00000000
,
00000100
00000000
00000001
00000000
00000100
00001000
00000000
00010000
00000000
00001000
00000000
01000000
00010000
00000000
00100000
00000000
,
01000000
00000000
10000000
00000000
01000000
00010000
00000000
00001000
00000000
00010000
00000000
00000100
00001000
00000000
00000001
00000000
,
00000100
00000000
00000010
00000000
00000100
00001000
00000000
00010000
00001000
00010000
00000000
00100000
10000000
00010000
10000000
00000000
,
10010000
00000000
00010000
00000000
00100000
01000000
00000000
00100000
00000000
00001000
00000000
00010000
00000010
00000000
00000100
00000000
,
00000001
00000000
00000010
00000000
00000100
00001000
00000000
00000001
00000100
00001000
00000000
00000100
00000020
00000000
00000030
00000000
,
00000110
00000000
00000000
00000000
00001000
00000100
00001000
00000100
00010000
00001000
01000000
00001000
00020000
00000000
00030000
00000000
,
00100000
00000000
10000000
00000000
01000000
00100000
00000000
00010000
01000000
00100000
00000000
10000000
01000000
00100000
00010000
00100000
,
00001000
00000000
00010000
00000000
00000010
00001000
00000000
00000100
00000000
00000010
00000000
00000001
00000100
00000000
00001000
00000000
,
00000100
00000000
00000001
00000000
00000010
00000100
00000000
00001000
00000000
00000100
00000000
00010000
00001000
00000000
00001000
00000000
,
00011000
00000000
00010000
00000000
00001000
01000000
00000000
00010000
00000000
10000000
00000000
01000000
00010000
00000000
00001000
00000000
,
00000010
00000000
00000001
00000000
00000100
00000010
00000000
00000100
00001000
00000000
00001000
00010000
00000000
00100000
00010000
00100000
,
10000000
00000000
10000000
00000000
00010000
00100000
00000000
01000000
00000000
00100000
00000000
00001000
00010000
00000000
00000010
00000000
,
00000100
00001000
00000100
00000001
00000000
00000001
00000010
00000000
00000010
00001000
00000000
00001000
,
00010000
00000000
00100000
00000000
00010000
00000000
00001000
00000000
01000000
00010000
01000000
00010000
10000000
01000000
10000000
01000000
,
00200000
00000000
00000000
00000000
00000000
00000000
01300000
00010000
00001000
00000010
00000001
00001000
,
00000001
00000101
00001010
01010000
,
10100000
00000000
00000000
11000000
00000000
00000000
00110000
00000000
00000000
00001100
00000000
00000001
,
00000010
00000101
00001010
00110000
,
11000000
00000000
00000000
10100000
00000000
00000000
01001000
00000000
00010010
00000000
01001000
00000000
,
00010010
00000000
00000000
00001100
00000000
00000000
00000001
00000000
00000100
00001000
00000000
01000000
,
00001000
00000000
00000000
00110000
00000000
00000000
11000000
00000000
10000000
01000000
00010000
00001000
,
00000010
00000000
00000000
00001100
00000000
00000000
00000001
00000100
00000010
00001000
00010000
01000000
,
00200000
00000000
00000000
00000000
00000000
00000000
10300000
01000000
00100000
00010000
00100000
00001000
,
00020000
00000000
00000000
00000000
,
00000000
00000000
00000000
00000000
00000000
00000000
00000000
00000000
00000010
00000000
00000000
00001000
00000000
00000000
00000100
00000000
,
00032000
00000000
00000000
00000000
,
00000000
00000000
00000000
00000000
00000000
00000000
00000000
00000000
00100000
00000000
00000000
00010000
00000000
00000000
01000000
00000000
,
00023000
00100000
00001000
00000100
,
00001000
00000000
00000000
00000000
01000000
00000000
00000000
00000000
00001000
00000000
00000000
00000010
00000000
00000000
00000010
00000000
,
00032000
00100000
00010000
00000100
,
00010000
00000000
01000000
00000000
00010000
00000000
00103000
00100000
,
00001000
00010000
00000100
00010000
00000000
00001000
01000000
00001000
00020000
00000000
00000000
00000000
00000000
00000000
00000000
00000000
,
00030010
00010000
00001000
00000000
00100000
00010000
00000000
00100000
02000000
00000000
00000000
00000000
00000000
00000000
00000000
00000000
,
13000000
01000000
00100000
00010000
00000000
00100000
00001000
00010000
00002000
00000000
00000000
00000000
00000000
00000000
00000000
00000000
,
01003000
00001000
00010000
00001000
00000000
00100000
00010000
00100000
00002000
00000000
00000000
00000000
00003000
00000000
00000000
00000000
,
01000000
10000000
01000000
00010000
00001000
00000100
00000001
00000100
,
00000010
00000000
00000001
00000000
00000010
00000000
00001000
00000000
00010000
00000000
00100000
00000000
10000000
00000000
00010000
00100000
,
01000000
10000000
01000000
00100000
00010000
00100000
00001000
00010000
00000010
00001000
00000010
00000100
00000001
00000100
00000010
00001000
,
00000100
00001000
00000100
00010000
00001000
01000000
00010000
01000000
00100000
10000000
00010000
10000000
01000000
00100000
00010000
00000000
,
20020000
00000000
00000000
30030000
,
02200000
00000000
00000000
03300000
,
10000000
01000000
00100000
00010000
00000000
00100000
00001000
00010000
00001000
00000000
00010000
00000010
00000000
00001000
00000010
00000100
,
00000001
00001000
00000100
00000000
00000010
00000100
00000000
00001000
00000100
00000000
00010000
00001000
00000000
01000000
00010000
01000000
,
00100000
10000000
00010000
10000000
00000000
01000000
00100000
00010000
00100000
00000000
00001000
00010000
00000000
00000010
00001000
00000010
,
00000100
00000001
00001000
00000100
00000000
00010000
00001000
00010000
00000000
00100000
00000000
10000000
00000000
01000000
00100000
00010000
,
00100000
00000000
00001000
00010000
00000000
00000010
00001000
00000010
00000100
00000000
00000001
00000010
00000000
00000100
00000010
00000001
,
00001000
00000000
00000010
00010000
00000000
00001000
00010000
00000000
01000000
00000000
00100000
00010000
00000000
10000000
00100000
01000000
,
00010000
00100000
00010000
01000000
00000000
00100000
10000000
01000000
00100000
00000000
00010000
00100000
00000000
00001000
00010000
00000010
,
00010000
00000000
00001000
00000010
00000000
00000001
00000010
00000100
00001000
00000000
00000000
00001100
00000000
00000000
00010100
00000000
,
00022000
00000000
00000000
00000000
00000000
00000000
00000000
00000000
00033000
00000000
00000000
00000000
00010000
00001000
00010000
00001000
,
01000000
00010000
01000000
00000000
00100000
10000000
00000000
01000000
10000000
00000000
00010000
00100000
00000000
00010000
01000000
00010000
,
00100000
00001000
00010000
00001000
00000000
00000010
00000100
00001000
00000100
00000000
00000010
00000001
00000000
00000100
00000001
00001000
,
00000010
00001000
00000100
00000010
00000000
00000100
00001000
00000100
00000000
00010000
00000000
00001000
00000000
01000000
00010000
01000000
,
00100000
00000000
10000000
01000000
00100000
00010000
00100000
00001000
00010000
00000000
00000010
00001000
00000010
00000100
00000001
00000010
,
00000100
00000000
00000010
00000001
00001000
00000001
00000100
00000010
00001000
00000000
00010000
01000000
00010000
00100000
01000000
00100000
,
00010000
10000000
00100000
10000000
01000000
00100000
00010000
00100000
00001000
00010000
00000010
00001000
00000010
00000100
00000001
00000100
,
00000010
00000000
00000000
00000000
00000000
00000000
00001000
00000000
00000000
00000100
00000000
00000000
00000000
00000000
00000000
00010000
00000000
00000000
00001000
00000000
00000000
00010000
00000000
00000000
00000100
00000000
00000000
00000000
00001000
00000000
00000000
00000000
00000010
00000000
00000000
00000000
00010000
00000000
00000000
00000000
00001000
00000000
00000000
00000000
01000000
00000000
00000000
00000000
,
00010000
00100000
01000000
00100000
00001000
00010000
00100000
00000000
00100000
10000000
00000000
10000000
,
01000000
00000000
01010000
00000000
00011000
00000000
00001000
00000010
00000001
00001000
00000001
00000100
,
00001000
00000100
00000010
00010000
00001000
00000010
00000100
00000000
00000100
00010000
00000000
00010000
,
00001000
00000000
01001000
00000000
01100000
00000000
00100000
10000000
01000000
00010000
01000000
00100000
,
00001000
00000000
00011000
00000000
00000110
00000000
00001001
00000000
00000000
00000100
00000100
00000100
,
00000010
00000000
00001001
00000000
00001100
00000000
00000100
00010000
00001000
01000000
00001000
00010000
,
01000000
00100000
00001000
00010000
00100000
10000000
00010000
00000000
00010000
00100000
00000000
00100000
,
01000000
00010000
00001000
00000100
00001000
00010000
00200000
00000000
00000000
00300000
00000000
00000000
,
00011000
00000000
00000000
00000000
;
