#TITLE:BLAZE∞BREEZE;
#SUBTITLE:;
#ARTIST:BEMANI Sound Team "TAG×PON";
#TITLETRANSLIT:;
#SUBTITLETRANSLIT:;
#ARTISTTRANSLIT:;
#GENRE:;
#CREDIT:;
#MUSIC:BLAZE BREEZE.ogg;
#BANNER:BLAZE BREEZE.png;
#BACKGROUND:BLAZE BREEZE-bg.png;
#CDTITLE:;
#SAMPLESTART:46.115;
#SAMPLELENGTH:15.000;
#SELECTABLE:YES;
#OFFSET:1.371;
#BPMS:0.000=175.000
,206.500=350.000
,207.500=175.000
;
#STOPS:206.500=0.171;
#DISPLAYBPM:175.000;
#BGCHANGES:;
#FGCHANGES:;

//--------------- dance-single - chrononical ----------------
#NOTES:
     dance-single:
     chrononical:
     Beginner:
     4:
     0,0,0,0,0:
0000
0000
0000
0000
,
0000
0000
0000
0000
,
0000
0000
0000
0000
,
0000
0000
0000
0000
,
0000
0000
0000
0000
,
0000
0000
0000
0000
,
2002
0000
0000
3003
,
1000
0000
0001
0000
,
2002
0000
0000
3003
,
0001
0000
1000
0000
,
1001
0000
0110
0000
,
1001
0000
1000
1000
,
1000
0000
0100
0000
,
0010
0010
0001
0000
,
0100
0100
0001
0000
,
1001
0000
0000
0000
,
1000
0001
1000
0000
,
1001
0000
0001
0001
,
0001
0100
0001
0000
,
1001
0000
0110
0000
,
1001
0000
1000
1000
,
1000
0000
0100
0100
,
1000
1000
1000
0000
,
0001
0001
0001
0000
,
1001
0000
0101
0000
,
1001
0000
1000
0000
,
1001
0000
1100
0000
,
1001
0000
0001
0000
,
0100
0100
0100
0000
,
0010
0010
0010
0000
,
1000
1000
1000
0000
,
0001
0001
0001
0000
,
1000
0000
0001
0000
,
1000
0000
0000
0000
,
0002
0000
0000
0003
,
1000
0100
1000
0000
,
0001
0100
0001
0000
,
1000
0000
0100
0010
,
0001
0100
0001
0000
,
1000
0010
1000
0000
,
0001
0010
0001
0000
,
1001
0000
1001
0000
,
1001
0000
1000
0000
,
0001
0010
0001
0000
,
0010
0100
0010
0000
,
0001
0000
0100
0000
,
0010
0000
1000
0000
,
0001
0000
0100
0000
,
0010
0000
0100
0000
,
0001
0000
0010
0010
,
0010
0000
0100
0000
,
1000
0000
0001
0000
,
0000
0000
1000
0000
,
0100
0100
0100
0000
,
2000
0000
3000
0000
,
0002
0000
0003
0000
,
0200
0000
0300
0000
,
0002
0000
0000
0003
,
1001
0000
0000
0000
,
0110
0000
0000
0000
,
1001
0000
1000
0000
,
1001
0000
0001
0000
,
1001
0000
1000
0000
,
0100
0000
0000
0000
,
0020
0000
0000
0000
,
0032
0000
0000
0000
,
2003
0000
3000
0000
,
0001
0100
0001
0000
,
1000
0000
0100
0000
,
0010
0010
0010
0000
,
0002
0000
0003
0000
,
1000
0010
1000
0000
,
0001
0000
0100
0000
,
0010
0010
0010
0000
,
1000
0100
0010
0000
,
0010
0100
1000
0000
,
0001
0000
0100
0000
,
0010
0000
1000
0000
,
0001
0000
0010
0000
,
0100
0000
0010
0000
,
0001
0001
0001
0000
,
1000
1000
1000
0000
,
0001
1000
0001
0000
,
1000
0100
1000
0000
,
0001
0010
0001
0000
,
1000
0000
0100
0000
,
0001
0000
0010
0000
,
0000
1000
0001
1000
;

//--------------- dance-single - chrononical ----------------
#NOTES:
     dance-single:
     chrononical:
     Easy:
     8:
     0,0,0,0,0:
0000
0000
0000
0000
,
0000
0000
0000
0000
,
0000
0000
0000
0000
,
0000
0000
0000
0000
,
0000
0000
0000
0000
,
0000
0000
0000
0000
,
2002
0000
0000
3003
,
1000
0100
0010
0001
,
2002
0000
0000
3003
,
0001
0100
0010
1000
,
1001
0010
1001
0100
,
1001
0000
1000
0000
0100
0010
0100
0000
,
0010
0001
1000
0010
,
1001
1000
0100
0010
,
0001
0010
0001
0000
1000
0010
1000
0000
,
1001
0000
0000
0000
,
0001
0010
0001
1000
,
1001
0000
0000
0000
1000
0010
1000
0000
,
0001
0010
0100
1000
,
1001
0100
1001
0010
,
1001
0000
0001
0000
0100
0010
0100
0000
,
0001
1000
0100
0010
,
1001
0000
0001
0000
0100
0001
0100
0000
,
0010
1000
2002
3003
,
1100
0000
1001
0000
,
1000
0100
0010
0001
,
0101
0000
1001
0000
,
0001
0100
0010
1000
,
0001
0010
1000
0010
,
0001
0100
1000
0100
,
0001
0010
1000
0001
,
1000
0010
0001
1000
,
0010
0100
0010
0000
1000
0001
1000
0000
,
0001
0000
0100
0020
0000
0000
0000
0000
,
1030
0010
0100
0001
,
1000
0000
0100
0000
0010
0100
0010
0000
,
0001
0000
0100
0000
0010
0100
0010
0000
,
1000
0100
0001
0100
,
1000
0010
0100
0001
,
1001
0000
1000
0000
0001
0100
0001
0000
,
0100
0010
0001
0010
,
1000
0100
0100
0010
,
0001
0100
0100
0010
,
1000
0000
0001
0000
0100
0010
0100
0000
,
0001
0000
0010
0000
0100
0010
0100
0000
,
1000
0010
0100
0100
,
0001
0000
1000
0001
0000
0001
1000
0000
,
0001
0100
0010
0100
,
0001
0010
0100
0010
,
0001
0100
0100
0010
,
1001
1000
0100
0010
,
0001
0100
0010
0000
,
1000
0100
0010
0100
,
1000
0001
1000
0001
,
2000
0000
3200
0000
,
0320
0000
0032
0000
,
2003
0000
3020
0000
,
0230
0000
0000
0000
,
0301
0000
0100
0000
0000
0100
0000
0000
,
0100
0000
0000
0010
0000
0000
2000
0000
,
3001
0100
1000
0100
,
0001
0010
1000
0010
,
0001
0100
0001
0000
1000
0100
1000
0000
,
0001
0000
0010
0200
0000
0000
0000
0000
,
1300
0010
0100
1000
,
0200
0000
0000
0000
,
0302
0000
0000
0013
,
0100
0001
0200
0000
,
1300
0010
0100
0100
,
1000
0100
0001
0100
,
0020
0000
0000
0130
,
0001
1000
0100
0001
,
0200
0000
0310
0100
,
1000
0001
1000
0001
,
1000
0000
0010
0000
0100
0010
0100
0000
,
0010
0000
1000
0000
0100
0010
0100
0000
,
0010
1000
0010
0001
,
0100
0000
0010
0100
0000
0100
0010
0000
,
1000
0100
0010
0001
,
1000
0010
0100
1000
,
0100
0001
1000
0000
,
0100
1000
0001
0000
,
0100
0010
0100
0100
,
1001
1000
0100
0010
,
1001
0001
0100
0010
,
1000
0100
0001
0100
,
0010
1000
0010
0001
,
0000
0000
1001
0000
0000
1001
0000
0000
;

//--------------- dance-single - chrononical ----------------
#NOTES:
     dance-single:
     chrononical:
     Medium:
     14:
     0,0,0,0,0:
0000
0000
0000
0000
,
0000
0000
0000
0000
,
0000
0000
0000
0000
,
0000
0000
0000
0000
,
0000
0000
0000
0000
,
0000
0000
0000
0000
,
2002
0000
0000
3003
,
0001
0000
0100
0000
0010
0000
0100
0010
0000
0100
0010
0000
1000
0000
0001
0000
,
2002
0000
0000
3003
,
1000
0000
0100
0000
0010
0000
0100
0010
0000
0100
0010
0000
0001
0000
1000
0000
,
0001
0100
0010
0000
0010
0100
0001
0000
,
1000
0100
0010
0000
0010
0100
1000
0001
,
1000
0000
0000
0010
0000
0000
0100
0000
0110
0000
0000
0000
0110
0000
0000
0000
,
1001
0000
0001
0000
0010
0000
0100
0010
0000
0100
0010
0000
0001
0000
1000
0001
,
1000
0010
0010
0100
0100
0001
0002
0000
,
1003
0100
0000
0100
0000
0100
0010
0001
,
1000
0000
0010
0000
0100
0000
0010
0100
0000
0001
0100
0000
0001
0000
1000
0000
,
0001
0000
0010
0000
0000
0000
0010
0000
0100
0010
0100
0000
1000
0100
1000
0000
,
0001
0000
0100
0000
0001
0000
1000
0100
0000
0100
1000
0000
0001
0000
1000
0000
,
0010
1000
0100
0000
0100
1000
0010
0000
,
0100
0001
0010
0000
0010
0001
0100
0001
,
1000
0000
0000
0100
0000
0000
0010
0000
0110
0000
0000
0000
0110
0000
0000
0000
,
1001
0001
0100
1000
0100
0001
0010
0100
,
0010
0100
0010
0000
0100
0000
0100
2000
0000
0000
0000
0000
3001
0000
1000
0000
,
1002
0000
0203
0000
,
0310
0001
0010
1000
0010
0001
0010
1000
,
2001
0000
3200
0000
,
0310
1000
0010
0001
0010
1000
0010
0001
,
0100
0000
0000
0100
0000
0000
0100
0000
0010
0000
1000
0000
0001
0000
0010
0000
,
0100
0000
0000
0100
0000
0000
0100
0000
0010
0000
0001
0000
1000
0000
0010
0000
,
0100
0000
0000
1000
0000
0000
0100
0000
0010
0000
1000
0000
0001
0000
0010
0000
,
0100
0000
0000
0001
0000
0000
0100
0000
0010
0000
0100
0000
1000
0000
0001
0000
,
1000
0010
0100
0010
0100
0001
1000
0001
,
1001
0000
0000
0110
0000
0000
2002
0000
0000
0000
0000
0000
3003
0000
0000
0000
,
0001
0000
0010
0000
0100
0000
0010
0100
0000
0100
1000
0000
0001
0000
1000
0000
,
0001
0100
0010
0100
0001
1000
0001
0010
,
0001
0010
0100
1000
0001
0010
0100
0010
,
0001
0100
0010
0100
1000
0100
0010
1000
,
0100
0000
0010
0100
0000
0010
0000
0001
0000
0000
1000
0000
0010
0000
0100
0000
,
0001
0010
0100
0010
0001
1000
0001
0100
,
0001
0000
0100
0010
0000
1000
0002
0000
0000
0000
0013
0000
0100
0000
1000
0000
,
0001
0010
1000
0010
0100
0001
0100
1000
,
0001
0000
0000
0100
0000
0000
0010
0000
1000
0000
1000
0000
0001
0000
1000
0000
,
0001
0100
0010
1000
0010
0100
0001
1000
,
0100
0010
0001
0020
0000
1030
0010
0001
,
1000
0010
0100
0001
0100
0010
0100
0001
,
1001
0000
0000
0000
1000
0000
0100
0000
0000
0000
0100
0000
0010
0000
0001
1000
,
0001
0100
0010
0000
0100
0010
1000
0000
,
0001
0010
0100
0000
0010
0100
1000
0001
,
1000
0000
0000
0010
0000
0000
0100
0000
0101
0000
0000
0000
0101
0000
0000
0000
,
1001
0000
1000
0000
0100
0000
0010
0100
0000
0100
1000
0000
0001
0000
1000
0000
,
0001
0000
0001
0000
0100
0000
0010
0100
0000
0100
0001
0000
0000
0000
0001
0000
,
1000
0000
0100
0000
0010
0000
0100
1000
0000
0001
1000
0000
0010
0000
0100
0000
,
0001
0010
0100
0010
0100
1000
0001
1000
,
0002
0010
2003
0010
,
3002
0023
0230
2300
,
3002
0100
2003
0010
,
3002
0203
0320
2030
,
3001
0010
0100
0000
0000
0100
0000
0000
,
0100
0000
0000
1000
0000
0000
0001
0000
0000
0000
0100
0000
0010
0000
1000
0000
,
0010
0000
0000
0001
0000
0000
0010
0000
1000
0000
0100
0000
0010
0000
0001
0000
,
0010
0000
0000
1000
0000
0000
0010
0000
0001
0000
0100
0000
0010
0000
1000
0000
,
0001
0010
0100
0010
0100
1000
0001
1000
,
1001
0000
0000
0110
0000
0000
2002
0000
0000
0000
0000
0000
3003
0000
0000
0000
,
1000
0000
0100
0000
0010
0000
0100
0010
0000
0010
0100
0000
1000
0000
0001
0000
,
0200
1000
0010
0301
,
2002
0000
0000
0000
3003
1000
0100
0010
,
0100
0000
0000
0010
0000
0000
0100
0000
2000
0000
0000
0000
0000
0000
3001
0000
,
0100
0010
1000
0020
0000
0130
0001
1000
,
0100
0010
0001
0011
0000
0001
1000
0001
,
2002
0000
0000
0000
3003
0001
0100
0010
,
0100
0000
0000
0010
0000
0000
0100
0000
0001
0000
0010
0000
1000
0000
0010
0000
,
0002
0000
0000
0000
0000
0000
0103
0010
0100
0000
0010
0000
1000
0000
0100
0010
,
0100
0000
0000
1000
0000
0000
0001
0000
0000
0000
0001
0000
0001
0000
1000
0000
,
1000
0010
0100
0010
1000
0010
0100
0001
,
1000
0100
0010
1000
0010
0100
1000
0001
,
1000
0010
0100
0001
1000
0100
0010
0100
,
0010
0000
0001
0000
0100
0000
0010
0000
0100
0000
0001
0000
0001
0000
1000
0001
,
0100
0001
0010
0000
0100
1000
0010
0000
,
0100
0001
0010
0020
0000
1030
0010
0001
,
1000
0000
0000
0010
0000
0000
0100
0000
0110
0000
0000
0000
1001
0000
0000
0000
,
1000
0000
0000
0100
0000
0000
0010
0000
0110
0000
0000
0000
1001
0000
0000
0000
,
0001
0000
0000
0100
0000
0000
1000
0000
0100
0000
0000
0000
0110
0000
0000
0000
,
1001
0000
1000
0000
0001
0000
0010
1000
0000
0010
0001
0000
1000
0000
0001
0000
,
1000
0000
1000
0000
0001
0000
0100
1000
0000
0100
0001
0000
1000
0000
0001
0000
,
0100
0010
0100
0000
0010
0000
1000
0001
1000
0000
0100
0000
0010
0000
0001
0000
,
1000
0010
0100
0001
1000
0100
0010
0100
,
0000
0000
0000
0000
0110
0000
0000
0110
0000
0000
1001
0000
0000
1001
0000
0000
;

//--------------- dance-single - chrononical ----------------
#NOTES:
     dance-single:
     chrononical:
     Hard:
     17:
     0,0,0,0,0:
0000
0000
0000
0000
,
0000
0000
0000
0000
,
0000
0000
0000
0000
,
0000
0000
0000
0000
,
0000
0000
0000
0000
,
0000
0000
0000
0000
,
2002
0000
0000
3003
,
1000
0000
0100
0000
0010
0100
1000
0100
0000
0010
0001
0000
1000
0000
0001
0000
,
2002
0000
0000
3003
,
0001
0000
0100
0000
0010
0100
0001
0100
0000
0010
1000
0000
0001
0000
1000
0000
,
1001
0001
0010
1000
1010
0010
0001
1000
,
1001
0000
1000
0000
0010
0000
0001
0000
0010
0100
0010
0100
0001
1000
0001
0000
,
1001
0000
0000
0101
0000
0000
0110
0000
0110
0000
0000
0000
1001
0000
0000
0000
,
0011
0000
0010
0000
0100
0010
0100
0010
0000
0100
1000
0000
0001
0000
0001
0100
,
0010
0000
0100
0001
1000
0010
1000
0002
0000
0000
0013
0100
2000
0000
0000
0000
,
3002
0010
0000
0100
0000
1000
1003
0010
,
0100
0000
1000
0000
0100
0001
1000
0100
0000
0010
0100
0000
1000
0000
0010
0000
,
0020
0000
0001
0000
0000
0000
1000
0000
1030
0100
0010
0100
1000
0001
0100
0010
,
0100
0000
0001
0000
1000
0010
0000
0010
0000
0100
0001
1000
0100
0010
0001
0000
,
1001
1000
0100
0001
0101
0100
1000
0001
,
1001
0000
0001
0000
0100
0000
1000
0000
0100
0010
0100
0010
1000
0001
1000
0000
,
1001
0000
0000
1010
0000
0000
0110
0000
0110
0000
0000
0000
1001
0000
0000
0000
,
1100
0000
0100
0010
0001
0000
1000
0010
0100
0000
0001
0100
0010
1000
0100
0010
,
0001
1000
0010
0100
0001
1000
0001
1000
0002
0000
0000
0000
1003
0000
0001
0000
,
2002
3003
2200
3300
,
1001
1000
0001
0100
0010
0010
1000
0001
,
2002
3003
0202
0303
,
1001
0001
1000
0100
0010
0010
0001
1000
,
0001
0000
0000
0100
0000
0000
0010
0000
1000
0000
0100
0000
0010
0001
1000
0001
,
1000
0000
0000
0100
0000
0000
0010
0000
0001
0000
0100
0000
0100
0000
0001
1000
,
0001
0000
0000
0100
0000
0000
1000
0000
0100
0000
0100
0000
0001
0010
0100
0010
,
0100
0000
0000
0001
0000
0000
0100
0000
1000
0000
1000
0000
0010
0100
0001
1000
,
0100
0000
0010
0000
0100
0000
0010
0001
1000
0000
0010
0100
0001
1000
0001
0000
,
1001
0000
0000
1100
0000
0000
2200
0000
0000
0000
0000
0000
3300
0000
0000
0000
,
1000
0000
0100
0000
0010
0100
0010
0100
0000
1000
0001
0000
0001
0000
1000
0000
,
1000
0000
0010
0100
0000
1000
0000
0100
0000
0010
0100
0000
0001
0000
1000
0000
,
0001
0000
0010
0100
0000
0001
0000
0201
0000
0000
0310
0000
0001
0000
1000
0000
,
0001
0000
0100
0000
0010
0100
0010
0100
0000
0010
1000
0000
0100
0000
0010
0000
,
0001
0000
0100
0010
1000
0001
0010
0100
0000
0000
0010
0000
0100
0000
1000
0001
,
1000
0000
0010
0000
0100
1000
0100
0010
0000
0100
0010
0000
1000
0000
0100
0000
,
0010
0000
0001
0010
0000
1000
0000
1020
0000
0000
0130
0000
1000
0000
0010
0000
,
0100
0000
0000
0001
0000
0000
1000
0000
1000
0000
0100
0000
0010
0000
0001
1000
,
0010
0000
0000
1010
0000
0000
1001
0000
1001
0000
0001
0100
0010
1000
0001
1000
,
0001
0000
0100
0010
0000
0001
0000
0010
0000
0100
0010
0000
1000
0000
0001
0000
,
1000
0000
0100
0010
0000
1000
0000
1020
0000
0000
0130
0000
1000
0000
0001
0000
,
1000
0000
0010
0000
0001
0010
0100
0010
0000
0100
0010
0000
1000
0000
0100
0000
,
0010
0000
0001
0000
0010
0000
0110
0000
0000
0000
0110
0000
0100
0000
1000
0001
,
1000
0010
0100
0010
1000
0100
0010
0100
,
1000
0010
0100
0001
1000
0100
0010
0001
,
1001
0000
0000
0101
0000
0000
0110
0000
1010
0000
0000
0000
1001
0000
0000
0000
,
1100
0000
0100
0000
0010
0100
1000
0100
0000
1000
0010
0000
0100
0000
0001
1000
,
0100
0000
0010
0000
0100
0010
0001
0010
0000
0100
1000
0000
0000
0000
1000
0001
,
1000
0000
0010
0000
0100
0001
0100
0010
0000
0010
1000
0000
1000
0000
0010
0100
,
0001
0000
0010
0100
0010
0000
0100
1000
0001
0100
0010
1000
0001
0100
0010
0100
,
0020
1000
0001
1000
,
0230
0001
1000
0001
,
0302
1000
0100
0010
,
0013
0000
0001
0000
1000
0000
0001
0000
1000
0001
0100
0010
1000
0001
1000
0001
,
1000
0100
1100
0000
0000
0110
0000
0000
,
0011
0000
0000
0110
0000
0000
1100
0000
0000
1000
0100
0010
0001
1000
0001
1000
,
0001
0000
0000
0100
0000
0000
1000
0000
1000
0000
0100
0000
0001
0010
0100
0010
,
0001
0000
0000
0010
0000
0000
1000
0000
1000
0000
0010
0000
0100
1000
0001
1000
,
0001
0000
0100
0000
0010
0000
0100
0001
1000
0000
0100
0010
0001
1000
0001
0000
,
1001
0000
0000
1010
0000
0000
2020
0000
0000
0000
0000
0000
3030
0000
0000
0000
,
1000
0000
0001
0000
0100
0001
0100
0010
0000
1000
0001
0000
0010
0100
0010
0100
,
1000
0000
0001
0000
0100
0001
0100
0010
0000
0010
1000
0000
1000
0000
0001
0000
,
2002
0000
0000
0000
3003
0001
0100
0010
,
0110
0000
0000
0100
0000
0000
1000
0000
0200
0000
0000
0000
0000
0000
0301
0010
,
0100
1000
0100
1200
0000
0301
0100
1000
,
0001
0000
0100
0010
0000
0010
0000
0110
0000
0000
0100
0000
0001
0000
1000
0000
,
2002
0000
0000
0000
3003
0001
0010
0100
,
0110
0000
0000
0100
0000
0000
0001
0000
0100
0000
1000
0000
0100
0000
0001
0000
,
0100
0000
0000
0010
0000
0000
0100
0000
1000
0000
1000
0000
0001
0000
0001
1000
,
0001
0000
0100
0000
0010
0000
1000
0000
0001
0100
0010
0100
0010
1000
0001
1000
,
0001
0000
0010
0100
0000
0001
0000
0100
0000
0010
0100
0000
0010
0000
0001
0000
,
1000
0000
0010
0100
0000
1000
0000
1200
0000
0000
1300
0000
0100
0000
0001
0000
,
1000
0000
0100
0000
0001
0100
0010
0100
0000
0100
1000
0000
0001
0000
0100
0000
,
0010
0100
0001
0000
0001
0000
0100
0010
1000
0000
1000
0000
0010
0000
0010
1000
,
0001
0010
0100
0010
0001
0100
0010
0100
,
0001
0010
0100
0210
0000
0301
0100
0010
,
0110
0000
0000
0110
0000
0000
0011
0000
1001
0000
1000
0000
0010
0000
0100
0010
,
0100
0000
0000
0110
0000
0000
1010
0000
1001
0000
1000
0000
0100
0000
0010
0100
,
0010
0100
1000
0001
0100
0010
1000
0001
1000
0000
0000
0000
1001
0000
0000
0000
,
1100
0000
0100
0000
0001
0100
0010
0100
0000
0010
0100
0000
1000
0000
0001
0000
,
1000
0000
0010
0000
0001
0010
0100
0010
0000
0100
0010
0000
1000
0000
0001
0000
,
1000
0100
0010
0000
0100
0000
1000
0001
0100
0010
1000
0001
1000
0100
0010
0100
,
0010
0001
0010
0001
1000
0010
0100
0010
0100
0001
0100
0001
1000
0100
0010
0001
,
0000
0000
0000
0000
0001
0100
0000
1000
0100
0000
0010
0100
0000
0001
1000
0000
;

//--------------- dance-double - kaya ----------------
#NOTES:
     dance-double:
     kaya:
     Easy:
     12:
     0,0,0,0,0:
00000000
00000000
00000000
00000000
,
00000000
00000000
00000000
00000000
,
00000000
00000000
00000000
00000000
,
00000000
00000000
00000000
00000000
,
00000000
00000000
00000000
00000000
,
00000000
00000000
00000000
00000000
,
10010000
00000000
00000000
00000000
,
10000000
01000000
00010000
00000000
00001000
00000100
00000001
00000000
,
00000010
00000000
00000000
00000000
,
00000001
00000100
00001000
00000000
00010000
01000000
10000000
00000000
,
00100000
00000000
10000000
00000000
00010000
10000000
00010000
00000000
,
00100000
00001000
00100000
00000000
00001000
00010000
00000010
00000100
,
00000001
00000000
00000000
00001000
00000000
00000000
00000010
00000000
00011000
00000000
00000000
00000000
00001010
00000000
00000000
00000000
,
00110000
00000000
00100000
01000000
00000000
10000000
00100000
01000000
,
00010000
00000000
00001000
00000010
00000000
00001000
00000001
00000100
,
00000110
00000000
00000000
00000000
,
00000001
00000010
00001000
00000000
00010000
00100000
10000000
00000000
,
01000000
00000000
00000000
00000000
,
10000000
00100000
00010000
00000000
00001000
00000010
00000001
00000000
,
00001000
00000000
00001001
00000000
00000001
00000100
00000010
00000000
,
00001000
00000100
00010000
00000000
00100000
00001000
01000000
00100000
,
10000000
00000000
00000000
00010000
00000000
00000000
00100000
00000000
00110000
00000000
00000000
00000000
01010000
00000000
00000000
00000000
,
00001100
00000000
00000100
00000010
00000100
00001000
00000100
00000010
,
00000001
00000100
00000010
00010000
00001000
00000000
00110000
00000000
,
20000000
00000000
32000000
00000000
,
03100000
00000000
00000000
00010000
00000000
00000000
00001000
00000000
00000010
00000000
00000000
00000000
00000100
00000000
00000100
00000000
,
00000002
00000000
00002003
00000000
,
00003100
00000000
00000000
00001000
00000000
00000000
00010000
00000000
01000000
00000000
00000000
00000000
00100000
00000000
00000000
00000000
,
10010000
00000000
10000000
00000000
00010000
01000000
00100000
00000000
,
00010000
00000000
00001000
00000000
00000010
00000001
00000100
00000000
,
00000011
00000000
00001000
00000000
00000001
00001000
00000010
00000000
,
00011000
00000000
00010000
00000000
01000000
00100000
00010000
00000000
,
10000000
00100000
10000000
00100000
01000000
00010000
01000000
00010000
,
00100000
00000000
00000000
00002000
00000000
00000000
00020000
00000000
00000000
00000000
00000000
00000000
00033000
00000000
00000000
00000000
,
00000000
00000000
00000000
00000000
,
00001001
00000000
00000001
00000100
00001000
00000000
00010000
00000000
,
00011000
00000000
00010000
00001000
01000000
00000000
00100000
00000000
,
10010000
00000000
10000000
01000000
00100000
00000000
00001000
00000000
,
00011000
00000000
00000000
00000000
00001000
00000000
00000000
00001000
00000000
00000000
00000100
00000000
00000010
00000000
00001000
00000000
,
00000000
00000000
00000001
00000010
00000100
00000000
00001000
00000000
,
00001010
00000000
00000010
00010000
00001000
00000000
01000000
00010000
,
10000000
00000000
00000000
00100000
00000000
00000000
01000000
00000000
00010000
00000000
10000000
00000000
01000000
00000000
10000000
00000000
,
00010000
00000000
00000000
00100000
00000000
00000000
00001000
00000000
00010000
00000000
00000010
00000000
00000100
00000000
00000001
00000000
,
00001001
00000000
00000001
00000010
00001000
00000000
00010000
00000000
,
00011000
00000000
00010000
01000000
10000000
00000000
00100000
00000000
,
10000000
00100000
01000000
00000000
00010000
00100000
00001000
00000000
,
00011000
00001000
00000100
00000001
00000000
00000010
00000100
00001000
,
00000002
00000000
00000000
00000000
00000000
00000000
00000000
00000000
00000103
00000000
00000000
00001000
00000000
00000000
00010000
00000000
,
01000000
00000000
00000000
10000000
00000000
00000000
00020000
00000000
00000000
00000000
00000000
00000000
00000000
00000000
10030000
00000000
,
00100000
00000000
00000000
01000000
00000000
00000000
00001000
00000000
00011000
00000000
00000000
00000000
00001010
00000000
00000000
00000000
,
00000101
00000000
00000001
00000100
00000000
00000001
00000100
00000000
,
00000010
00000000
00001000
00000100
00000000
00001100
00000000
00010000
,
00001000
00000000
00100000
00010000
00000000
00100000
01000000
00000000
,
10000000
00010000
10000000
00010000
01000000
00001000
00010000
00000010
,
00000200
00000000
00000302
00000000
,
00000013
00000000
00000000
00000100
00000000
00000000
00001000
00000000
00000010
00000000
00000000
00000000
00000100
00000000
00001000
00000000
,
00020000
00000000
02030000
00000000
,
13000000
00000000
00000000
00010000
00000000
00000000
10000000
00000000
01000000
00000000
00000000
00000000
00100000
00000000
01000000
00000000
,
00010000
00000000
00001000
00000100
00000010
00000000
00001000
00000000
,
00000001
00000010
00000001
00000000
00001000
00000100
00001000
00000000
,
00001001
00000000
00001000
00000100
00010000
00000000
00100000
00000000
,
10000000
00100000
10000000
00010000
00000000
10010000
00000000
00000000
,
11000000
00000000
01000000
00010000
00001000
00000000
00000100
00001000
,
00010000
00000000
00000000
00001000
00000000
00000000
00000200
00000000
00000000
00000000
00000000
00000000
00000000
00000000
00000000
00000000
,
00000301
00000000
00000010
00001000
00010000
00100000
10000000
01000000
,
00200000
00000000
00300000
01000000
,
10010000
00000000
10000000
01000000
00100000
00000000
00001000
00000000
,
00011000
00000000
00010000
00000010
00000100
00000000
00000001
00000000
,
00000110
00000000
00000001
00001000
00000100
00000000
00010000
00000000
,
00011000
00001000
00010000
01000000
00000000
00100000
00010000
10000000
,
00000000
00000000
00100000
01000000
00100000
00000000
00010000
00000000
,
00002000
00000000
00003100
00000010
00000100
00000000
00000001
00000010
,
00000100
00000000
00000000
00000010
00000000
00000000
00000001
00000000
00001000
00000000
00000100
00000000
00010000
00000000
00001000
00000000
,
00100000
00000000
00000000
01000000
00000000
00000000
10000000
00000000
10010000
00000000
00000000
00000000
01100000
00000000
00000000
00000000
,
10000000
01000000
00100000
01000000
00100000
00010000
01000000
00000000
,
00001000
00010000
00001000
00010000
00000010
00000100
00000001
00000000
,
00001000
00000001
00001000
00000001
00000100
00000010
00001000
00000000
,
00011000
00010000
00001000
00000100
00000010
00010000
00001000
01000000
,
00200000
00000000
00000000
00000000
00000000
00000000
00000000
00000000
10300000
00000000
00000000
01000000
00000000
00000000
00010000
00000000
,
00001000
00000000
00000000
00000100
00000000
00000000
00000001
00000000
00000000
00000000
00000000
00000000
00000000
00000000
00000000
00000000
,
00000001
00000000
00000000
00000100
00000000
00000000
00001000
00000000
00010000
00000000
00000000
00000000
00011000
00000000
00000000
00000000
,
00010000
00000000
00000000
01000000
00000000
00000000
10000000
00000000
00010000
00000000
00000000
00000000
10010000
00000000
00000000
00000000
,
10000000
00000000
00000000
00100000
00000000
00000000
00010000
00000000
00001000
00000000
00000000
00000000
00011000
00000000
00000000
00000000
,
00001000
00000000
00000100
00000010
00000000
00001000
00000100
00000010
,
00000001
00000000
00000100
00000001
00000000
00001000
00000010
00001000
,
00010000
00000000
01000000
00100000
00000000
10000000
01000000
00010000
,
00001000
00000010
00000001
00000100
00001000
00010000
01000000
10000000
,
00000000
00000000
00000000
00000000
00100000
00000000
00000000
00010000
00000000
00000000
00001000
00000000
00000000
00000100
00000000
00000000
;

//--------------- dance-double - kaya ----------------
#NOTES:
     dance-double:
     kaya:
     Medium:
     15:
     0,0,0,0,0:
00000000
00000000
00000000
00000000
,
00000000
00000000
00000000
00000000
,
00000000
00000000
00000000
00000000
,
00000000
00000000
00000000
00000000
,
00000000
00000000
00000000
00000000
,
00000000
00000000
00000000
00000000
,
00022000
00000000
00000000
00033000
,
00010000
00000000
01000000
00000000
00100000
00000000
00001000
00010000
00000000
00001000
00010000
00000000
00000010
00000000
00010000
00000000
,
00022000
00000000
00000000
00033000
,
00001000
00000000
00000100
00000000
00000010
00000000
00010000
00001000
00000000
00010000
00001000
00000000
00100000
00000000
00001000
00000000
,
00000010
00000100
00001000
00000000
00000001
00001000
00000010
00000000
,
00010000
00001000
00100000
00000000
01000000
10000000
00100000
01000000
,
00010000
00000000
00000000
10000000
00000000
00000000
01000000
00000000
01100000
00000000
00000000
00000000
01100000
00000000
00000000
00000000
,
10010000
00000000
00010000
00000000
00100000
00000000
01000000
00100000
01000000
00000000
00100000
00000000
00001000
00000000
00010000
00001000
,
00010000
00000010
00000010
00000100
00000100
00000001
00000002
00000000
,
00001003
00000010
00000100
00000001
00000020
00000000
00000130
00010000
,
00001000
00000000
01000000
00000000
00100000
00000000
10000000
01000000
00000000
00100000
01000000
00000000
10000000
00000000
00010000
00000000
,
10000000
00000000
00100000
00000000
00000000
00000000
00100000
00000000
01000000
00010000
01000000
00000000
00001000
00010000
00001000
00000000
,
00000100
00000000
00000010
00000000
00001000
00000000
00000001
00000010
00000000
00000100
00000010
00000000
00000001
00000000
00000010
00000000
,
00001000
00010000
01000000
10000000
00100000
10000000
00010000
10000000
,
01000000
00100000
00010000
01000000
00001000
00010000
00000010
00000100
,
00000001
00000000
00000000
00000010
00000000
00000000
00000100
00000000
00001100
00000000
00000000
00000000
01010000
00000000
00000000
00000000
,
10100000
00100000
01000000
10000000
01000000
00010000
00100000
01000000
,
00100000
00010000
00100000
00000000
00001000
00010000
00001000
00000000
00000020
00000000
00000000
00000000
00000031
00000000
00001000
00000000
,
00000102
00000000
00000023
00000000
,
00000130
00010000
00001000
01000000
00100000
10000000
00010000
10000000
,
21000000
00000000
30200000
00000000
,
00310000
00001000
00000100
00000010
00000100
00000001
00000010
00001000
,
00010000
00000000
00000000
00000010
00000000
00000000
00001000
00000000
00000100
00000000
00010000
00000000
00001000
00000000
00100000
00000000
,
01000000
00000000
00000000
10000000
00000000
00000000
00010000
00000000
01000000
00000000
00100000
00000000
10000000
00000000
00010000
00000000
,
01000000
00000000
00000000
00010000
00000000
00000000
10000000
00000000
01000000
00000000
10000000
00000000
00010000
00000000
00100000
00000000
,
01000000
00000000
00000000
00010000
00000000
00000000
00001000
00000000
00000100
00000000
00000010
00000000
00001000
00000000
00000001
00000000
,
00000010
00000100
00001000
00010000
00100000
01000000
00010000
01000000
,
01100000
00000000
00000000
00011000
00000000
00000000
00000220
00000000
00000000
00000000
00000000
00000000
00000330
00000000
00000000
00000000
,
00000001
00000000
00000100
00000000
00000010
00000000
00001000
00000100
00000000
00000100
00000010
00000000
00000001
00000000
00001000
00000000
,
00000001
00000100
00001000
00010000
01000000
10000000
00010000
00100000
,
01000000
00100000
00010000
01000000
00010000
00001000
00000010
00001000
,
00010000
01000000
00100000
10000000
00010000
00100000
00001000
00100000
,
01000000
00000000
10000000
00010000
00000000
01000000
00000000
00100000
00000000
00000000
10000000
00000000
01000000
00000000
00100000
00000000
,
00010000
00001000
00000100
00000010
00000001
00000100
00000010
00010000
,
00000100
00000000
00010000
00001000
00000000
01000000
00200000
00000000
00000000
00000000
10300000
00000000
00010000
00000000
01000000
00000000
,
00001000
00010000
00000010
00001000
00000001
00000100
00000010
00001000
,
00000100
00000000
00000000
00010000
00000000
00000000
01000000
00000000
10000000
00000000
00010000
00000000
10010000
00000000
00000000
00000000
,
01010000
00010000
00100000
00001000
00010000
00000010
00001000
00000001
,
00000100
00000010
00001000
00000200
00000000
00010300
01000000
00100000
,
01000000
10000000
01000000
00100000
00010000
01000000
00100000
10000000
,
10010000
00000000
00000000
00000000
10000000
00000000
01000000
00000000
00000000
00000000
00100000
00000000
00010000
00000000
01000000
00001000
,
00010000
00000010
00000100
00000000
00000001
00001000
00000010
00010000
,
00001000
00100000
01000000
00000000
10000000
00100000
01000000
00010000
,
10000000
00000000
00000000
00100000
00000000
00000000
01000000
00000000
01010000
00000000
00000000
00000000
00010010
00000000
00000000
00000000
,
00000110
00000000
00000001
00000000
00001000
00000000
00000010
00000100
00000000
00000001
00000100
00000000
00000010
00000000
00010000
00000000
,
00001000
00000000
00010000
00000000
00100000
00000000
10000000
01000000
00000000
00100000
00010000
00000000
00000000
00000000
10000000
00010000
,
10000000
00000000
00100000
00000000
01000000
00000000
00010000
00100000
00000000
00000000
00001000
00000000
00000000
00010000
00000000
00000000
,
00000010
00000100
00000001
00001000
00000100
00000010
00000001
00001000
,
00000002
00000100
00020003
00000100
,
00030001
00000000
00000000
00000010
00000000
00000000
00000100
00000000
00001000
00000000
00000000
00000000
00000010
00000000
00000010
00000000
,
00020000
00100000
00032000
00000010
,
00013000
00000000
00000000
00001000
00000000
00000000
00010000
00000000
00200000
00000000
00000000
00000000
01300000
00000000
00010000
00000000
,
00100000
00100000
00001000
00000100
00000100
00000010
00001000
00000000
,
00000100
00000000
00000000
00010000
00000000
00000000
00001000
00000000
00000000
00000000
01000000
00000000
00010000
00000000
01000000
00000000
,
00100000
00000000
00000000
10000000
00000000
00000000
01000000
00000000
00100000
00000000
01000000
00000000
10000000
00000000
00010000
00000000
,
00100000
00000000
00000000
00001000
00000000
00000000
00010000
00000000
00000010
00000000
00000100
00000000
00000001
00000000
00001000
00000000
,
00000010
00000100
00001000
00010000
00100000
01000000
00010000
10000000
,
10010000
00000000
00000000
00011000
00000000
00000000
00002002
00000000
00000000
00000000
00000000
00000000
00003003
00000000
00000000
00000000
,
00000001
00000000
00000100
00000000
00000010
00000000
00001000
00000001
00000000
00000001
00000010
00000000
00000100
00000000
00001000
00000000
,
00000020
00000001
00001000
00000030
,
00002002
00000000
00000000
00003003
00000000
00000001
00000100
00001000
,
00010000
00000000
00000000
01000000
00000000
00000000
00100000
00000000
00020000
00000000
00000000
00000000
00000000
00000000
10030000
00100000
,
10000000
00010000
01000000
00002000
00000000
00013000
00000010
00001000
,
00000001
00001000
00000010
00000110
00000000
00000001
00000010
00000100
,
00002002
00000000
00000000
00003003
00000001
00001000
00000010
00010000
,
00001000
00000000
00000000
01000000
00000000
00000000
00100000
00000000
10000000
00000000
01000000
00000000
00100000
00000000
01000000
00000000
,
00020000
00000000
00000000
00000000
00000000
00000000
00031000
00010000
00001000
00000000
00000010
00000000
00000100
00001000
00000001
00001000
,
00000001
00000000
00000000
00000100
00000000
00000000
00000010
00000000
00010000
00000000
00010000
00000000
00001000
00000000
00001000
00000000
,
00100000
00100000
01000000
00100000
00010000
00001000
00000010
00000100
,
00000001
00000100
00000010
00010000
00001000
01000000
00100000
00010000
,
10000000
00010000
01000000
00001000
00010000
00000010
00010000
00001000
,
00100000
01000000
00100000
01000000
00100000
00000000
00010000
00000000
01000000
00000000
00001000
00000000
00000100
00000000
00000010
00000100
,
00000010
00000000
00001001
00000000
00000001
00000010
00001000
00000000
,
00010000
01000000
00100000
00020000
00000000
01030000
00100000
10000000
,
00010000
00000000
00000000
00001000
00000000
00000000
00000100
00000000
00000110
00000000
00000000
00000000
00001100
00000000
00000000
00000000
,
00001000
00000000
00000000
00010000
00000000
00000000
01000000
00000000
01100000
00000000
00000000
00000000
00110000
00000000
00000000
00000000
,
00001000
00000000
00000000
00100000
00000000
00000000
00001000
00000000
00000100
00000000
00000000
00000000
00000110
00000000
00000000
00000000
,
00011000
00000000
00010000
00000000
01000000
00000000
00100000
00010000
00000000
00100000
00010000
00000000
01000000
00000000
00001000
00000000
,
00010000
00000000
00000010
00000000
00000100
00000000
00001000
00000100
00000000
00001000
00000100
00000000
00000010
00000000
00010000
00000000
,
00001000
00010000
01000000
00000000
00001000
00000000
00010000
00001000
00010000
00000000
00000010
00000000
00000100
00000000
00000001
00000000
,
00000010
00001000
01000000
00100000
00001000
00010000
00000010
00000100
,
00000000
00000000
00000000
00000000
00000011
00000000
00000000
00001100
00000000
00000000
00110000
00000000
00000000
11000000
00000000
00000000
;

//--------------- dance-double - kaya ----------------
#NOTES:
     dance-double:
     kaya:
     Hard:
     18:
     0,0,0,0,0:
00000000
00000000
00000000
00000000
,
00000000
00000000
00000000
00000000
,
00000000
00000000
00000000
00000000
,
00000000
00000000
00000000
00000000
,
00000000
00000000
00000000
00000000
,
00000000
00000000
00000000
00000000
,
10010000
00000000
00000000
00000000
,
10000000
00000000
01000000
00000000
00010000
00001000
00010000
00000000
00001000
00000000
00000100
00000000
00000001
00001000
00000001
00000000
,
00000010
00000000
00000000
00000000
,
00000001
00000000
00000100
00000000
00001000
00010000
00001000
00000000
00010000
00000000
01000000
00000000
10000000
00010000
10000000
00000000
,
00100000
00000000
10000000
00000000
01000000
00000000
00100000
00000000
00001000
00000000
00000000
00010000
00000010
00000000
00000100
00000000
,
00000001
00000000
00000100
00000000
00000010
00000000
00010000
00000000
00001000
00100000
00010000
00100000
01000000
10000000
00010000
01000000
,
00100000
00000000
00000000
01010000
00000000
00000000
00011000
00000000
00001100
00000000
00000000
00000000
00000011
00000000
00000000
00000000
,
00000001
00000000
00000010
00000000
00000100
00001000
00000100
00010000
00001000
00000000
01000000
00010000
01000000
00100000
10000000
00000000
,
00020000
00000000
10030000
01000000
00000000
00100000
00010000
00000000
01000000
00000000
00001000
00010000
00000010
00000000
00000010
00000100
,
00000002
00001000
00001000
00001000
,
00000013
00000000
00000100
00000000
00010000
00001000
00010000
00000000
01000000
00000000
00100000
00000000
00010000
01000000
00010000
00000000
,
20000000
00000000
00000000
00000000
00010000
00000000
00000000
00000000
30010000
00000000
00000000
10000000
00000000
00000000
00100000
00000000
,
01000000
00000000
00001000
00010000
00001000
00010000
00000010
00000100
00000001
00000000
00000010
00000100
00000010
00000100
00010000
00001000
,
00010000
00000000
01000000
00100000
00010000
00000000
10000000
00000000
00100000
00000000
01000000
00100000
10000000
00000000
00010000
00000000
,
01000000
00000000
00001000
00000000
00100000
00000000
00001000
00000000
00010000
00000100
00001000
00000100
00010000
00000010
00001000
00000001
,
00000100
00000000
00000000
00000011
00000000
00000000
00010100
00000000
01001000
00000000
00000000
00000000
10010000
00000000
00000000
00000000
,
10000000
01000000
00100000
00010000
10000000
01000000
00100000
00010000
01000000
00001000
00100000
00010000
01000000
00001000
00100000
00010000
,
00100000
00001000
00010000
00000010
00001000
00000010
00000100
00000001
00000010
00000000
00000000
00000000
00000110
00000000
00000000
00000000
,
00002002
00003003
00022000
00033000
,
10010000
00000000
00000000
10000000
00100000
00000000
00010000
00000000
00100000
01000000
00100000
00000000
10000000
00000000
00010000
00000000
,
20020000
30030000
00022000
00033000
,
00001001
00000000
00000000
00000001
00000010
00000000
00001000
00000000
00000010
00000100
00000010
00000000
00000001
00000000
00001000
00000000
,
00000100
00010000
00000100
00000000
00010000
00000000
00001000
00000000
00100000
00010000
00100000
00000000
01000000
00000000
10000000
00000000
,
00100000
10000000
00100000
00000000
10000000
00000000
00010000
00000000
01000000
00010000
01000000
00000000
00001000
00000000
00100000
00000000
,
00001000
00010000
00001000
00000000
00000100
00000000
00000010
00000000
00001000
00000001
00001000
00000000
00000001
00000000
00000010
00000000
,
00000100
00001000
00000100
00000000
00010000
00000000
00001000
00000000
01000000
00010000
01000000
00000000
00001000
00000000
00010000
00000000
,
00022000
00033000
00010000
00001000
01010000
00000000
00001000
00010000
,
00001100
00000000
00000000
00110000
00000000
00000000
00022000
00000000
00000000
00000000
00000000
00000000
00000000
00000000
00033000
00000000
,
00010000
00000000
01000000
10000000
00100000
00000000
00010000
00100000
01000000
00100000
10000000
00000000
01000000
00000000
00100000
00000000
,
10010000
00000000
10000000
00100000
01000000
00100000
00000000
00020000
00032000
00003000
00000100
00000000
00000010
00000000
00000100
00000000
,
00000011
00000000
00000001
00000010
00000100
00000010
00000000
00002000
00023000
00030000
01000000
00000000
00100000
00000000
01000000
00000000
,
10100000
00000000
10000000
00010000
01000000
00100000
00000000
00020000
00032000
00003000
00000100
00000000
00000010
00000000
00010000
00000000
,
00011000
00000000
00000010
00010000
00001000
01000000
00000000
10100000
00000000
00000000
00110000
00000000
11000000
00000000
10010000
00000000
,
00000000
00000000
10000000
00000000
01000000
00100000
01000000
00010000
00001000
00000000
00000010
00000000
00000100
00000000
00000010
00000000
,
00001001
00000000
00000001
00000000
00000100
00000010
00000100
00001000
00010000
00000000
00100000
00000000
10000000
00000000
00010000
00000000
,
00110000
00000000
00000000
00001000
00000000
00000000
00010000
00000000
00001010
00000000
00001000
00000001
00000100
00000001
00000100
00000010
,
00020000
00000000
00000000
00031000
00000000
00000000
01000000
00100000
01000000
00000000
00010000
10000000
00010000
00000000
00100000
00000000
,
01100000
00000000
10000000
01000000
00100000
01000000
00000000
00020000
00032000
00003000
00000100
00000010
00000100
00000000
00000001
00000000
,
00001001
00000000
00000001
00000010
00000100
00000010
00000000
00002000
00023000
00030000
01000000
00100000
01000000
00000000
10000000
00000000
,
10010000
00000000
10000000
00010000
10000000
01000000
00000000
00020000
00032000
00003000
00000100
00000010
00001000
00000000
00000001
00000000
,
00001100
00000000
00000100
00010000
00001000
00100000
00010000
00000000
01000000
00001000
00010000
00000010
00001000
00000000
00000001
00000000
,
00002002
00000000
00000000
00000000
00003003
00000000
00000000
00000000
00000001
00000000
00000000
00000010
00001000
00000000
00010000
00000000
,
01000000
00000000
00000000
10000000
00000000
00000000
00020000
00000000
00000000
00000000
00000000
00000000
01030000
00000000
00100000
00000000
,
10010000
00000000
00000000
00110000
00000000
00000000
00011000
00000000
00001010
00000000
00000000
00000000
00001001
00000000
00000000
00000000
,
00000001
00000000
00001000
00000000
00000010
00010000
00000010
00010000
00001000
00000000
00100000
00001000
00100000
00001000
00010000
00000000
,
01000000
00100000
01000000
00100000
01000000
00100000
00000000
00010000
00000000
10000000
00010000
00000000
00000000
00000000
00001000
00000000
,
00000001
00000000
00000010
00000100
00000010
00000100
00000000
00001000
00000000
00000100
00010000
00000000
00001000
00100000
00001000
00000000
,
01000000
00000000
00100000
00010000
00100000
00010000
00000000
01000000
00000000
00100000
10000000
00000000
01000000
00100000
00010000
10000000
,
00020000
00000000
00032000
00000000
,
00003001
00000000
00000000
00000010
00000000
00000000
00000100
00000000
00000010
00000000
00000000
00000000
00000001
00000000
00000001
00000000
,
00002000
00000000
00023000
00000000
,
10030000
00000000
00000000
01000000
00000000
00000000
00100000
00000000
01000000
00000000
00000000
00000000
10000000
00000000
00010000
00000000
,
00200000
00001000
00300020
00010030
,
00000200
00000000
00001000
00000000
02000300
00000000
03001000
00010000
,
00000010
00000000
00000000
00000000
00001000
00000000
00000100
00000000
00000010
00000000
00000000
00000000
00000001
00001000
00000001
00000000
,
00000100
00001000
00010000
01000000
00100000
00001000
00010000
00001000
,
00110000
00000000
00001000
00010000
00001010
00000000
00010000
00001000
,
01100000
00000000
00000000
00011000
00000000
00000000
00000220
00000000
00000000
00000000
00000000
00000000
00000330
00000000
00000000
00000000
,
00000001
00000000
00000010
00000000
00001000
00000000
00000010
00001000
00010000
00001000
00010000
00000000
00100000
00010000
00001000
00020000
,
00002000
00000000
00000000
00033000
,
00001001
00000000
00000001
00000010
00000100
00010000
00000000
02000000
03200000
00300000
00010000
00000000
10000000
00000000
00010000
00000000
,
10010000
00000000
10000000
00100000
01000000
00001000
00000000
00000200
00000320
00000030
00001000
00000000
00000001
00000000
00001000
00000000
,
00001001
00000000
00000001
00001000
00000100
00000010
00000000
00002000
00023000
00030000
01000000
00000000
10000000
00000000
00100000
00000000
,
00011000
00000000
01000000
00001000
00010000
00000010
00000000
00011000
00000000
00000000
00000101
00000000
00001010
00000000
00000101
00000000
,
00001000
00000000
00000001
00000000
00000010
00000100
00010000
00001000
00000000
02000000
03200000
00300000
00010000
00000000
10000000
00000000
,
00010000
00000000
00100000
01000000
00010000
01000000
00000000
00020000
00032000
00003000
00000100
00000000
00000010
00000000
00000100
00000000
,
00000011
00000000
00000000
00001000
00000000
00000000
00000001
00000000
00001000
00000100
00010000
00001000
00100000
01000000
10000000
01000000
,
00200000
00000000
00000000
10000000
00000000
00000000
00310000
00000000
00101000
00000000
00010000
00000000
00010010
00000000
00001000
00000000
,
00101000
00000000
00001000
00010000
00000010
00000100
00000000
00000002
00002003
00003000
00000100
00000000
00010000
00000000
00001000
00000000
,
00100000
00000000
00001000
00010000
01000000
00100000
00000000
00020000
20030000
30000000
00100000
00000000
01000000
00000000
00001000
00000000
,
00010000
00000000
00001000
00000100
00000010
00001000
00000000
00000002
00002003
00003000
00000010
00000000
00010000
00000000
00001000
00000000
,
01010000
00000000
00010000
00001000
00000100
00000001
00000100
00000010
00000000
00010000
00001000
00000000
01000000
00000000
00100000
00000000
,
20020000
00000000
00000000
00000000
30030000
00000000
00000000
00000000
10000000
00000000
00000000
10000000
00100000
00000000
00010000
00000000
,
00001000
00000000
00000000
00000100
00000000
00000000
00000002
00000000
00000000
00000000
00000000
00000000
00000003
00000000
00000000
00000000
,
00000011
00000000
00000000
00001100
00000000
00000000
01010000
00000000
10100000
00000000
00000000
00000000
10010000
00000000
00000000
00000000
,
11000000
00000000
00000000
00110000
00000000
00000000
00001010
00000000
00000101
00000000
00000000
00000000
00001001
00000000
00000000
00000000
,
00000011
00000000
00000000
00001010
00000000
00000000
01010000
00000000
11000000
00000000
00000000
00000000
10010000
00000000
00000000
00000000
,
10010000
00000000
10000000
00100000
00010000
00000000
00001000
00000000
00000100
00000010
00000100
00000010
00001000
00000100
00000010
00000001
,
00001000
00000000
00000001
00000010
00001000
00000000
00010000
00000000
01000000
00100000
01000000
00100000
00010000
10000000
00100000
01000000
,
00010000
00000000
10000000
01000000
00010000
00000000
00001000
00000000
00000010
00000100
00000010
00000100
00001000
00000010
00000100
00000001
,
00001000
00000010
00010000
00001000
00100000
00010000
10000000
00100000
10000000
00010000
01000000
00001000
00010000
00000010
00000100
00000001
,
00000000
00000000
00000000
00000000
00000001
00000010
00000000
00000100
00001000
00000000
00010000
00100000
00000000
01000000
10000000
00000000
;
