#TITLE:Arena Deiporta;
#SUBTITLE:;
#ARTIST:BEMANI Sound Team "Akhuta Works";
#TITLETRANSLIT:;
#SUBTITLETRANSLIT:;
#ARTISTTRANSLIT:Akhuta Works;
#GENRE:;
#CREDIT:;
#MUSIC:Arena Deiporta.ogg;
#BANNER:Arena Deiporta.png;
#BACKGROUND:Arena Deiporta-bg.png;
#CDTITLE:./CDTITLES/JUBEAT.PNG;
#SAMPLESTART:88.888;
#SAMPLELENGTH:15.000;
#SELECTABLE:YES;
#OFFSET:0.000;
#BPMS:0.000=189.000;
#STOPS:118.000=0.317
,149.000=0.317
,164.000=0.317
;
#BGCHANGES:;
#FGCHANGES:;

//--------------- dance-single - t7r ----------------
#NOTES:
     dance-single:
     t7r:
     Beginner:
     5:
     0,0,0,0,0:
0000
0000
0000
0000
,
0000
0000
0000
0000
,
0000
0000
0000
0000
,
0000
0000
0000
0000
,
0000
0000
0000
0000
,
0000
1000
0000
1000
,
0000
1000
0000
0000
,
0000
0001
0000
0001
,
0001
0000
0000
0000
,
0000
0010
0000
0010
,
0000
0010
0000
0000
,
0000
0100
0000
0100
,
0100
0000
0000
0000
,
1000
0000
1000
0000
,
0001
0000
0001
0000
,
0100
0000
0100
0000
,
0010
0000
0010
0000
,
1000
0000
1000
0000
,
0100
0000
0100
0000
,
0010
0000
0010
0000
,
0001
0000
1000
0000
,
0001
0000
0000
0000
,
0100
0000
0000
0000
,
0100
0000
0000
0000
,
0000
0010
0000
0000
,
0000
0000
1000
0000
,
0001
0000
0000
0000
,
0010
0000
0000
0000
,
0000
0100
0000
0000
,
1000
0000
0001
0001
,
0000
0000
0000
0001
,
0000
0000
0000
1000
,
0000
0000
0000
1000
,
0000
0010
0000
0100
,
0000
0000
0000
0001
,
0000
0000
0000
0010
,
0000
0000
0000
0100
,
0000
1000
1000
0000
,
0000
0000
0001
0000
,
0000
0000
0100
0000
,
0000
0000
0010
0000
,
0000
0010
0000
0000
,
0000
1000
0000
0000
,
0000
0001
0000
0000
,
0000
0001
0000
0010
,
0000
0001
0000
0000
,
0000
1000
0000
0000
,
0000
0010
0000
0000
,
0000
0100
0000
0100
,
0000
0010
0000
0010
,
0000
1000
1000
1000
,
0000
0001
0000
0001
,
0000
0010
0010
0010
,
0000
0001
0000
0001
,
0000
0100
0100
0100
,
0000
0010
0000
0010
,
0000
1000
1000
1000
,
0000
0100
0000
0100
,
0000
0000
0000
0010
,
0000
0010
0000
0000
,
0000
0001
0000
1000
,
0000
0001
0000
0100
,
0000
0001
0000
1000
,
0000
0100
0000
0010
,
0000
0001
0000
1000
,
0000
0010
0000
0000
,
0000
0000
0000
0000
,
0000
0100
0000
0100
,
0000
0010
0000
0010
,
0000
1000
0000
1000
,
0000
1000
1000
1000
,
0000
0001
0000
0001
,
0001
0001
0000
0000
,
0000
0010
0000
0010
,
0000
0010
0010
0010
,
0000
0100
0000
0100
,
0100
0100
0000
0100
,
0000
0010
0000
0010
,
0000
0001
0001
0001
,
0000
1000
0000
1000
,
0000
0010
0010
0010
,
0000
0100
0000
0100
,
0000
0001
0001
0001
,
0000
1000
0000
0001
,
0000
1000
1000
0001
,
0001
1001
0000
0000
,
0000
0000
0000
0100
,
0000
0000
0000
0100
,
0000
0000
0000
0010
,
0000
0010
0000
0010
,
0010
0000
0000
0000
;

//--------------- dance-single - t7r ----------------
#NOTES:
     dance-single:
     t7r:
     Easy:
     10:
     0,0,0,0,0:
0000
0000
0000
0000
,
0000
0000
0000
0000
,
0000
0000
0000
0000
,
0000
0000
0000
0000
,
0000
0000
0000
0000
,
0100
1010
0100
1010
,
0100
0000
1010
0000
1000
0100
1000
0000
,
0100
0000
0011
0000
0100
0000
0000
2001
,
0000
0000
3010
0000
0100
0001
0100
0000
,
0010
0101
0010
0101
,
0010
0000
0101
0000
0001
0010
0001
0000
,
0010
0000
1100
0000
0010
0000
0000
1002
,
0000
0000
0013
0000
0100
1000
0001
0000
,
2000
3010
2002
3003
,
0000
0000
0022
0033
,
0000
0000
2200
3300
,
1000
0010
1000
0000
0001
0000
1000
0000
,
0020
0130
0202
0303
,
0000
0000
2020
3030
,
0000
0000
2002
3003
,
0001
0100
0001
0000
1000
0000
0010
0000
,
0200
0000
0000
0000
,
0310
0000
0000
1000
0000
0000
0001
0000
,
0000
0010
0000
0000
0001
0000
0000
0001
,
0000
0001
0000
1000
,
0010
0100
0001
1000
,
0001
0000
0000
0010
0000
0000
0100
0000
,
0000
1000
0000
0000
0010
0000
0000
0010
,
0000
0000
0010
0000
0000
0100
0001
0000
,
1000
0000
0001
1000
0001
0000
0011
0000
,
0001
0100
0001
0000
2000
0000
0000
3001
,
0000
0000
1000
0000
0010
1000
0000
0010
,
1000
0100
0010
0001
,
1000
0000
0010
1000
0010
0000
1010
0000
,
1000
0100
1000
0000
0002
0000
0000
1003
,
0000
0000
0001
0000
0010
0001
0000
0010
,
0001
0100
0010
1000
,
0001
0010
2001
0000
,
3020
0000
0230
0000
,
0302
0000
0023
0000
,
0230
0000
1300
0001
,
1001
0000
0101
0000
0001
0010
0001
0000
,
0200
0000
0000
0301
1000
0000
0001
0000
,
0010
0001
0000
0010
0002
0000
0000
0000
,
1003
0000
0010
0000
0100
0000
0001
1000
,
0001
0000
1001
0000
1000
0100
1000
0000
,
0020
0000
0000
1030
0100
0000
0010
0000
,
0100
1000
0000
0100
2000
0000
0000
3010
,
0100
0000
0001
0000
1000
0001
0020
0000
,
0000
0000
0031
0000
0100
0010
0100
0000
,
0000
0001
0010
0100
,
0000
0000
1000
0000
0010
0100
0010
0000
,
0000
1000
0001
0010
,
0000
0000
0001
0000
1000
0001
0100
0000
,
0000
0001
1000
0010
,
0000
0000
1000
0000
0100
0010
0001
0000
,
0000
0100
0010
1000
,
0000
0001
1000
1010
,
0000
1000
0001
0011
,
0000
0001
0100
1010
,
0000
1000
0100
0011
,
0000
1000
0100
0001
,
0100
1000
0010
0001
,
0010
0000
1000
0100
1000
0000
0001
0100
,
0001
0000
1000
0010
1000
0000
0001
0010
,
0001
2002
0000
0000
,
0000
0000
0000
0000
0000
0000
3003
0000
0000
0001
0000
0100
,
0000
0000
0010
0000
0000
0000
1000
0000
0000
0100
0000
0000
1000
0000
0000
0000
0000
0000
0001
0000
0000
0100
0000
0000
,
0001
0000
1000
0010
1000
0010
2000
0000
,
0000
0000
3001
0000
0010
0100
0010
0000
,
0010
0100
0010
0000
0001
0100
0001
0000
,
1000
0000
0001
0000
1000
0010
1000
0000
,
0001
1000
0100
1000
,
1100
0000
1000
0000
0010
0100
0010
0000
,
0010
0100
0010
0000
1000
0010
1000
0000
,
0001
0000
1000
0000
0100
0010
0001
0000
,
0100
0010
1000
0002
,
0000
0000
1003
0000
0100
1000
0000
0100
,
1000
0000
0001
1000
0000
0001
1000
0000
,
1001
0000
0001
0000
0100
0001
0000
0100
,
0001
0000
1000
0001
0000
1000
0001
0000
,
1001
0000
1000
0000
0010
1000
0000
0010
,
1000
0000
0001
1000
0000
0001
1000
0000
,
1001
0000
0001
0010
0001
0000
1000
0010
,
1000
0000
0001
0100
0001
0000
1000
0100
,
1000
2002
0000
0000
,
3003
1100
0001
0022
,
0033
0101
1000
2020
,
3030
0110
0001
2002
,
3003
0000
1000
0100
1000
0000
0001
1000
,
0010
0100
0000
0000
0000
0000
0000
0000
;

//--------------- dance-single - t7r ----------------
#NOTES:
     dance-single:
     t7r:
     Medium:
     14:
     0,0,0,0,0:
0000
0000
0000
0000
,
0000
0000
0000
0000
,
0000
0000
0000
0000
,
0000
0000
0000
0000
,
0000
0000
0000
0000
,
1000
0100
0010
0100
1000
0100
0010
0000
,
0001
0100
0010
0100
0001
0001
1000
0000
,
0001
0010
0100
0010
0001
1000
0010
0200
,
0000
0310
1000
0000
0001
0010
0001
1000
,
0001
0010
0100
0010
0001
0010
0100
0000
,
1000
0010
0100
0010
1000
1000
0001
0000
,
1000
0010
0100
0010
1000
0100
0010
0002
,
0000
0103
0010
0000
0100
0001
1000
0000
,
0002
0000
0000
0000
0013
0000
0000
0000
2001
0000
0000
3001
0100
0000
0001
0000
,
1000
0000
0010
0000
0100
0000
0000
0000
1002
0000
0000
1003
0100
0000
1000
0000
,
0001
0000
0010
0000
0100
0000
0000
0000
2001
0000
0000
3001
0100
0000
0001
0000
,
1000
0100
0010
0001
0100
0010
1000
0001
,
0200
0000
0000
0000
0310
0000
0000
0000
0120
0000
0000
1030
0001
0000
0010
0000
,
0100
0000
0010
0000
0001
0000
0000
0000
0210
0000
0000
0301
1000
0000
0100
0000
,
0010
0000
0001
0000
1000
0000
0000
0000
0120
0000
0000
1030
0001
0000
0010
0000
,
0001
0100
0010
1000
0001
0010
0100
1000
,
0020
0000
0000
0000
,
0230
0000
0301
0010
0001
0000
2000
0000
,
0000
3001
0010
0000
0001
0100
0010
1000
,
0100
0010
0002
0000
0000
1003
0100
1000
,
0010
0000
0100
0001
1000
0000
0001
1000
,
0010
0000
1000
0100
1000
0000
0002
0000
,
0000
1003
0100
0000
1000
0010
0100
0001
,
0010
0100
2000
0000
0000
3001
0010
0001
,
0100
0000
0010
1000
0001
1000
0002
0000
,
0103
0010
0100
0000
0020
0000
0000
0031
,
0010
0000
0100
0001
1000
0100
1000
0001
,
2000
0000
0000
3100
0010
0000
1000
0010
,
0100
0000
0010
0001
1000
0000
0020
0000
,
0130
0001
0010
0000
0200
0000
0000
1300
,
0001
0000
0100
0001
0010
0100
1000
0010
,
0200
0000
0000
0310
1000
0001
1000
0100
,
0010
0001
1000
0000
0120
0000
0000
0000
,
1030
0001
2000
0000
,
3100
0010
0002
0000
,
0103
0000
0010
0000
1000
0001
0100
0001
,
1000
0001
0100
0000
0001
0010
0100
0000
,
0020
0000
0000
1030
0010
0000
0100
0010
,
0001
0100
0010
1000
0020
0000
0000
0031
,
0010
0000
0100
0001
1000
0001
0010
0000
,
1000
0010
0100
0000
1000
0010
0100
0000
,
2000
0000
0000
3100
0001
1000
0100
0001
,
0100
1000
0010
0001
0020
0000
0000
0130
,
0001
0010
0100
1000
0010
0100
0002
0000
,
1003
0001
1000
0100
1000
0100
0010
0100
,
0001
0100
1000
0010
0100
0001
1000
0100
,
0010
0001
1000
0010
1000
0010
0100
0010
,
0001
0010
1000
0100
0010
0001
1000
0010
,
0100
0001
0010
0100
0010
0100
0010
0001
,
0010
0001
0010
1000
0010
0100
0010
0001
,
1000
0001
0100
1000
0100
0010
0100
0001
,
0100
0010
1000
0100
0010
0001
0100
0010
,
1000
0001
0010
0000
0002
0000
0000
0000
,
0000
0000
0103
0000
0010
0000
0000
1000
0000
0000
0002
0000
0000
0000
0013
0000
,
0100
1000
0020
0000
0000
0000
0130
0001
,
0100
0000
1000
0000
0100
0000
0010
0000
0000
0100
0000
0000
0002
0000
0000
0000
,
0000
0000
1003
0100
0010
0001
0100
0001
,
0100
1000
0001
0010
0100
1000
0100
0010
,
0100
0001
1000
0010
0100
0001
0010
1000
,
0001
0100
1000
0010
0100
0001
0100
0010
,
0000
1000
0000
0000
2001
0000
0000
0000
0000
0000
0000
0000
0100
0000
0000
0000
,
0000
0000
0000
0000
0001
0000
0000
0000
0000
0000
0000
0000
3010
0000
0000
0100
,
0000
0001
1000
0100
0001
0100
1000
0010
,
0001
0010
1000
0100
0010
0001
2000
0000
,
3010
0100
0002
0000
0013
0100
2000
0000
,
3010
0100
0001
0010
0100
0001
0100
0010
,
0001
0100
0020
0000
1030
0010
0100
1000
,
0100
0010
0100
0100
0001
0001
1000
1000
,
0001
0000
0020
0000
0031
0100
0020
0000
,
1030
0100
0010
0001
0010
1000
0010
0100
,
1000
0010
0200
0000
1300
0100
0010
0100
,
0001
1000
0001
0001
0010
0010
0002
0000
,
1003
0000
0001
0100
0010
0100
1000
0100
,
0010
0100
0001
0100
0010
0100
0002
2003
,
3001
0000
1000
0100
0010
0100
0001
0100
,
0010
0100
1000
0100
0010
0100
2000
3002
,
1003
0000
0010
0001
0010
0100
0010
1000
,
0010
0100
0010
1000
0001
0010
0002
0203
,
0310
0000
1000
1000
0100
0010
0001
0001
,
0100
0010
1000
0100
0001
0100
1000
0010
,
0001
0010
0220
0000
0000
0000
0000
0000
,
0330
0000
0000
0000
1002
0000
0000
0000
0103
0000
0000
0000
2010
0000
0000
3100
,
1000
0000
0001
0000
0100
0000
0010
0000
1000
0000
0000
0000
0012
0000
0000
0103
,
0001
0000
1000
0000
0100
0000
0010
0000
0001
0000
0000
0000
2001
0000
0000
3010
,
0100
0001
1000
0100
0010
0001
0100
0100
,
0010
0010
0000
0000
0000
0000
0000
0000
;

//--------------- dance-single - t7r ----------------
#NOTES:
     dance-single:
     t7r:
     Hard:
     17:
     0,0,0,0,0:
0000
0000
0000
0000
,
0000
0000
0000
0000
,
0000
0000
0000
0000
,
0000
0000
0000
0000
,
0000
0000
0000
0000
,
1000
0100
0010
0100
1000
0100
0001
0100
,
1000
0100
0010
0100
1000
0010
0100
0001
,
1000
0010
0100
0010
1000
0100
0010
0002
,
0000
0000
1003
0010
1000
0000
0001
0010
0001
0000
1000
0100
1000
0000
0001
1000
,
0001
0100
0010
0100
0001
0100
1000
0100
,
0001
0100
0010
0100
0001
0010
0100
1000
,
0001
0010
0100
0010
0001
0100
0010
2000
,
0000
0000
3001
0010
0001
0000
1000
0010
1000
0000
0001
0100
0001
0000
1000
0001
,
2000
0000
0000
0000
3100
0000
0000
0000
1000
0000
0100
0010
0000
0100
1000
0000
,
0000
0000
0001
0000
0100
0001
0100
0000
0002
0000
0000
0000
0013
0000
0001
0000
,
0000
0100
0010
0000
0100
0001
0100
0001
1000
0000
0100
0000
0010
0001
0010
0000
,
0001
0100
0001
0100
0010
1000
0010
1000
0001
0010
0100
0010
0001
0100
0010
1000
,
0002
0000
0000
0000
0103
0000
0000
0000
0001
0000
0100
0010
0000
0100
0001
0000
,
0000
0000
1000
0000
0100
1000
0100
0000
2000
0000
0000
0000
3010
0000
1000
0000
,
0000
0100
0010
0000
0100
1000
0100
1000
0001
0000
0100
0000
0010
1000
0010
0000
,
0100
0001
1000
0010
0100
0001
1000
0100
0010
0100
1000
0001
0100
0010
1000
0001
,
0020
0000
0000
0000
,
0032
0000
0103
1000
0100
0000
0002
0000
,
0000
0000
0013
0000
0100
0000
1000
0000
0001
0000
0010
0100
1000
0000
0010
0000
,
0100
0001
1000
0000
0002
0000
0000
0000
1003
0000
0001
0010
0100
0000
1000
0000
,
0010
0000
0100
0000
0001
0000
1000
0000
0001
0000
0010
0100
1000
0000
0001
0000
,
2000
0000
3100
0001
0100
0000
2000
0000
,
0000
0000
3010
0000
0100
0000
0001
0000
1000
0000
0010
0100
0001
0000
0010
0000
,
0100
1000
0001
0000
2000
0000
0000
0000
3001
0000
0010
0100
0010
0000
0001
0000
,
0100
1000
0100
0010
0110
1000
2001
0000
,
3100
0001
0100
0000
2100
0000
0000
3001
,
1000
0000
0001
0000
0100
0000
1000
0100
0010
0000
1000
0000
0100
0010
0001
0000
,
2000
0000
0000
0000
3001
0000
1000
0010
1000
0000
0010
0000
0100
0000
0001
0010
,
0100
0000
1000
0000
0010
0000
0100
0001
1000
0000
0001
0000
1002
0000
0000
0000
,
0013
1000
0010
0000
0012
0000
0000
1003
,
0001
0000
1000
0000
0010
0000
0001
0010
0100
0000
0001
0000
0010
0100
1000
0000
,
0002
0000
0000
0000
1003
0000
0001
0100
0001
0000
0100
0000
0010
0000
1000
0100
,
0010
0001
0100
0000
0010
1000
0200
0000
,
0310
0001
0200
0000
0310
1000
0002
0000
,
0013
0000
0001
0000
2000
0000
0000
0000
3001
0000
0010
0001
0010
0000
0001
0000
,
1000
0000
0010
1000
0010
0000
1000
0000
0001
0000
0100
0010
1000
0000
0001
0000
,
1001
1000
1200
0000
0310
1000
0010
0001
,
0200
0000
0000
0000
0000
0000
0310
0000
0001
0000
0010
0000
1000
0000
0010
0100
,
1000
0000
0001
0000
0010
0100
1000
0000
0002
0000
0000
0000
0013
0000
1000
0001
,
0010
0000
0001
0000
1000
0000
0100
0010
0100
0000
0001
0000
0100
0000
1000
0010
,
0100
0010
0012
0000
1003
0100
0001
0010
,
0200
0000
0000
0000
0000
0000
0301
0000
0100
0000
1000
0000
0001
0000
0100
0010
,
0001
0000
1000
0000
0100
0010
0001
0000
2000
0000
0000
0000
3100
0000
0001
0000
,
0010
0000
0100
0000
1000
0010
0100
0001
0010
0000
0001
0000
1000
0000
0001
0100
,
0001
0100
0001
0100
0001
0000
0010
0001
0010
0000
0001
0000
0010
0000
0100
0000
,
0001
0000
0100
1000
0100
0000
1000
0000
0001
0000
0100
0000
0010
1000
0010
1000
,
0001
0000
1000
0000
0001
0000
0100
0001
0100
0000
0001
0000
0100
0000
0010
0000
,
0001
0000
0010
0000
1000
0000
0001
0010
0001
0000
1000
0000
0001
0000
1000
0010
,
0100
0000
0001
0000
1000
0000
0010
1000
0010
0000
1000
0000
0010
0000
0100
0000
,
1000
0000
0100
0001
0100
0000
0001
0000
1000
0000
0100
0000
0010
0001
0010
0001
,
1000
0000
0001
0000
1000
0000
0100
0010
0001
0000
0100
0000
1000
0000
0100
0000
,
0010
0000
0100
0001
1000
0000
0001
0010
0001
0000
1000
0010
0100
0000
0001
0100
,
0001
0010
0100
1000
0001
0000
0010
0000
0100
0000
0001
0000
1000
0000
0010
0000
,
0001
0000
0100
0000
0000
0000
0001
0100
0000
0000
0010
0000
0100
0000
0001
0000
,
0100
0000
0000
1000
0000
0000
0200
0000
0000
0000
0000
0000
0000
0000
0000
0000
0000
0000
0310
0000
1000
0000
0010
0000
,
0100
0000
0000
0000
0001
0000
0000
0000
0010
0000
0000
0000
0001
0000
0000
0000
0000
0000
0010
0000
0000
0100
0000
0000
0000
0000
0000
0010
0000
0000
0001
0000
0000
0000
0000
0000
2000
0000
0000
0000
0000
0000
0000
0000
0000
0000
0000
0000
,
0000
0000
0000
0000
3001
0100
0010
0100
0001
0000
1000
0000
0001
0000
0010
0000
,
0100
0000
0001
0000
1000
0010
0100
0010
0001
0000
1000
0000
0001
0000
0100
0010
,
0100
0000
0001
0000
1000
0000
0010
1000
0100
0000
0010
0001
0100
0000
0010
1000
,
0001
0000
0010
0001
1000
0010
1000
0010
0100
0000
0001
0010
0100
0000
1000
0010
,
0000
0001
0010
0000
2000
0000
0000
0000
0000
0000
0000
0000
0100
0000
0000
0000
,
0000
0000
0000
0000
0001
0000
0000
0000
0000
0000
3010
0100
0001
0000
0000
1000
,
0000
0000
1001
0000
0001
0100
0001
0100
0001
0000
1000
0000
0100
0010
0100
0010
,
0001
0000
1000
0000
0010
0100
0001
0010
0100
0000
1000
0001
1000
0000
0001
1000
,
0001
1000
0001
1000
0002
0000
0000
0000
0013
0000
0001
0000
0020
0000
0000
0000
,
1030
0000
0010
0000
0001
0100
0010
0100
0001
0000
0010
0000
0100
1000
0100
0010
,
0100
0000
1000
0000
0020
0000
0000
0000
0031
0000
0010
0000
1000
0100
0010
0100
,
1000
0000
0001
0000
1000
0000
0100
0000
0100
0000
0001
0000
0100
0010
0100
0010
,
0100
0010
2001
0000
3010
1000
0020
0000
,
0031
0000
0010
0000
1000
0100
0010
0100
1000
0000
0010
0000
0100
0001
0100
0010
,
0100
0000
0001
0000
0020
0000
0000
0000
1030
0000
0010
0000
0001
0000
0100
0010
,
1000
0000
0100
0000
0010
0001
0100
0010
1000
0100
0010
0001
1000
0100
0000
1000
,
0001
0100
0010
1000
0001
0010
0001
0010
0001
0000
1000
0010
1000
0010
1000
0000
,
0001
0100
0001
0100
0001
0000
1000
0100
1000
0100
1000
0000
0020
0000
2030
0000
,
3002
0000
0000
0000
1003
0010
1000
0010
1000
0000
0001
0010
0001
0010
0001
0000
,
1000
0100
1000
0100
1000
0000
0001
0100
0001
0100
0001
0000
0020
0000
0032
0000
,
2003
0000
0000
0000
3001
0010
0100
1000
0001
0000
1000
0010
0100
0001
1000
0000
,
0001
0100
0010
1000
0001
0000
1000
0100
0010
0001
1000
0000
0020
0000
0230
0000
,
0302
0000
1003
0000
0001
0010
0100
0010
1000
0000
0001
0100
0010
0100
1000
0000
,
0001
0100
0010
0100
1000
0000
0001
0010
0100
0010
1000
0000
0001
0010
0100
1000
,
0010
0100
0001
1000
0002
0000
0000
0000
0000
0000
0000
0000
0000
0000
0000
0000
,
0000
0000
0000
0000
2003
0000
0000
0000
3100
0000
0000
0000
1100
0000
0100
0001
,
0000
0100
1000
0000
0000
0000
0100
0000
0010
0001
1000
0010
0100
0000
0001
0100
,
0000
1000
0100
0000
0010
0100
0000
0000
0001
0010
0100
1000
0020
0000
0000
0000
,
0130
0001
1000
0100
0010
0001
0100
0010
1000
0001
0010
0100
1000
0010
0100
0010
,
1000
0001
1000
0001
0000
0000
0000
0000
0000
0000
0000
0000
0000
0000
0000
0000
;

//--------------- dance-double - t7r ----------------
#NOTES:
     dance-double:
     t7r:
     Easy:
     10:
     0,0,0,0,0:
00000000
00000000
00000000
00000000
,
00000000
00000000
00000000
00000000
,
00000000
00000000
00000000
00000000
,
00000000
00000000
00000000
00000000
,
00000000
00000000
00000000
00000000
,
10000000
01000000
00100000
01000000
,
10000000
01000000
00010000
00001000
,
00000100
00000000
00000010
00000000
00000100
00000000
00000000
00001002
,
00000000
00000013
00000100
00001000
,
00000001
00000100
00000010
00000100
,
00000001
00000010
00001000
00010000
,
00100000
00000000
01000000
00000000
00010000
00000000
00000000
20010000
,
00000000
31000000
00100000
00010000
,
10000000
00000000
20200000
30300000
,
00000000
00000000
02200000
03300000
,
00000000
00000000
20020000
30030000
,
10000000
01000000
00010000
00001000
,
00000010
00000000
00002002
00003003
,
00000000
00000000
00000202
00000303
,
00000000
00000000
00000220
00000330
,
00000001
00000010
00000100
00001000
,
00020000
00000000
00000000
00000000
,
10030000
00000000
00000000
00100000
00000000
00000000
10000000
00000000
,
00000000
01000000
00000000
00000000
00100000
00000000
00000000
00100000
,
00000000
00000000
00010000
00000000
00000000
10000000
00000000
00000000
,
00100000
01000000
00010000
00100000
,
00001000
00000000
00000000
00010000
00000000
00000000
00001000
00000000
,
00000000
00000010
00000000
00000000
00000100
00000000
00000000
00000100
,
00000000
00000000
00001000
00000000
00000000
00000001
00000000
00000000
,
00000100
00000010
00001000
00001001
,
00000001
00000000
00000100
00000000
00000020
00000000
00000000
00001030
,
00000000
00000000
00000001
00000000
00000000
00000010
00000000
00000000
,
00000020
00000000
00000130
00010000
,
00001000
01000000
00010000
00100000
,
00010000
00000000
10000000
00000000
00200000
00000000
00000000
01300000
,
00000000
00000000
00010000
00000000
00000000
00010000
00000000
00000000
,
10000000
01000000
00010000
00001000
,
00000100
00000010
00001002
00000000
,
00001000
00000000
00000000
00000000
,
00000103
00000000
00000001
00000010
,
00000100
00001000
00010000
01000000
,
00100000
00000000
10000000
00000000
01000000
10000000
01000000
00000000
,
20000000
00000000
30100000
01000000
,
00000000
00010000
00000000
00000000
20000000
00000000
00000000
00000000
,
31000000
00100000
00010000
00001000
,
00000010
00000000
00000200
00000000
00000301
00000010
00000001
00000000
,
00002000
00000000
00003001
00000100
,
00000000
00000001
00000000
00000000
00002000
00000000
00000000
00000000
,
00003010
00000100
00000001
00000020
,
00000000
00000031
00000100
00000010
,
00001000
00010000
00010000
10000000
,
10000000
00010000
00100000
01000000
,
10000000
01000000
00010000
00001000
,
00010000
00001000
00000100
00000010
,
00000100
00000001
00000001
00001000
,
00001000
00000001
00000010
00000100
,
00001000
00010000
00100000
00010000
,
10010000
10000000
20100000
00000000
,
00000000
31000000
00010000
00001000
,
00000100
00000020
00000000
00000130
,
00000001
00000010
00000001
00002000
,
00000000
00000000
00003001
00000100
00000001
00000000
00001000
00000000
,
00000001
00000000
00001000
00000100
00001000
00000000
00000100
00000000
,
00010000
00000000
00001000
00010000
00001000
00000000
00010000
00000000
,
01000000
00000000
10000000
00100000
10000000
00000000
00010000
00000000
,
10000000
20020000
00000000
00000000
,
00000000
00000000
30030000
01100000
,
10000000
00000000
01000000
00000000
00010000
00001000
00010000
00000000
,
00001000
00000000
00000100
00000000
00000001
00001000
00000002
00000000
,
00000000
00000023
00000031
00002000
,
00003001
00000100
00000001
00000000
00001000
00000000
00000100
00000000
,
00010000
00001000
00010000
00100000
,
10000000
00000000
00010000
00000000
01000000
00000000
00100000
01000000
,
00100000
20000000
31000000
20000000
,
30010000
01000000
00020000
00000000
00130000
00000000
00002000
00000000
,
00013000
00001000
00010000
00000000
00001000
00000000
00000010
00000000
,
00000001
00000000
00001000
00000001
00001000
00000000
00000020
00000000
,
00000000
00000000
00000130
00000000
00000001
00000100
00000000
00000001
,
00000100
00000000
00000001
00000010
00000000
00000000
00001000
00000000
,
00010000
00000000
00001000
00000000
00010000
01000000
00000000
00010000
,
01000000
00000000
00100000
00010000
00000000
00000000
10000000
00000000
,
00100000
00000000
10000000
00000000
00100000
01000000
00000000
00100000
,
01000000
00000000
00010000
01000000
00000000
00000000
00010000
00000000
,
00100000
00000000
00001000
00000000
00000000
00010000
00010000
00000000
,
00000000
00001000
00001000
00000000
00000000
00000000
00010000
00000000
,
00001000
00022000
00000000
00000000
,
00033000
00001000
00000100
00002010
,
00000000
00003001
00000010
00001200
,
00000000
00010300
00001000
00021000
,
00000000
00000000
01030000
00000000
10000000
00000000
00010000
01000000
,
00001000
00010000
00000000
00000000
00000000
00000000
00000000
00000000
;

//--------------- dance-double - t7r ----------------
#NOTES:
     dance-double:
     t7r:
     Medium:
     14:
     0,0,0,0,0:
00000000
00000000
00000000
00000000
,
00000000
00000000
00000000
00000000
,
00000000
00000000
00000000
00000000
,
00000000
00000000
00000000
00000000
,
00000000
00000000
00000000
00000000
,
00000001
00000100
00000010
00000100
00000001
00001000
00000100
00000000
,
00001000
00000010
00000100
00000001
00000010
00000100
00010000
00000000
,
00001000
00010000
01000000
00000000
10000000
00100000
01000000
00020000
,
00000000
10030000
01000000
00000000
10000000
00000000
10010000
00000000
,
10000000
01000000
00100000
01000000
10000000
00010000
01000000
00000000
,
00010000
00100000
01000000
10000000
00100000
01000000
00001000
00000000
,
00010000
00001000
00000100
00000000
00000001
00000010
00000100
00002000
,
00000000
00003001
00000100
00000000
00000001
00000000
00001001
00000000
,
00000002
00000000
00000000
00000000
00000103
00000000
00000000
00000000
00000010
00000000
00000000
00001000
00000100
00000000
00001000
00000000
,
00000000
00000000
00000001
00000000
00000100
00000000
00000000
00000000
00001000
00000000
00000000
00010000
00001000
00000000
00010000
00000000
,
00000000
00000000
01000000
00000000
10000000
00000000
00000000
00000000
00100000
00000000
00000000
01000000
00100000
00000000
10000000
00000000
,
01000000
00100000
00010000
00000000
10000000
00100000
01000000
00000000
,
00020000
00000000
00000000
00000000
00130000
00000000
00000000
00000000
00010000
00000000
00000000
10000000
01000000
00000000
10000000
00000000
,
00000000
00000000
00100000
00000000
00010000
00000000
00000000
00000000
00001000
00000000
00000000
00010000
00001000
00000000
00010000
00000000
,
00000000
00000000
00001000
00000000
00000100
00000000
00000000
00000000
00000010
00000000
00000000
00001000
00000001
00000000
00000010
00000000
,
00000001
00000100
00000001
00000100
00000010
00001000
00000100
00010000
,
00002000
00000000
00000000
00000000
,
00023000
00000000
01030000
10000000
00010000
00000000
20000000
00000000
,
00000000
30100000
01000000
00000000
00100000
10000000
00010000
00100000
,
00010000
10000000
00020000
00000000
00000000
10030000
01000000
00000000
,
00100000
00010000
00100000
00000000
00001000
00010000
00001000
00000000
,
00010000
00000000
00001000
00010000
00001000
00000000
00000020
00000000
,
00000000
00000031
00001000
00000000
00000001
00001000
00000100
00001000
,
00000001
00000100
00000020
00000000
00000000
00001030
00000001
00000100
,
00000001
00000000
00000010
00000100
00010000
00001000
00010000
00000000
,
00100000
01000000
00100000
00000000
20000000
00000000
00000000
30010000
,
00100000
00000000
00010000
10000000
01000000
00100000
00001000
00010000
,
00002000
00000000
00000000
00013000
00001000
00000000
00000010
00000100
,
00000010
00000000
00000001
00000100
00000001
00000000
00002000
00000000
,
00003001
00000010
00000001
00000000
00002000
00000000
00000000
00003010
,
00000100
00000001
00000010
00000100
00001000
00000010
00000100
00000001
,
00000020
00000000
00000000
00001030
00010000
00000000
00100000
10000000
,
00010000
10010000
10000000
01000000
,
00010000
00000000
00001000
00000010
,
00000100
00000010
00000001
00000100
,
00001000
00000000
00010000
00100000
,
01000000
00100000
10000000
00000000
01000000
00100000
01000000
00000000
,
00020000
00000000
00000000
01030000
10000000
00010000
01000000
00001000
,
00010000
00000100
00010000
00001000
00020000
00000000
00000000
00031000
,
00000100
00000000
00000010
00000100
00000001
00000010
00000100
00001000
,
00000001
00001000
00000001
00000000
00000010
00000100
00000010
00000000
,
00002000
00000000
00000000
00003010
00000001
00001000
00000010
00010000
,
00001000
00100000
00001000
00010000
00002000
00000000
00000000
00013000
,
00100000
00000000
01000000
00100000
10000000
01000000
00200000
00000000
,
00310000
10000000
00010000
01000000
00010000
01000000
00010000
10000000
,
00010000
10000000
00010000
00100000
00001000
00000000
00010000
00000010
,
00001000
00000000
00000001
00001000
00000001
00001000
00000001
00000100
,
00000001
00000100
00001000
00010000
00100000
00000000
10000000
00000000
,
10010000
00000000
10000000
01000000
10000000
01000000
00100000
00010000
,
10000000
00000000
01000000
00010000
00001000
00000000
00010000
00001000
,
00000010
00000000
00000100
00001000
00000010
00000000
00000100
00000001
,
00001000
00000000
00000001
00000100
00001000
00000000
00010000
00001000
,
00020000
01030000
00200000
00000000
,
00000000
00000000
00310000
00000000
10000000
00000000
00000000
00100000
00000000
00000000
02000000
00000000
00000000
00000000
03100000
00000000
,
10000000
00010000
00200000
00000000
00000000
00000000
01300000
10000000
,
01000000
00000000
00010000
00000000
00001000
00000000
00010000
00000000
00000000
00001000
00000000
00000000
00000020
00000000
00000000
00000000
,
00000000
00000000
00000031
00000100
00000001
00000100
00000010
00001000
,
00000001
00000000
00000010
00000100
00001000
00000100
00010000
00001000
,
00010000
00000000
00001000
00010000
01000000
10000000
00010000
10000000
,
00100000
00000000
10000000
00100000
00010000
00001000
00010000
01000000
,
00000000
10000000
00000000
00000000
20010000
00000000
00000000
00000000
00000000
00000000
00000000
00000000
00100000
00000000
00000000
00000000
,
00000000
00000000
00000000
00000000
01000000
00000000
00000000
00000000
00000000
00000000
00000000
00000000
30010000
00000000
00000000
00001000
,
00000000
00000100
00000010
00000100
00001000
00000100
00000010
00000001
,
00000100
00000010
00001000
00000100
00010000
00001000
00020000
00000000
,
00031000
00010000
02000000
00000000
03100000
00010000
02000000
00000000
,
03100000
10000000
01000000
00100000
01000000
00010000
00001000
00010000
,
00001000
00000100
00000020
00000000
00000130
00000001
00001000
00000001
,
00000010
00000100
00000010
00000001
00000100
00001000
00010000
00001000
,
00000100
00000010
00000200
00000000
00000310
00001000
00000200
00000000
,
00000310
00000001
00000100
00000010
00000100
00001000
00010000
00001000
,
00010000
01000000
00200000
00000000
01300000
10000000
00010000
10000000
,
00100000
01000000
00100000
00100000
10000000
10000000
00020000
00000000
,
20030000
00000000
30010000
00100000
01000000
00010000
01000000
00010000
,
00001000
00000100
00001000
00010000
00001000
00000100
00000010
00000100
,
00000001
00000000
00001000
00000100
00000010
00001000
00000010
00001000
,
00010000
00100000
00010000
00001000
00010000
00100000
01000000
00100000
,
10000000
00000000
01000000
00010000
00001000
00000100
00001000
00010000
,
01000000
00010000
00001000
00000010
00001000
00010000
00100000
00010000
,
00001000
00000000
00011000
00000000
00010000
01000000
10000000
00000000
,
00010000
00001000
00000100
00000000
00000010
00000001
00001000
00000000
,
00000001
00000100
00002000
00000000
00000000
00000000
00000000
00000000
,
00003000
00000000
00000000
00000000
00012000
00000000
00000000
00000000
01003000
00000000
00000000
00000000
00021000
00000000
00000000
00030100
,
00010000
00000000
00001000
00000000
00000000
00000000
00010000
00000000
00001000
00000000
00000000
00000000
00012000
00000000
00000000
01003000
,
00001000
00000000
00010000
00000000
00000000
00000000
00001000
00000000
00010000
00000000
00000000
00000000
00021000
00000000
00000000
00030100
,
00001000
00000001
00000200
00000000
00002300
00000000
00013000
00100000
,
10000000
00010000
00000000
00000000
00000000
00000000
00000000
00000000
;

//--------------- dance-double - t7r ----------------
#NOTES:
     dance-double:
     t7r:
     Hard:
     17:
     0,0,0,0,0:
00000000
00000000
00000000
00000000
,
00000000
00000000
00000000
00000000
,
00000000
00000000
00000000
00000000
,
00000000
00000000
00000000
00000000
,
00000000
00000000
00000000
00000000
,
10000000
00010000
01000000
00100000
10000000
00010000
01000000
00100000
,
10000000
01000000
00010000
00001000
00000100
00000010
00000100
00000001
,
00001000
00000100
00000010
00000001
00001000
00000010
00000100
00000002
,
00000000
00000000
00000013
00000100
00000010
00000000
00000001
00000010
00000001
00000000
00001000
00000001
00001000
00000000
00000001
00001000
,
00000001
00001000
00000010
00000100
00000001
00001000
00000010
00000100
,
00000001
00000010
00001000
00010000
00100000
01000000
00100000
10000000
,
00010000
00100000
01000000
10000000
00010000
01000000
00100000
20000000
,
00000000
00000000
31000000
00100000
01000000
00000000
10000000
01000000
10000000
00000000
00010000
10000000
00010000
00000000
10000000
00010000
,
20000000
00000000
00000000
00000000
31000000
00000000
00000000
00000000
10000000
00000000
00100000
01000000
00000000
00100000
10000000
00000000
,
00000000
00000000
01000000
00000000
00100000
00010000
00100000
00000000
00001000
00000000
00010000
00001000
00000000
00010000
00000100
00000000
,
00000000
00001000
00000001
00000000
00000100
00000001
00000100
00000001
00001000
00000000
00000001
00000000
00000010
00000001
00000010
00000000
,
00000001
00000000
00000100
00000000
00001000
00000000
00010000
00000000
01000000
00000000
10000000
00000000
00010000
01000000
00010000
01000000
,
00020000
00000000
00000000
00000000
00130000
00000000
00000000
00000000
00010000
00000000
10000000
01000000
00000000
00100000
01000000
00000000
,
00000000
00000000
10000000
00000000
00010000
01000000
00010000
00000000
20000000
00000000
00000000
00000000
31000000
00000000
00010000
00000000
,
00000000
00001000
00010000
00000000
00001000
00010000
00001000
00010000
00000100
00000000
00001000
00000000
00000010
00000100
00000010
00000000
,
00000100
00000000
00000001
00000010
00000100
00000000
00001000
00000010
00000100
00000000
00000001
00001000
00000100
00000000
00010000
00001000
,
00020000
00000000
00000000
00030000
,
00012000
00000000
00013000
01000000
10000000
00000000
00200000
00000000
,
00000000
00000000
10300000
00000000
01000000
00000000
00100000
00000000
00010000
00000000
01000000
00010000
10000000
00000000
01000000
00000000
,
10000000
00010000
01000000
00000000
00020000
00000000
00000000
00000000
10030000
00000000
01000000
00000000
00010000
00000000
00001000
00000000
,
00000100
00000000
00000010
00000000
00000100
00000000
00000001
00000000
00000010
00000000
00000100
00001000
00000001
00000000
00001000
00000000
,
00000020
00000000
00000031
00000010
00001000
00000000
00000002
00000000
,
00000000
00000000
00000013
00000000
00000100
00000000
00001000
00000000
00000010
00000000
00000100
00000001
00001000
00000000
00000100
00000000
,
00000010
00000001
00001000
00000000
00000002
00000000
00000000
00000000
00000103
00000000
00001000
00010000
00001000
00000000
00010000
00000000
,
00001000
00000100
00000010
00001000
00000100
00010000
00012000
00000000
,
00013000
00100000
10000000
00000000
02000000
00000000
00000000
13000000
,
00100000
00000000
01000000
00000000
00010000
00000000
00100000
00010000
10000000
00000000
00100000
00000000
10000000
00010000
00100000
00000000
,
00020000
00000000
10030000
00100000
00010000
00001000
00000010
00000100
,
00000010
00000000
00000001
00000000
00000100
00000000
00000010
00001000
00000001
00000000
00001000
00000000
00000200
00000000
00000000
00000000
,
00000301
00000100
00001000
00000000
00000002
00000000
00000000
00000103
,
00000010
00000000
00001000
00000000
00000100
00000000
00000010
00000001
00001000
00000000
00000010
00000000
00000100
00000001
00001000
00000000
,
00000002
00000000
00000000
00000000
00000013
00000000
00001000
00010000
00001000
00000000
00010000
00000000
00001000
00000000
00000010
00000100
,
00001000
00000010
00000110
00000000
00000001
00000100
00000020
00000000
,
00001030
00010000
01000000
00000000
00100000
10000000
00020000
00000000
,
10030000
00000000
01000000
00000000
00100000
00000000
00010000
00000000
00001000
00000000
00000010
00001000
00000010
00000000
00001000
00000000
,
00000001
00000000
00000100
00000001
00000100
00000000
00000001
00000000
00000100
00000000
00001000
00010000
00001000
00000000
00010000
00000000
,
00001000
00010000
00012000
00000000
00013000
00001000
00000100
00000000
,
00000002
00000000
00000000
00000000
00000000
00000000
00000013
00000000
00001000
00000000
00010000
00000000
00001000
00000000
00010000
01000000
,
00100000
00000000
00010000
00000000
01000000
00100000
10000000
00000000
00020000
00000000
00000000
00000000
10030000
00000000
01000000
00100000
,
00010000
00000000
10000000
00000000
00100000
00000000
00010000
00000000
00001000
00000000
00010000
00000000
01000000
00000000
10000000
00010000
,
10000000
01000000
00020000
00000000
00031000
00010000
01000000
00000000
,
20000000
00000000
00000000
00000000
00000000
00000000
30100000
00000000
00010000
00000000
00001000
00000000
00010000
00000000
00001000
00000100
,
00000010
00000000
00001000
00000000
00000100
00000010
00000001
00000000
00002000
00000000
00000000
00000000
00003001
00000000
00000100
00000010
,
00001000
00000000
00000001
00000000
00000010
00000000
00001000
00010000
00001000
00000000
00010000
00000000
00000010
00000000
00001000
00000001
,
00001000
00000001
00001000
00000001
00001000
00000000
00000001
00000100
00000010
00000000
00000001
00000000
00000010
00000000
00000100
00000000
,
00000001
00000000
00001000
00000000
00000100
00000000
00010000
00001000
00010000
00000000
00001000
00000000
00000100
00000000
00001000
00010000
,
00001000
00000000
00010000
00000000
01000000
00000000
10000000
00100000
10000000
00000000
00100000
00000000
00010000
00000000
00100000
00000000
,
01000000
00000000
00100000
00000000
10000000
00000000
01000000
10000000
01000000
00000000
10000000
00000000
00010000
00000000
01000000
00010000
,
10000000
00000000
01000000
00000000
00010000
00000000
00001000
00010000
00001000
00000000
00010000
00000000
00001000
00000000
00000100
00000000
,
00000010
00000000
00000100
00000001
00000100
00000000
00000001
00000000
00000010
00000000
00000100
00000000
00000001
00000000
00000100
00001000
,
00000100
00000000
00000010
00000000
00000001
00000000
00000100
00000010
00001000
00000000
00000001
00000000
00000010
00000000
00001000
00000000
,
00010000
00000000
00100000
01000000
00010000
00000000
10000000
01000000
10000000
00000000
00010000
00000000
10000000
00000000
00010000
01000000
,
00010000
00000000
10000000
01000000
10000000
00000000
00100000
00000000
00010000
00000000
00001000
00000000
00010000
00000000
00100000
00000000
,
10000000
00000000
00010000
00000000
00000000
00000000
10000000
01000000
00000000
00000000
00010000
00000000
00001000
00000000
00010000
00000000
,
00000100
00001000
00000001
00000010
00001000
00010000
00001000
00000010
,
00000001
00000000
00001000
00000000
00000000
00000000
00000001
00000100
00000000
00000001
00001000
00000000
00000100
00000000
00010000
00000000
,
00001000
00000000
00000000
00010000
01000000
00010000
01000000
00010000
00001000
00010000
00000000
00000000
,
00011000
00000000
00000000
00001000
00000100
00001000
00000100
00001000
00010000
00001000
00000000
00000000
,
00011000
00000000
00000000
00000000
00010000
00000000
01000000
00000000
00100000
01000000
00100000
01000000
00100000
00000000
00010000
00000000
,
01000000
00000000
00100000
00000000
10000000
00000000
01000000
00100000
01000000
00000000
00100000
00000000
00001000
00000000
00000000
00011000
,
00000000
00010000
00001000
00000000
00000000
00000000
00000010
00000000
,
00000000
00000000
00000000
00000000
00000001
00000000
00000000
00000000
00000000
00000000
00000100
00001000
00010000
00000000
00000000
00001000
,
00000000
00000000
00010000
00000000
00001000
00000000
00010000
00001000
00010000
00000000
00001000
00000000
00000100
00000000
00000010
00000100
,
00000010
00000000
00001000
00000000
00000001
00000000
00000010
00000001
00000010
00000000
00000001
00001000
00000002
00000000
00000000
00000000
,
00000103
00001000
00020000
00000000
00031000
00010000
02000000
00000000
,
03010000
00000000
00001000
00000000
01000000
00000000
00100000
01000000
00100000
00000000
10000000
00000000
01000000
00000000
10000000
00010000
,
10000000
00000000
00100000
00000000
00020000
00000000
00000000
00000000
00031000
00000000
00010000
00000000
00001000
00000000
00000100
00000010
,
00000100
00000000
00000001
00000000
00000010
00000000
00000100
00000000
00000001
00000000
00000100
00000000
00001000
00000100
00001000
00000100
,
00010000
00000000
00001000
00010000
00002000
00000000
00000000
00000000
00013000
00000000
00001000
00000000
00000020
00000000
00000000
00000000
,
00001030
00000000
00010000
00000000
00000010
00000000
00000100
00000010
00000100
00000000
00000001
00000000
00000010
00000000
00000001
00001000
,
00000001
00000000
00000100
00000000
00002000
00000000
00000000
00000000
00013000
00000000
00001000
00000000
00010000
00000000
00100000
01000000
,
00100000
00000000
10000000
00000000
01000000
00000000
00100000
00001000
00010000
00000000
00001000
00010000
00002000
00000000
00000000
00000000
,
00003020
00000000
00000000
00000000
00000031
00000100
00000001
00000100
00000001
00000000
00001000
00000100
00001000
00000100
00001000
00000000
,
00000001
00000100
00000001
00000100
00000001
00000000
00001000
00000100
00010000
00000000
00001000
00000000
00010000
00000000
00100000
00000000
,
20000000
00000000
00000000
00000000
30010000
00100000
00010000
00100000
00010000
00000000
10000000
00100000
10000000
00100000
10000000
00000000
,
00010000
01000000
00010000
01000000
00010000
00000000
10000000
00000000
01000000
00000000
00010000
00000000
00001000
00000000
00010000
00000000
,
00001000
00000000
00000100
00000000
00000010
00000100
00000010
00000100
00000010
00000000
00001000
00000010
00001000
00000010
00001000
00000000
,
00000001
00000010
00000001
00000010
00000001
00000000
00000010
00000000
00001000
00000000
00010000
00000000
01000000
00000000
10000000
00000000
,
10010000
00000000
10000000
00100000
00010000
00001000
00010000
00100000
,
10000000
00010000
00001000
00000100
00000001
00001000
00000010
00000001
,
00000100
00000000
00001000
00010000
00002000
00000000
00000000
00000000
00000000
00000000
00000000
00000000
00000000
00000000
00000000
00000000
,
00003000
00000000
00000000
00000000
00021000
00000000
00000000
00000000
00130000
00000000
00000000
00000000
10000000
00000000
01000000
00010000
,
00000000
00001000
00010000
00000000
00000000
00000000
00001000
00000000
00000100
00000010
00000100
00000000
00000001
00000000
00000010
00001000
,
00000000
00000010
00000001
00000000
00000100
00000010
00000000
00000000
00001000
00000100
00001000
00000100
00020000
00000000
00000000
00000000
,
00031000
00000000
00010000
00000000
01000000
10000000
00100000
00000000
01000000
00010000
00100000
00000000
00001000
00010000
00001000
00010000
,
00001000
00010000
00001000
00010000
00000000
00000000
00000000
00000000
00000000
00000000
00000000
00000000
00000000
00000000
00000000
00000000
;
