#TITLE:Amabie;
#SUBTITLE:;
#ARTIST:BEMANI Sound Team "Coyaan";
#TITLETRANSLIT:;
#SUBTITLETRANSLIT:;
#ARTISTTRANSLIT:Coyaan;
#GENRE:;
#CREDIT:;
#MUSIC:Amabie.ogg;
#BANNER:Amabie.png;
#BACKGROUND:Amabie-bg.png;
#CDTITLE:;
#SAMPLESTART:11.548;
#SAMPLELENGTH:15.000;
#SELECTABLE:YES;
#OFFSET:0.952;
#BPMS:0.000=168.000;
#STOPS:;
#BGCHANGES:;
#FGCHANGES:;

//--------------- dance-single - Kekkle ----------------
#NOTES:
     dance-single:
     Kekkle:
     Beginner:
     4:
     0.189604,0.23741,0.126003,0.100802,0,158,143,15,12,0,0,0.189604,0.23741,0.126003,0.100802,0,158,143,15,12,0,0:
0000
0000
0000
0000
,
0000
0000
0000
0000
,
0000
0000
0000
0000
,
0000
0000
0000
0000
,
0000
0000
0000
0000
,
0001
0000
0001
0000
,
1000
0000
1000
0000
,
0010
0000
0010
0000
,
0100
0000
0000
0000
,
0002
0000
1003
0000
,
0010
0000
0010
0000
,
0100
0000
0001
0000
,
1000
0000
1001
0000
,
0002
0000
0103
0000
,
0010
0000
0010
0000
,
0100
0000
0001
0000
,
1000
0000
0001
0000
,
1001
0000
1000
0000
,
0100
0100
0100
0000
,
0010
0000
0001
0000
,
1000
0000
1001
0000
,
0001
0000
0100
0000
,
0010
0010
0010
0000
,
2000
0000
0000
0000
,
3001
0000
0001
0000
,
1001
0000
0000
0000
,
1000
0000
0100
0000
,
1001
0000
0000
0000
,
0001
0000
0100
0000
,
1001
0000
0000
0000
,
1000
0000
0010
0000
,
0100
0000
0001
0000
,
1000
1000
1000
0000
,
1001
0000
0000
0000
,
0001
0000
0010
0000
,
1001
0000
0000
0000
,
1000
0000
0010
0000
,
1001
0000
0000
0000
,
0001
0000
0100
0000
,
0010
0000
1000
0000
,
0001
0001
0001
0000
,
1001
0000
0000
0000
,
0000
0000
0000
0000
,
0000
0000
0000
0000
,
0000
0000
0000
0000
,
1000
1000
1000
0000
,
0001
0001
0001
0000
,
0100
0000
0010
0000
,
1001
0000
0000
0000
,
2000
0000
3001
0000
,
0010
0010
0010
0000
,
0002
0000
1003
0000
,
0010
0010
0010
0000
,
0100
0000
0010
0000
,
0001
0000
0010
0000
,
2000
0000
0000
0000
,
3001
0001
0001
0000
,
1001
0000
1000
0000
,
0100
0100
0100
0000
,
0020
0000
0031
0000
,
0100
0100
0100
0000
,
0010
0000
0100
0000
,
1000
0000
0100
0000
,
0002
0000
0000
0000
,
1003
1000
1000
0000
,
1001
0000
0001
0000
,
0010
0000
0100
0100
,
0100
0000
1000
0000
,
0001
0000
0100
0100
,
0100
0000
0010
0000
,
1000
0000
0001
0001
,
0001
0000
0010
0000
,
1001
0000
0000
0000
,
2000
0000
0000
0000
,
3010
0000
0100
0000
,
0002
0000
0000
0000
,
0013
0000
0100
0000
,
2000
0000
0000
0000
,
3100
0000
0010
0000
,
0002
0000
0000
0000
,
0003
0000
0000
1001
;

//--------------- dance-single - Kekkle ----------------
#NOTES:
     dance-single:
     Kekkle:
     Easy:
     9:
     0.339607,0.440905,0.193204,0.201604,0,283,260,23,24,0,0,0.339607,0.440905,0.193204,0.201604,0,283,260,23,24,0,0:
0000
0000
0000
0000
,
0000
0000
0000
0000
,
0000
0000
0000
0000
,
0000
0000
0000
0000
,
0000
0000
0000
0000
,
0001
0100
0010
0010
,
1000
0100
0010
0010
,
0001
0001
1000
1000
,
0010
0000
0100
1001
,
0002
0000
0013
0000
,
0100
0001
0100
0100
,
2000
0000
0000
0000
3010
0000
0010
0100
,
0000
0010
0001
0010
,
2000
0000
3100
0000
,
0010
1000
0010
0010
,
0002
0000
0000
0000
0103
0000
0100
0010
,
0000
0100
1001
1001
,
0001
0000
0010
0000
0100
0000
0100
0010
,
0000
1000
0010
0010
,
0002
0000
0000
0000
1003
0000
1000
0010
,
0000
0100
0010
0010
,
1000
0000
0100
0000
0010
0000
0010
0100
,
0000
0001
0100
0100
,
0020
0000
0000
0000
0031
0000
0001
1000
,
0000
0001
1001
1001
,
2000
0000
0000
0000
3001
0000
0000
1001
,
0000
1000
0010
0010
,
0200
0000
0000
0000
0310
0000
0000
0110
,
0000
0100
0001
0001
,
2000
0000
0000
0000
3001
0000
0000
1001
,
0000
1000
0100
0100
,
0010
0100
0001
0100
,
1000
0001
0100
0100
,
0020
0000
0000
0000
0130
0000
0000
0110
,
0000
0010
1000
1000
,
0002
0000
0000
0000
1003
0000
0000
1001
,
0000
0001
0010
0010
,
0200
0000
0000
0000
0000
0310
0000
0110
,
0000
0100
1000
1000
,
0001
0100
1000
0100
,
0010
0000
1001
1001
,
0002
0000
0010
0000
,
0010
0000
0010
0000
,
2003
0000
0010
0000
,
0010
0000
0010
0000
,
3001
1000
0001
0001
,
0100
0010
0100
0100
,
0001
0000
1000
0000
0001
1000
0001
1000
,
0000
0000
0100
1001
,
0002
0000
0000
0000
0103
0000
0100
0010
,
0000
1000
0001
0001
,
2000
0000
0000
0000
3100
0000
0100
0010
,
0000
0001
1000
1000
,
0010
0100
1000
0100
,
0002
0000
1000
1000
,
2003
0000
0000
0000
3100
0000
0100
0010
,
0000
0001
1001
1001
,
1000
0000
0001
0000
0010
0000
0010
0100
,
0000
1000
1001
1001
,
0001
0000
1000
0000
0010
0000
0010
0100
,
0000
0000
0001
0000
1000
0001
1000
0000
,
0100
0000
0010
0000
0001
0000
0001
2000
,
0000
3010
0100
0100
,
0200
0000
0000
0000
0301
0000
0001
1000
,
0000
0001
1001
1001
,
1000
0100
0001
1000
,
0010
0001
1000
1000
,
0001
0100
1000
0001
,
0010
0000
1000
0000
0001
1000
0001
0000
,
1000
0100
0010
1000
,
0001
0100
0010
0001
,
1000
0001
1000
0000
0001
1000
0001
1000
,
0000
0010
1001
1001
,
2000
0000
3100
0000
,
1000
0001
1000
0000
,
0002
0000
0103
0000
,
0001
0000
1000
0001
,
2000
0000
3010
0000
,
1000
0001
1000
0000
,
0002
0000
0013
0000
,
0001
0000
0000
1001
;

//--------------- dance-single - Kekkle ----------------
#NOTES:
     dance-single:
     Kekkle:
     Medium:
     13:
     0.594013,0.644399,0.168004,0.478811,0.155403,495,475,20,57,0,0,0.594013,0.644399,0.168004,0.478811,0.155403,495,475,20,57,0,0:
0000
0000
0000
0000
,
0000
0000
0000
0000
,
0000
0000
0000
0000
,
0000
0000
0000
0000
,
0000
0000
0000
0000
,
0001
1000
0100
0000
0010
0001
1000
1000
,
0010
0100
0001
0000
1000
0001
0010
0010
,
0100
1000
0001
0100
0010
1000
0001
0000
,
2000
0000
3001
0000
0010
0100
0110
0000
,
0002
0000
0000
0103
1000
0100
0010
2000
,
0000
0000
3001
0000
0010
0000
0100
0000
1000
0000
0001
0000
0000
0001
0000
0000
,
0200
0000
0310
1000
0001
0010
0100
0002
,
0000
0000
0103
0000
1000
0000
0001
0000
0100
0000
0010
0000
0000
0010
0000
0000
,
2000
0000
3100
0010
0001
0100
1000
0200
,
0000
0000
0301
0000
1000
0000
0100
0000
0010
0000
0001
0000
0000
0001
0000
0000
,
2000
0000
3010
0100
0001
1000
1000
0200
,
0000
0000
0310
0000
0001
0000
1000
0000
1001
0000
0000
1001
0000
0000
1001
0000
,
0002
0000
0013
0100
0001
0100
1000
0002
,
0000
0000
0103
0000
0010
0000
1000
0000
0001
0000
0000
0001
0000
0000
0001
0000
,
0020
0000
0130
1000
0001
0100
0010
0002
,
0000
0013
1000
0001
0010
0100
0100
0000
,
2000
0000
3010
0100
1000
0100
0001
2000
,
0000
3100
0010
0001
2000
0000
3020
0000
,
0230
0000
0001
0000
0301
1000
0100
0020
,
0000
0000
0001
0000
0000
0001
0000
0000
0001
0000
0000
0001
0000
0000
0031
0000
,
2000
0000
3001
0100
1000
0001
0000
0011
,
0000
0010
1000
0001
0010
0100
1000
0000
,
0002
0000
1003
0100
0001
1000
0000
1010
,
0000
0000
0010
0000
0001
0000
1000
0000
0010
0000
0000
0010
0000
0000
0010
0000
,
2000
0000
3001
0010
1000
0001
0000
0101
,
0000
0100
1000
0001
0100
0010
1000
0000
,
0001
0000
0010
0000
0100
0000
1000
0001
1000
0000
0001
0000
0100
0000
0020
0000
,
0000
0000
1030
0000
0001
0000
0010
0000
0110
0000
0000
0110
0000
0000
0110
0000
,
0200
0000
0301
0100
0010
1000
0000
1010
,
0000
0010
0001
1000
0010
0100
0001
0000
,
0200
0000
1300
0100
0010
0001
0000
0011
,
0000
0000
0010
0000
1000
0000
0001
0000
0010
0000
0000
0010
0000
0000
0010
0000
,
0200
0000
0000
0000
0000
0310
0000
1010
,
0000
0010
0001
1000
0010
0100
0001
0000
,
1000
0000
0100
0000
0010
0000
0001
1000
0001
0000
0100
0000
0010
0000
2000
0000
,
0000
0000
0001
0000
0000
0001
0000
0000
0001
0000
0000
0001
0000
0000
3001
0000
,
0020
0000
0001
0000
,
0100
0000
0000
0000
0000
0000
0000
0000
0031
0000
0000
1000
0000
0000
1000
0000
,
0020
0000
1000
0000
,
0100
0000
0000
0000
0000
0000
0000
0000
1030
0000
0000
0001
0000
0000
0001
0000
,
0010
0100
1000
0100
0010
0001
1000
1000
,
0001
0100
0010
1000
0010
0100
0001
0001
,
1000
0000
0100
0000
0010
0000
0001
0000
1000
0000
0000
1001
0000
0000
1002
0000
,
0000
0000
0013
0000
0100
0010
0110
0000
,
2000
0000
0000
3010
0001
0010
0100
0002
,
0000
0000
1003
0000
0100
0000
0010
0000
0002
0000
1000
0000
0000
1003
0000
0000
,
0020
0000
1030
0001
0010
0100
0001
0200
,
0000
0000
0310
0000
0001
0000
1000
0000
0020
0000
0100
0000
0000
0130
0000
0000
,
1000
0100
0001
0010
0100
1000
0001
0200
,
0000
0000
0310
0000
1000
0000
0001
1000
0001
0000
0010
0000
0000
0010
0000
0000
,
0200
0000
1000
0000
0310
0001
0001
2000
,
0000
0000
3010
0000
0100
0000
0001
0000
1001
0000
0000
1001
0000
0000
1001
0000
,
2000
0000
3100
0010
1000
0010
0001
2000
,
0000
0000
3010
0000
0100
0000
0002
0000
1000
0000
0000
1000
0000
0000
1003
0000
,
0200
0000
0310
0001
1000
0010
0001
0020
,
0000
0130
0001
1000
0100
0010
0010
0000
,
1000
0010
0001
1000
0010
0001
0010
0200
,
0000
0000
0301
0000
1000
0000
0100
0010
0100
0000
0000
0010
0000
0000
0010
0000
,
0002
0000
0000
0000
1003
0000
0001
1000
0001
0000
1000
0000
0100
0000
0020
0000
,
0000
0000
0001
0000
0000
0001
0000
0000
0001
0000
0000
0001
0000
0000
0031
0000
,
1000
0010
0100
0010
0001
0010
1000
0002
,
0000
0013
0100
1000
1000
0001
0100
0010
,
0002
0000
0013
0100
1000
0100
0001
2000
,
0000
0000
3100
0000
0010
0000
0001
0000
1000
0000
0010
0000
0010
0100
0000
0100
,
0010
0000
0100
0000
0001
0000
1000
0001
1000
0000
0100
0000
0010
0000
0002
0000
,
0000
0000
1003
0000
0010
0000
0100
0000
0001
0000
1000
0000
1000
0001
2000
0000
,
0000
0000
3001
0010
0001
0000
1000
0010
1000
0000
0001
0000
0010
0000
0200
0000
,
0000
0000
0010
0000
0000
0010
0000
0000
0010
0000
0000
0010
0000
0000
0310
0000
,
0001
1000
0010
0100
1000
0100
0001
1000
,
0100
0010
0001
2000
0000
0000
3000
0000
,
0001
0100
0010
0100
1000
0100
0001
2000
,
0000
0000
0000
0000
0000
0000
0000
0000
3001
0000
0010
0000
0000
0010
0000
0000
,
0100
1000
0001
0100
1000
0100
0010
1000
,
0001
0010
0100
0020
0000
0000
0030
0000
,
0001
1000
0100
0010
1000
0010
0001
2000
,
0000
0000
0000
0000
0000
3010
0110
0000
;

//--------------- dance-single - Kekkle ----------------
#NOTES:
     dance-single:
     Kekkle:
     Hard:
     16:
     0.872419,0.915725,0.688815,0.554412,0.781217,727,645,82,66,0,0,0.872419,0.915725,0.688815,0.554412,0.781217,727,645,82,66,0,0:
0000
0000
0000
0000
,
0000
0000
0000
0000
,
0000
0000
0000
0000
,
0000
0000
0000
0000
,
0000
0000
0000
0000
,
0001
0000
0100
0000
0010
0000
1000
0010
1000
0000
0010
0000
0100
0001
0100
0001
,
0100
0000
0001
0000
1000
0000
0100
1000
0100
0000
1000
0000
0001
0010
0001
0010
,
0001
1000
0001
0000
1000
0010
1000
0000
0010
0100
0010
0100
0001
1000
0001
1000
,
0200
0000
0000
0000
0310
0000
0001
1000
0010
0000
0100
0000
0110
0000
0000
0000
,
2001
0000
0000
0000
3100
0000
0001
0100
0001
0000
0100
0010
0100
0000
2000
0000
,
0000
0000
3001
0100
0010
0000
0100
0000
1000
0000
1100
0000
0000
0110
0000
0000
,
0102
0000
0000
0000
1003
0000
0100
1000
0100
0000
0010
0100
0010
0000
0002
0000
,
0000
0000
0013
0100
1000
0000
0001
0000
0100
0000
0101
0000
0000
0110
0000
0001
,
2000
0000
0000
0000
3100
0010
0001
1000
0001
0000
0100
0010
0100
0000
0020
0000
,
0000
0000
1030
0001
0010
0000
0100
0000
0001
0000
0101
0000
0000
0110
0000
0000
,
2100
0000
0000
0000
3001
0000
0100
0010
1000
0000
0001
0000
0001
0000
0002
0000
,
0000
0000
0103
0010
1000
0000
0100
0010
0001
0000
0000
1001
0000
0000
0110
0000
,
2000
0000
0000
0000
3001
0000
0010
1000
0010
0000
0100
0010
0100
0000
2000
0000
,
0000
0000
3010
0100
0001
0000
0100
0000
0101
0000
0000
1100
0000
0000
1001
0000
,
0002
0000
0000
0000
0013
0000
0100
0010
0100
0000
1000
0100
1000
0000
0002
0000
,
0000
0000
0103
0010
1000
0000
0001
0000
2000
0000
0100
0000
3100
0000
0010
0001
,
2000
0000
0000
0000
3001
0010
0100
1000
0100
0000
0001
0100
0010
0000
0200
0000
,
0000
0000
1300
0001
0100
0000
0010
0000
1010
0000
0000
0011
0000
0000
1001
0000
,
1000
0000
0100
0010
0001
0000
0100
0010
1000
0000
0001
1000
0100
0000
0110
0000
,
0000
0000
0011
0000
0000
1010
0000
0000
1100
0000
0000
0101
0000
0000
0011
0000
,
2001
0000
0000
0000
3001
0100
0010
0100
1000
0000
1100
0000
0000
0000
0102
0000
,
0000
0000
1003
0100
0010
0000
0001
0100
0010
0000
1000
0000
2000
0000
0000
0000
,
3002
0000
0000
0000
1003
0100
0010
0100
0001
0000
0101
0000
0000
0000
2100
0000
,
0000
0000
3001
0100
0010
0000
1000
0100
0010
0000
0000
0011
0000
0000
0110
0000
,
1002
0000
0000
0000
1003
0010
0100
0010
0001
0000
0011
0000
0000
0000
2010
0000
,
0000
0000
3001
0010
0100
0000
1000
0010
0100
0000
0001
0000
0002
0000
0000
0000
,
1003
0100
0010
0001
0010
0000
1000
0010
1000
0000
0010
0001
0010
0000
0002
0000
,
0000
1003
0010
0100
0010
0000
1000
0001
0010
0000
0000
0110
0000
0000
1100
0000
,
1002
0000
0000
0000
0103
0010
0100
1000
0001
0000
0011
0000
0000
0000
2010
0000
,
0000
0000
3001
0010
0100
0000
1000
0010
0100
0000
0001
0000
0002
0000
0000
0000
,
2003
0000
0000
0000
3100
0010
0100
0001
1000
0000
1010
0000
0000
0000
0012
0000
,
0000
0000
1003
0010
0100
0000
0001
0010
0100
0000
0000
1100
0000
0000
0110
0000
,
0002
0000
0000
0000
0103
1100
0000
0102
,
0000
0000
1003
0100
0010
0000
0001
0100
0010
0000
1000
0000
2000
0000
0000
0000
,
3001
0100
0010
1000
0010
0000
0001
0010
0001
0000
0010
1000
0010
0000
1000
0000
,
0000
0000
1100
0000
0000
0101
0000
0000
0011
0000
0000
1010
0000
0000
1100
0000
,
1002
0000
0010
0000
,
1000
0000
0000
0000
0000
0000
0000
0000
0103
0000
0000
0001
0000
0000
0001
0000
,
2000
0000
0010
0000
,
0001
0000
0000
0000
0000
0000
0000
0000
3100
0000
0000
1000
0000
0000
1000
0000
,
0001
0000
0100
0000
0010
0000
1000
0001
1000
0000
0001
0000
0010
0100
1000
0100
,
0010
0000
0001
0000
1000
0000
0010
0100
0010
0000
1000
0000
0001
1000
0100
1000
,
0001
0100
0010
1000
0001
1000
0100
0000
0110
0000
0000
0011
0000
0000
2001
0000
,
0000
0000
3001
0100
0010
0000
1000
0100
0010
0000
0001
0000
0010
0100
1000
0001
,
0200
0000
0000
0000
0310
0000
0001
0010
0001
0000
0010
1000
0010
0000
2000
0000
,
0000
0000
3001
0010
0100
1000
0100
0000
2100
0000
0001
0000
0000
3010
0100
0001
,
2000
0000
0000
0000
3100
0010
0001
1000
0010
0000
0001
0010
0100
0000
0020
0000
,
0000
0000
1030
0001
0010
0100
1000
0000
1002
0000
0100
0000
0000
1003
0100
0010
,
0001
0000
1000
0010
0100
0000
0001
0000
0001
0010
0100
0000
1100
0000
0120
0000
,
0000
0000
0031
1000
0001
0010
0100
1000
0001
0100
0010
1000
0010
0100
0001
1000
,
0200
0000
0001
0000
1300
1001
0101
2100
,
0000
0000
3001
0100
0010
1000
0001
0010
0001
0000
0000
1001
0000
1000
0100
0010
,
0002
0000
0000
0000
0103
0000
1000
0100
0010
0000
0100
0001
1000
0000
0002
0000
,
0000
0000
1003
0100
0010
0000
0001
0000
1001
0000
0000
1100
0000
0001
0100
0010
,
2000
0000
0000
0000
3100
0000
0001
0100
0010
0000
0100
0010
1000
0000
0020
0000
,
0000
0000
0031
1000
0010
0000
0100
0000
0002
0000
1000
0000
1003
0000
0100
0010
,
0001
0000
1000
0001
0100
0000
1000
0000
1000
0100
0010
0000
0110
0000
2001
0000
,
0000
0000
3100
0001
0100
0010
0001
1000
0010
0000
0000
0110
0000
0001
1000
0100
,
0020
0000
0000
0000
0031
0000
1000
0010
0100
0000
0001
0010
0100
0000
0110
0000
,
0000
0000
1100
0000
0000
0101
0000
0000
0011
0000
0000
1010
0000
0000
1100
0000
,
1001
0000
0001
0100
0010
0000
0100
0010
0001
0000
0010
1000
0010
0000
2000
0000
,
0000
0000
3001
0010
0200
0000
0001
0000
0310
0000
0001
1000
0001
0100
0010
1000
,
0020
0000
0000
0000
0130
0000
1000
0100
0010
0000
1000
0001
0010
0000
0200
0000
,
0000
0000
0310
0001
1000
0000
0010
0000
0200
0000
0001
0000
0301
0000
1000
0100
,
0010
0000
1000
0000
0010
0000
0001
1000
0010
0000
0100
0001
0100
0000
0002
0000
,
0000
0000
0013
0100
1000
0000
0001
0000
0200
0000
1000
0000
0310
1000
0001
1000
,
0100
0000
0010
0001
1000
0001
0100
0010
1000
0000
0001
0010
0100
0000
0110
0000
,
0000
0000
0011
0000
0000
1010
0000
0000
1100
0000
0000
0101
0000
0000
0011
0000
,
1001
0000
1000
0000
0010
0000
0100
0001
0100
0000
0010
1000
0010
0000
1000
0000
,
0001
0000
0010
0100
2000
0000
0002
0000
0000
0000
0000
0000
3003
0000
0000
0000
,
0001
0000
1000
0000
0100
0000
0010
0001
0010
0000
0100
1000
0100
0000
2000
0000
,
0000
0000
0000
0000
0001
0000
0000
0000
3002
0000
0010
0000
0000
1003
0000
0000
,
0001
0000
0100
0000
0010
0000
1000
0001
0010
0000
0001
0010
0100
0000
1000
0000
,
0001
0000
0100
0010
2000
0000
0002
0000
0000
0000
0000
0000
3003
0000
0000
0000
,
1000
0000
0100
0000
0010
0000
0001
1000
0010
0000
0100
0010
1000
0000
0002
0000
,
0000
0000
0000
0000
0000
0013
0110
0000
;

//--------------- dance-double - Kekkle ----------------
#NOTES:
     dance-double:
     Kekkle:
     Easy:
     9:
     0.340807,0.406989,0.168004,0.168004,0,284,264,20,20,0,0,0.340807,0.406989,0.168004,0.168004,0,284,264,20,20,0,0:
00000000
00000000
00000000
00000000
,
00000000
00000000
00000000
00000000
,
00000000
00000000
00000000
00000000
,
00000000
00000000
00000000
00000000
,
00000000
00000000
00000000
00000000
,
00000001
00000100
00000010
00000010
,
00010000
00001000
00100000
00100000
,
01000000
01000000
10000000
10000000
,
00010000
00000000
01000000
10010000
,
00020000
00000000
00130000
00000000
,
10000000
00100000
00001000
00001000
,
00020000
00000000
00030010
00000000
,
00000001
00000010
00010000
00010000
,
00002000
00000000
01003000
00000000
,
10000000
01000000
00001000
00001000
,
00020000
00000000
00030100
00000000
,
00000001
00000000
00000100
00001001
,
00000001
00000100
00001000
00010000
,
00000100
00010000
00001000
00001000
,
00100000
00000000
00100000
00000000
01000000
00000000
10000000
00010000
,
00000000
00000000
01000000
00000000
00100000
01000000
00100000
00000000
,
10000000
01000000
00010000
00001000
,
00100000
00001000
00010000
00010000
,
00002000
00000000
00000000
00000000
00003100
00000000
00000100
00000001
,
00000000
00001000
00001001
00001001
,
00000002
00000000
00000000
00000000
00000013
00000000
00000000
00011000
,
00000000
00010000
01000000
01000000
,
20000000
00000000
00000000
00000000
30100000
00000000
00000000
00011000
,
00000000
00001000
00000010
00000010
,
00000002
00000000
00000000
00000000
00000103
00000000
00000000
00011000
,
00000000
00010000
00100000
00100000
,
10000000
01000000
00010000
01000000
,
10000000
00100000
00010000
00011000
,
00002000
00000000
00000000
00000000
00003100
00000000
00000000
00001001
,
00000000
00000001
00000100
00000100
,
00020000
00000000
00000000
00000000
01030000
00000000
00000000
10010000
,
00000000
10000000
01000000
01000000
,
00002000
00000000
00000000
00000000
00000000
00003100
00000000
00001001
,
00000000
00000001
00000010
00000010
,
00001000
00010000
00000010
00001000
,
00010000
01000000
00100000
00100000
,
20000000
00000000
00010000
00000000
,
00010000
00000000
00010000
00000000
,
30020000
00000000
00100000
00000000
,
00100000
00000000
00100000
00000000
,
00130000
00001000
00010000
00010000
,
00000010
00010000
00001000
00001000
,
00010000
00000000
01000000
00000000
10000000
00010000
10000000
00010000
,
00000000
00000000
01000000
10010000
,
10000000
01000000
00010000
00010000
,
00001000
00000000
00000010
00000000
00000001
00001000
00000001
00000000
,
00000001
00000100
00001000
00010000
,
00100000
00000000
00100000
00000000
10000000
00010000
10000000
00000000
,
10000000
01000000
00010000
00001000
,
00000100
00001000
00010000
00000100
,
00000020
00000000
00000001
00000001
,
00000031
00001000
00001001
00001001
,
00000001
00000100
00010000
00001000
,
00000010
00010000
00100000
10010000
,
10000000
01000000
00001000
00010000
,
00100000
00000000
00001000
00000000
00010000
00001000
00010000
00000000
,
00000010
00001000
00000001
00000010
,
00001000
00000010
00000100
00010000
,
00002000
01000000
01000000
01000000
,
01003000
00100000
10010000
10010000
,
10000000
01000000
00010000
00001000
,
00010000
00100000
00010000
00000010
,
00002000
00000000
00003001
00000010
,
00001000
00000000
00010000
00000000
00001000
00010000
00001000
00000000
,
00010000
00100000
00010000
00001000
,
00000010
00000001
00001000
00001000
,
00000010
00000000
00000100
00000000
00001000
00010000
00001000
00010000
,
00000000
00001000
00011000
00011000
,
00020000
00000000
00130000
00000000
,
10000000
00010000
10000000
00000000
,
02000000
00000000
03010000
00000000
,
00001000
00000000
00010000
00010000
,
00000020
00000000
00001030
00000000
,
00000001
00000010
00001000
00000000
,
00020000
00000000
00031000
00000000
,
00010000
00000000
00000000
00011000
;

//--------------- dance-double - Kekkle ----------------
#NOTES:
     dance-double:
     Kekkle:
     Medium:
     12:
     0.598813,0.678315,0.294006,0.428409,0.092402,499,464,35,51,0,0,0.598813,0.678315,0.294006,0.428409,0.092402,499,464,35,51,0,0:
00000000
00000000
00000000
00000000
,
00000000
00000000
00000000
00000000
,
00000000
00000000
00000000
00000000
,
00000000
00000000
00000000
00000000
,
00000000
00000000
00000000
00000000
,
10000000
00100000
00010000
00000000
00001000
00010000
00000010
00001000
,
00000001
00000010
00001000
00000000
00010000
00001000
01000000
00100000
,
10000000
01000000
00010000
00000000
00001000
00000010
00000001
00000000
,
00001000
00000000
00001000
00000000
00000010
00010000
00011000
00000000
,
00002000
00000000
00013000
00100000
10000000
00100000
01000000
00020000
,
00000000
00000000
10030000
00000000
01000000
00000000
00010000
00000000
00001000
00000000
00010000
00000000
00000000
00010000
00000000
00000000
,
00002000
00000000
00003010
00000001
00001000
00000010
00000100
00002000
,
00000000
00000000
00013000
00000000
00000010
00000000
00010000
00000000
00001000
00000000
00011000
00000000
00000000
00011000
00000000
00000000
,
00020000
00000000
00130000
10000000
00010000
00100000
10000000
00200000
,
00000000
00000000
00310000
00000000
10000000
00000000
00100000
00000000
00010000
00000000
00001000
00000000
00000000
00001000
00000000
00000000
,
00020000
00000000
00030100
00000010
00000001
00001000
00000010
00000020
,
00000000
00000000
00000130
00000000
00001000
00000000
00010000
00000000
00011000
00000000
00000000
00011000
00000000
00000000
00011000
00000000
,
00002000
00000000
00013000
01000000
10000000
01000000
00100000
00020000
,
00000000
00000000
10030000
00000000
00100000
00000000
00010000
00000000
00001000
00000000
00000000
00001000
00000000
00000000
00001000
00000000
,
00020000
00000000
00030100
00000010
00000001
00001000
00000010
00000200
,
00000000
00001300
00010000
00100000
10000000
00010000
00010000
00000000
,
20010000
00000000
31000000
00010000
00001000
00000100
00001000
00020000
,
00000000
00030100
00000010
00000001
00002000
00000000
00003020
00000000
,
00000230
00000000
00001300
00010000
00100000
01000000
00010000
10000000
,
00000000
00000000
00010000
00000000
00000000
00010000
00000000
00000000
00100000
00000000
00000000
00100000
00000000
00000000
00001000
00000000
,
00020000
00000000
00031000
00000100
00000001
00000010
00000000
00000110
,
00000000
00000100
00010000
00001000
01000000
00100000
01000000
00000000
,
01002000
00000000
00013000
01000000
10000000
00100000
00000000
01100000
,
00000000
00000000
01000000
00000000
00001000
00000000
00010000
00000000
00000100
00000000
00000000
00000010
00000000
00000000
00000100
00000000
,
00020100
00000000
00031000
00000010
00000001
00000100
00000000
00000110
,
00000000
00000010
00010000
00001000
01000000
00100000
01000000
00000000
,
00010000
10000000
01000000
00010000
00001000
00010000
01000000
20000000
,
00000000
00000000
30010000
00000000
01000000
00000000
00001000
00000000
00011000
00000000
00000000
00011000
00000000
00000000
00011000
00000000
,
00021000
00000000
00030100
00000010
00001000
00000001
00000000
00000101
,
00000000
00000100
00000010
00001000
00010000
00001000
01000000
00000000
,
01002000
00000000
01003000
00100000
00010000
10000000
00000000
11000000
,
00000000
00000000
01000000
00000000
00100000
00000000
00010000
00000000
00001000
00000000
00000000
00100000
00000000
00000000
00001000
00000000
,
00021000
00000000
00000000
00000000
00000000
00030100
00000000
00000101
,
00000000
00000100
00000010
00001000
00010000
00001000
01000000
00000000
,
00010000
10000000
00100000
00010000
00001000
00010000
00100000
10000000
,
00000000
00000000
00010000
00000000
00000000
00010000
00000000
00000000
00100000
00000000
00000000
00100000
00000000
00000000
00001000
00000000
,
00020000
00000000
01000000
00000000
,
00001000
00000000
01000000
00000000
,
00032000
00000000
00000100
00000000
,
00010000
00000000
00000100
00000000
,
00013000
00000100
00000010
00000001
00000100
00000100
00001000
00010000
,
00001000
01000000
00100000
10000000
01000000
01000000
00010000
00001000
,
00010000
00000000
00010000
00000000
00000100
00000000
00000100
00000000
00000110
00000000
00000000
00000011
00000000
00000000
00002001
00000000
,
00000000
00003010
00000100
00001000
00010000
00001000
00011000
00000000
,
00020000
00000000
00031000
00000100
00000001
00000100
00000010
00002000
,
00000000
00000000
00003001
00000000
00000010
00000000
00001000
00000000
00010000
00000000
00001000
00000000
00000000
00001000
00000000
00000000
,
00020000
00000000
00130000
10000000
00010000
00100000
10000000
00200000
,
00000000
00000000
00310000
00000000
10000000
00000000
00100000
00000000
00010000
00000000
00001000
00000000
00000000
00001000
00000000
00000000
,
00010000
00000100
00000010
00001000
00000010
00000100
00001000
00000002
,
00000000
00000103
00000010
00000100
00001000
00010000
00100000
10000000
,
00020000
00000000
10030000
01000000
00010000
00001000
00001000
00002000
,
00000000
00000000
00013000
00000000
00000010
00000000
00001000
00000000
00001001
00000000
00000000
00001001
00000000
00000000
00001001
00000000
,
00000002
00000000
00000013
00000100
00000001
00000100
00001000
00000002
,
00000000
00000000
00000103
00000000
00001000
00000000
00010000
00000000
00001000
00000000
00000000
00001000
00000000
00000000
00001000
00000000
,
00020000
00000000
00130000
01000000
10000000
01000000
00010000
20000000
,
00000000
31000000
00010000
00001000
00100000
00002000
00000000
00000000
,
00013000
00000010
00000100
00001000
00000100
00000010
00001000
00000002
,
00000000
00000013
00001000
00010000
01000000
00010000
00001000
01000000
,
00200000
00000000
10300000
00010000
01000000
00001000
00010000
00000100
,
00000000
00000000
00000010
00000000
00000000
00000010
00000000
00000000
00000001
00000000
00000000
00000001
00000000
00000000
00001000
00000000
,
00000010
00000100
00002000
00000000
00103000
01000000
00010000
00002000
,
00000000
00013000
01000000
10000000
00010000
10000000
00100000
00000000
,
00020000
00000000
00031000
00000100
00000001
00001000
00000001
00000020
,
00000000
00001030
00010000
00000010
00010000
00001000
00001000
00000000
,
00010000
00100000
10000000
00010000
00100000
10000000
00100000
00020000
,
00000000
10030000
00100000
01000000
00001000
00010000
00001000
00002000
,
00000000
00003100
00000001
00001000
00000001
00000010
00001000
00010000
,
00000000
00000000
00011000
00000000
00000000
00011000
00000000
00000000
00011000
00000000
00000000
00011000
00000000
00000000
00011000
00000000
,
00001000
00010000
00100000
10000000
00010000
10000000
01000000
00010000
,
00001000
01000000
00100000
00020000
00000000
00000000
00030000
00000000
,
00001000
00010000
01000000
10000000
00010000
10000000
00100000
00020000
,
00000000
00000000
00000000
00000000
00030000
00000000
00000000
00000000
00011000
00000000
00001000
00000000
00000000
00001000
00000000
00000000
,
00010000
00001000
00000010
00000001
00001000
00000001
00000100
00001000
,
00010000
00000100
00000010
00002000
00000000
00000000
00003000
00000000
,
00010000
00001000
00000100
00000001
00001000
00000001
00000010
00002000
,
00000000
00000000
00000000
00000000
00000000
00013000
00011000
00000000
;

//--------------- dance-double - Kekkle ----------------
#NOTES:
     dance-double:
     Kekkle:
     Hard:
     15:
     0.782417,0.881809,0.369608,0.697215,0.655214,652,608,44,83,0,0,0.782417,0.881809,0.369608,0.697215,0.655214,652,608,44,83,0,0:
00000000
00000000
00000000
00000000
,
00000000
00000000
00000000
00000000
,
00000000
00000000
00000000
00000000
,
00000000
00000000
00000000
00000000
,
00000000
00000000
00000000
00000000
,
10000000
00000000
01000000
00000000
00010000
00000000
00001000
00010000
00001000
00000000
00000010
00000000
00000001
00001000
00000001
00001000
,
00000001
00000000
00000100
00000000
00001000
00000000
00010000
00001000
00010000
00000000
00100000
00000000
10000000
00010000
10000000
00010000
,
10000000
00000000
01000000
00000000
00010000
00000000
00001000
00000000
00010000
00001000
00010000
00001000
00010000
00001000
00010000
00001000
,
00020000
00000000
00000000
00000000
00030010
00000000
00001000
00000001
00000010
00000000
00000100
00000000
00010100
00000000
00000000
00000000
,
01002000
00000000
00000000
00000000
00013000
00000000
00100000
00010000
00100000
00000000
10000000
00100000
10000000
00000000
00020000
00000000
,
00000000
00000000
00130000
00000000
01000000
00000000
00010000
00000000
00002000
00000000
00000100
00000000
00000000
00013000
00000000
00000000
,
00010200
00000000
00000000
00000000
00000310
00000000
00000001
00001000
00000001
00000000
00000100
00000010
00000100
00000000
00002000
00000000
,
00000000
00000000
00013000
00000100
00010000
00000000
00001000
00000000
00200000
00000000
01000000
00000000
00000000
00310000
00000000
10000000
,
00200000
00000000
00000000
00000000
01300000
00001000
01000000
00001000
00010000
00000000
00001000
00010000
00000010
00000000
00002000
00000000
,
00000000
00000000
00003001
00000000
00000100
00000000
00001000
00000000
00020000
00000000
01000000
00000000
00000000
00031000
00000000
00000000
,
00201000
00000000
00000000
00000000
00310000
00000000
10000000
00100000
01000000
00000000
00001000
00000000
00001000
00000000
00002000
00000000
,
00000000
00000000
00103000
00010000
00100000
00000000
00001000
00010000
00000010
00000000
00000000
00000010
00000000
00000000
00000010
00000000
,
00002001
00000000
00000000
00000000
00003100
00000000
00000001
00000100
00000001
00000000
00000100
00001000
00000100
00000000
00020000
00000000
,
00000000
00000000
00031000
00000000
01000000
00000000
00200000
00000000
00010000
00000000
00000000
01000000
00000000
00000000
10300000
00000000
,
10020000
00000000
00000000
00000000
00130000
00000000
01000000
00100000
01000000
00000000
00100000
00001000
00100000
00000000
00002000
00000000
,
00000000
00000000
00013000
00000010
00000100
00000000
00000001
00000000
00002000
00000000
00000100
00000000
00003100
00000000
00000010
00000001
,
00002000
00000000
00000000
00000000
00003010
00000000
00000100
00001000
00000100
00000000
00001000
00010000
00001000
00000000
00200000
00000000
,
00000000
00000000
00310000
10000000
01000000
00000000
00200000
00000000
10000000
00000000
00000000
01000000
00000000
00000000
00301000
00000000
,
00201000
00000000
00000000
00000000
00301000
00000000
00010000
00000010
00010000
00000000
00000100
00001000
00000001
00000000
00001001
00000000
,
00000000
00000000
00000002
00000000
00000000
00002003
00000000
00000000
00023000
00000000
00000000
20030000
00000000
00000000
30010000
00000000
,
00110000
00000000
00000000
00000000
10000000
00100000
10000000
00100000
00010000
00000000
00001000
00000000
00000000
00000000
00021000
00000000
,
00000000
00000000
00030100
00000010
00000100
00000000
00001000
00000001
00000100
00000000
00000010
00000000
00000020
00000000
00000000
00000000
,
00001030
00000000
00000000
00000000
00000001
00000010
00000001
00000010
00001000
00000000
00010000
00000000
00000000
00000000
00012000
00000000
,
00000000
00000000
01003000
00100000
01000000
00000000
00010000
10000000
01000000
00000000
00000000
01000000
00000000
00000000
01000000
00000000
,
10010000
00000000
00000000
00000000
10000000
01000000
10000000
01000000
00010000
00000000
00001000
00000000
00000000
00000000
00021000
00000000
,
00000000
00000000
00030010
00000100
00000010
00000000
00001000
00000001
00000010
00000000
00000100
00000000
00000200
00000000
00000000
00000000
,
00001300
00000001
00001000
00000001
00000100
00000000
00000010
00001000
00000010
00000000
00001000
00000010
00010000
00000000
00012000
00000000
,
00000000
00103000
00010000
00100000
01000000
00000000
10000000
00010000
01000000
00000000
00000000
01100000
00000000
00000000
01001000
00000000
,
00011000
00000000
00000000
00000000
00010000
00001000
00010000
00001000
00000100
00000000
00000001
00000000
00000000
00000000
00002001
00000000
,
00000000
00000000
00003010
00000100
00000001
00000000
00001000
00000010
00010000
00000000
00000010
00000000
00000020
00000000
00000000
00000000
,
00010030
00000000
00000000
00000000
00001000
00010000
00001000
00010000
01000000
00000000
10000000
00000000
00000000
00000000
10020000
00000000
,
00000000
00000000
00130000
01000000
10000000
00000000
00010000
01000000
00001000
00000000
00000000
00001000
00000000
00000000
00001000
00000000
,
00020000
00000000
00000000
00000000
00000000
00030010
00000000
00002001
,
00000000
00000000
00003010
00000100
00000001
00000000
00001000
00000100
00010000
00000000
00000100
00000000
00000200
00000000
00000000
00000000
,
00010300
00001000
00010000
00001000
01000000
00000000
00010000
10000000
00010000
00000000
00100000
01000000
10000000
00000000
10010000
00000000
,
00000000
00000000
20000000
00000000
00000000
30020000
00000000
00000000
00032000
00000000
00000000
00003002
00000000
00000000
00001003
00000000
,
00001200
00000000
00000010
00000000
,
00001000
00000000
00000000
00000000
00000000
00000000
00000000
00000000
00010300
00000000
00000000
00001000
00000000
00000000
00001000
00000000
,
02000000
00000000
00100000
00000000
,
00010000
00000000
00000000
00000000
00000000
00000000
00000000
00000000
03001000
00000000
00000000
00010000
00000000
00000000
00010000
00000000
,
00001000
00000000
00000010
00000000
00000001
00000000
00001000
00000010
00001000
00000000
00000010
00000000
00000100
00001000
00000100
00001000
,
00010000
00000000
00100000
00000000
10000000
00000000
00010000
00100000
00010000
00000000
10000000
00000000
01000000
00010000
01000000
00010000
,
00001000
00000000
00000010
00000000
00000001
00000000
00001000
00000000
00001010
00000000
00000000
00010010
00000000
00000000
00012000
00000000
,
00000000
00000000
00103000
00010000
10000000
00000000
00010000
01000000
00100000
00000000
01000000
00000000
01100000
00000000
00000000
00000000
,
20010000
00000000
00000000
00000000
31000000
00000000
00010000
01000000
00010000
00000000
00001000
00010000
00001000
00000000
00000200
00000000
,
00000000
00000000
00000301
00001000
00000100
00000000
00010000
00000000
00002000
00000000
00000010
00000000
00000000
00013000
00000000
00000000
,
00012000
00000000
00000000
00000000
01003000
00000000
10000000
01000000
10000000
00000000
01000000
00010000
01000000
00000000
00020000
00000000
,
00000000
00000000
10030000
01000000
00100000
00000000
00001000
00000000
00020000
00000000
00100000
00000000
00000000
00031000
00000000
00000000
,
00011000
00000000
00010000
00000010
00010000
00000000
00001000
00000000
00001000
00100000
00001000
00000000
00100000
00000000
02100000
00000000
,
00000000
00000000
13000000
00010000
01000000
00100000
00010000
00000000
00002000
00000000
00100000
00000000
00000000
00013000
00000100
00000010
,
00000200
00000000
00001300
00000001
00000100
00000010
00000010
00000020
,
00000000
00000000
00001030
00000001
00001000
00000100
00010000
00000000
00011000
00000000
00000000
01001000
00000000
00000000
01100000
00000000
,
20010000
00000000
00000000
00000000
31000000
00000000
00010000
01000000
00100000
00000000
00001000
00100000
00010000
00000000
20000000
00000000
,
00000000
00000000
30010000
01000000
00001000
00000000
00020000
00000000
00100000
00000000
00000000
00001000
00000000
00000000
00030100
00000000
,
00000120
00000000
00000000
00000000
00000031
00000000
00001000
00000010
00000100
00000000
00001000
00010000
00100000
00000000
00020000
00000000
,
00000000
00000000
00031000
00100000
00010000
00000000
00100000
00000000
00020000
00000000
10000000
00000000
10030000
00000000
00000000
00010000
,
00100000
00000000
00001000
00100000
00001000
00000000
00010000
00000000
00010000
00000010
00010000
00000000
00000010
00001000
00000002
00000000
,
00000000
00000000
00000013
00001000
00010000
00000010
00001000
00000010
00010000
00000000
00000000
00010010
00000000
00000000
00011000
00000000
,
02001000
00000000
00000000
00000000
03010000
00000000
10000000
01000000
00100000
00000000
01000000
10000000
00010000
00000000
10010000
00000000
,
00000000
00000000
20000000
00000000
00000000
30020000
00000000
00000000
00032000
00000000
00000000
00003002
00000000
00000000
00001003
00000000
,
00001100
00000000
00000100
00000010
00000001
00000000
00001000
00000000
00000010
00000000
00000100
00001000
00010000
00000000
00002000
00000000
,
00000000
00000000
00103000
00010000
20000000
00000000
01000000
00000000
30010000
00000000
00100000
00010000
10000000
00010000
01000000
00000000
,
20010000
00000000
00000000
00000000
31000000
00000000
00010000
00001000
00100000
00000000
00001000
00000000
00010000
00000000
00000020
00000000
,
00000000
00000000
00001030
00000001
00000010
00000000
00000100
00000000
00020000
00000000
00001000
00000000
00031000
00000000
00000000
00000000
,
01000000
00000000
00010000
00000000
10000000
00000000
01000000
00100000
00010000
00000000
00100000
00001000
00010000
00000000
00002000
00000000
,
00000000
00000000
00003100
00000010
00010000
00000000
00000010
00000000
00002000
00000000
00000100
00000000
00003001
00000100
00000010
00010000
,
00000010
00000000
00010000
00001000
00100000
00010000
00100000
01000000
00100000
00000000
00010000
10000000
00100000
00000000
10100000
00000000
,
00000000
00000000
20000000
00000000
00000000
30020000
00000000
00000000
00032000
00000000
00000000
00003002
00000000
00000000
00001003
00000000
,
00001100
00000000
00000100
00000000
00000010
00000000
00000001
00001000
00000001
00000000
00000100
00000010
00000100
00000000
00001000
00000000
,
00010000
00000000
00001000
00010000
00001000
00000000
00002000
00000000
00000000
00000000
00000000
00000000
00003000
00000000
00000000
00000000
,
01000000
00000000
00010000
00000000
10000000
00000000
01000000
00100000
01000000
00000000
00010000
00001000
00010000
00000000
00020000
00000000
,
00000000
00000000
00000000
00000000
00000010
00000000
00000000
00000000
00030020
00000000
00001000
00000000
00000000
00000130
00000000
00000000
,
00000001
00000000
00001000
00000000
00000100
00000000
00000010
00000100
00000010
00000000
00000001
00001000
00000001
00000000
00000100
00000000
,
00001000
00000000
00010000
00001000
00010000
00000000
00020000
00000000
00000000
00000000
00000000
00000000
00030000
00000000
00000000
00000000
,
00001000
00000000
00100000
00000000
00010000
00000000
10000000
00010000
10000000
00000000
01000000
00100000
01000000
00000000
02000000
00000000
,
00000000
00000000
00000000
00000000
00000000
03010000
00011000
00000000
;
