#VERSION:0.83;
#TITLE:We need love;
#SUBTITLE:;
#ARTIST:TOMOSUKE feat. Shiho Rainbow;
#TITLETRANSLIT:;
#SUBTITLETRANSLIT:;
#ARTISTTRANSLIT:;
#GENRE:;
#CREDIT:;
#MUSIC:we need love.ogg;
#BANNER:we need love-bn.png;
#BACKGROUND:b4u-bg.png;
#CDTITLE:;
#SAMPLESTART:70.997;
#SAMPLELENGTH:19.200;
#SELECTABLE:YES;
#OFFSET:-0.240;
#BPMS:0.000=125.000;
#STOPS:;
#JACKET:;
#DISCIMAGE:;
#CDIMAGE:;
#BGCHANGES:;
#FGCHANGES:;

//--------------- dance-single - kaya ----------------
#NOTEDATA:;
#STEPSTYPE:dance-single;
#DESCRIPTION:kaya;
#DIFFICULTY:Beginner;
#METER:3;
#RADARVALUES:0,0,0,0,0;
#CHARTNAME:;
#CHARTSTYLE:;
#CREDIT:kaya;
#METERF:3;
#NOTES:
0000
0000
0000
0000
,
0000
0000
0000
0000
,
0000
0000
0000
0000
,
0000
0000
0000
0000
,
0000
0000
0000
0000
,
2000
0000
3000
0000
,
1000
1000
1000
0000
,
0002
0000
0003
0000
,
0001
0001
0001
0000
,
0200
0000
0300
0000
,
0020
0000
0030
0000
,
0200
0000
0300
0000
,
0020
0000
0030
0000
,
1001
0000
2000
3000
,
1000
1000
0100
0000
,
0000
0000
0002
0003
,
0001
0001
0100
0000
,
0000
0000
2000
3000
,
1000
1000
0100
0000
,
0002
0000
0003
0000
,
2000
0000
3000
0000
,
0001
0100
0001
0000
,
0001
0100
0001
0000
,
1000
0100
1000
0000
,
1000
0100
1000
0000
,
0001
0010
0001
0000
,
0001
0010
0001
0000
,
1000
0010
1000
0000
,
1000
0010
1000
0000
,
1001
0000
0000
0000
,
1000
1000
0100
0000
,
0001
0001
0100
0000
,
1000
1000
0100
0000
,
2000
3000
0002
0003
,
2000
3000
0002
0003
,
1001
0000
0000
0000
,
0110
0000
0000
0000
,
1000
0100
1000
0000
,
1000
0100
1000
0000
,
0001
0100
0001
0000
,
0001
0100
0001
0000
,
1000
0010
1000
0000
,
1000
0010
1000
0000
,
0001
0010
0001
0000
,
0220
0000
0330
0000
,
1000
1000
0100
0000
,
0001
0001
0100
0000
,
1000
1000
0010
0000
,
0001
0001
0010
0000
,
1000
0010
1000
0000
,
0001
0010
0001
0000
,
1000
0100
1000
0000
,
0001
0100
0002
0000
,
0003
0000
0000
0000
;

//--------------- dance-single - kaya ----------------
#NOTEDATA:;
#STEPSTYPE:dance-single;
#DESCRIPTION:kaya;
#DIFFICULTY:Easy;
#METER:6;
#RADARVALUES:0,0,0,0,0;
#CHARTNAME:;
#CHARTSTYLE:;
#CREDIT:kaya;
#METERF:6;
#NOTES:
0000
0000
0000
0000
,
0000
0000
0000
0000
,
0000
0000
0000
0000
,
0000
0000
0000
0000
,
0000
0000
0000
0000
,
2000
0000
0000
3000
,
1000
1000
1000
0000
,
0002
0000
0000
0003
,
0001
0001
0001
0000
,
1000
0100
0001
0100
,
1000
0100
0001
0100
,
1000
0010
0001
0010
,
1000
0010
0001
0010
,
1001
0000
2000
3000
,
0200
0300
0002
0003
,
1001
0000
2000
3000
,
0020
0030
0002
0003
,
1001
0000
0002
0003
,
0200
0300
2000
3000
,
1001
0000
0002
0003
,
0020
0030
2000
3000
,
1001
1000
0100
0100
,
0001
0100
1000
0000
,
1001
0001
0100
0100
,
1000
0100
0001
0000
,
1001
1000
0010
0010
,
0001
0010
1000
0000
,
1001
0001
0010
0010
,
1000
0010
0001
0000
,
1000
0010
0001
0010
,
1000
0100
0001
0100
,
1000
0010
1000
0100
,
0001
0010
0001
0100
,
1000
1000
0001
0001
,
1000
0001
1000
0000
,
0001
0001
1000
1000
,
0001
1000
0001
1000
,
0002
0100
0100
0103
,
1000
0100
0001
0010
,
2000
0100
0100
3100
,
0001
0100
1000
0010
,
0001
0001
0002
0003
,
1000
1000
2000
3000
,
0220
0000
0330
0000
,
0010
0010
0010
0000
0100
0000
0100
0000
,
0002
0100
0100
0103
,
1000
0010
0001
0100
,
2000
0100
0100
3100
,
0001
0100
1000
0010
,
0001
0100
1000
0100
,
0001
0010
1000
0010
,
0001
0001
0002
0000
,
0013
0000
0000
0100
0000
0000
1000
0000
0000
0000
0000
0000
0000
0000
0000
0000
;

//--------------- dance-single - kaya ----------------
#NOTEDATA:;
#STEPSTYPE:dance-single;
#DESCRIPTION:kaya;
#DIFFICULTY:Medium;
#METER:10;
#RADARVALUES:0,0,0,0,0;
#CHARTNAME:;
#CHARTSTYLE:;
#CREDIT:kaya;
#METERF:10;
#NOTES:
0000
0000
0000
0000
,
0000
0000
0000
0000
,
0000
0000
0000
0000
,
0000
0000
0000
0000
,
0000
0000
0000
0000
,
0110
2000
3100
0000
,
0010
0000
0001
0000
1000
0001
1000
0000
,
0110
0002
0103
0000
,
0010
0000
1000
0000
0001
1000
0001
0000
,
0002
0103
2000
3100
,
0002
0103
2000
3100
,
0002
0013
2000
3010
,
0002
0000
0013
0000
2000
0000
3010
0001
,
0001
0000
0000
0000
0001
0010
0001
0000
,
1000
0000
0001
0000
1000
0100
1000
0000
,
0010
0000
0100
0000
0001
1000
0100
0000
,
0020
0000
0130
0000
1000
0001
0100
0000
,
0000
0000
0001
0000
1000
0100
0010
0000
,
0100
0000
1000
0000
0001
0100
0010
0000
,
2002
0000
0000
3003
0000
0001
1000
0000
,
0220
0000
0000
0000
0330
1000
0001
0000
,
0001
0010
0100
0000
0100
0010
0100
0000
,
2000
3001
1000
1000
,
1000
0010
0100
0000
0100
0010
0100
0000
,
0002
1003
0001
0001
,
0010
0001
1000
0000
1000
0100
0010
0000
,
0200
1300
0010
0010
,
0100
0001
1000
0000
0001
0010
0100
0000
,
0020
0031
0100
0100
,
2002
0000
3003
0000
0001
1000
0100
0000
,
0001
0000
0001
0000
0100
1000
0001
0000
,
1000
0000
0010
0000
0100
0001
1000
0000
,
0100
0000
0100
0000
0001
0100
1000
0000
,
1000
0200
0001
0000
0310
0000
0010
0000
,
0001
0200
1000
0000
0010
0000
0310
0000
,
0110
0000
0110
0000
0110
0000
0000
2002
,
3003
0000
0001
1000
0001
1000
0001
1000
,
0002
0103
2000
3100
,
0002
0103
2000
3100
,
0002
0013
2000
3010
,
0001
1000
0001
1000
0001
0000
1001
0000
,
0001
0000
0100
0000
0010
1000
0001
0000
,
1000
0000
0100
0000
0010
0001
1000
0000
,
0012
0103
2100
3010
,
0100
0100
0100
0200
0000
0301
1000
0000
,
0001
0010
0200
0000
1300
0010
0200
0000
,
0301
0001
0001
0000
1000
0000
0001
0000
,
1000
0100
0020
0000
0031
0100
0020
0030
,
0110
0110
0110
0110
,
1000
0000
0001
0000
1000
0100
0001
0000
,
0100
0000
0010
0000
0001
1000
0001
0000
,
1000
0000
0000
0010
0000
0000
0202
0000
0303
0000
0001
0000
1000
0000
0000
0000
,
0001
0000
0000
0010
0000
0000
2200
0000
0000
0000
0000
0000
3300
0000
0000
0000
;

//--------------- dance-single - kaya ----------------
#NOTEDATA:;
#STEPSTYPE:dance-single;
#DESCRIPTION:kaya;
#DIFFICULTY:Hard;
#METER:14;
#RADARVALUES:0,0,0,0,0;
#CHARTNAME:;
#CHARTSTYLE:;
#CREDIT:kaya;
#METERF:15;
#NOTES:
0000
0000
0000
0000
,
0000
0000
0000
0000
,
0000
0000
0000
0000
,
0000
0000
0000
0000
,
0000
0000
0000
0000
,
1001
0000
0000
0000
1000
0002
0000
0013
0000
0000
0010
0000
0100
0000
0000
0000
,
1000
0010
0000
0000
1000
0010
0000
1010
0000
0000
0202
0000
0303
0000
0001
0000
,
0001
0000
0000
0000
1000
0002
0000
0013
0000
0000
0010
0000
0100
0000
0000
0000
,
0001
0010
0000
0000
0001
0010
0000
0011
0000
0000
2200
0000
3300
0000
0000
0000
,
1000
0000
0001
0000
0010
0000
0010
0100
0000
0100
1000
0000
1001
0000
0000
0000
,
0001
0000
1000
0000
0010
0000
0010
0100
0000
0100
0001
0000
1001
0000
0000
0000
,
1000
0000
0001
0000
0100
0000
0100
0010
0000
0010
1000
0000
1001
0000
0000
0000
,
0001
0000
1000
0000
0100
0000
0100
0010
0000
0010
0001
0000
1000
0001
1000
0000
,
2002
0000
3003
0000
0001
0010
0000
0110
0000
0000
0010
0000
0100
1000
0000
0001
,
0000
0000
0000
0000
0001
0010
0000
2000
0000
3020
0000
0230
0000
1300
0000
0000
,
0000
0000
0000
0000
1000
0010
0000
0110
0000
0000
0010
0000
0100
0001
0000
0000
,
2002
0000
3003
0000
1000
0000
0010
0002
0000
0023
0000
0230
0000
0301
0000
0000
,
0000
0000
0000
0000
0001
0100
0000
0110
0000
0000
0100
0000
0010
1000
0000
0001
,
0000
0000
0000
0000
0001
0100
0000
2000
0000
3200
0000
0320
0000
1030
0000
0000
,
2001
0000
0000
0000
3100
0000
0010
0100
0000
0000
0001
0000
0100
0010
0000
0000
,
0002
0000
0000
0000
0103
0000
0000
0010
0100
0000
0000
1000
0100
0001
0000
0000
,
0002
0000
0000
0000
0000
0000
0000
0000
0000
0000
0000
0000
0000
0000
0000
0000
0000
0000
0000
0000
0000
0000
0000
0000
0010
0000
0000
0000
0000
0000
0000
0000
0000
0000
0000
0000
0000
0000
0000
0000
0000
0000
0000
0000
0000
0000
0000
0000
0010
0000
0000
0000
0000
0000
0000
0000
0000
0000
0000
0003
0002
0000
0000
0000
0000
0000
0000
0000
0000
0000
0000
0000
0000
0000
0000
0000
0000
0000
0000
0000
0000
0000
0000
0000
1000
0000
0000
0000
0000
0000
0000
0000
0000
0000
0000
0000
0000
0000
0000
0000
0000
0000
0000
0000
0000
0000
0000
0000
1000
0000
0000
0000
0000
0000
0000
0000
0000
0000
0000
0000
0000
0000
0000
0000
0000
0000
0000
0000
0000
0000
0000
0000
0100
0000
0000
0000
0000
0000
0000
0000
0000
0000
0000
0000
0000
0000
0000
0000
0000
0000
0000
0000
0000
0000
0000
0000
0100
0000
0000
0000
0000
0000
0000
0000
0000
0000
0000
0000
0000
0000
0000
0000
0000
0000
0000
0000
0000
0000
0000
0000
0000
0000
0000
0000
0000
0000
0000
0000
0000
0000
0000
0000
,
0013
0100
0000
0001
0000
0100
0000
0010
0000
0001
0000
1000
0001
0100
0010
0100
,
0000
0000
0000
0000
0000
0000
0000
0000
0000
0000
0000
0000
0010
0000
0000
0000
0000
0000
0000
0000
0000
0000
0000
0000
2000
0000
0000
0000
0000
0000
0000
0000
0000
0000
0000
0000
0000
0000
0000
0000
0000
0000
0000
0000
0000
0000
0000
3000
2000
0000
0000
0000
0000
0000
0000
0000
0000
0000
0000
0000
0001
0000
0000
0000
0000
0000
0000
0000
0000
0000
0000
0000
0000
0000
0000
0000
0000
0000
0000
0000
0000
0000
0000
0000
0001
0000
0000
0000
0000
0000
0000
0000
0000
0000
0000
0000
0000
0000
0000
0000
0000
0000
0000
0000
0000
0000
0000
0000
0100
0000
0000
0000
0000
0000
0000
0000
0000
0000
0000
0000
0000
0000
0000
0000
0000
0000
0000
0000
0000
0000
0000
0000
0100
0000
0000
0000
0000
0000
0000
0000
0000
0000
0000
0000
0000
0000
0000
0000
0000
0000
0000
0000
0000
0000
0000
0000
0000
0000
0000
0000
0000
0000
0000
0000
0000
0000
0000
0000
0000
0000
0000
0000
0000
0000
0000
0000
0000
0000
0000
0000
0000
0000
0000
0000
0000
0000
0000
0000
0000
0000
0000
0000
,
3010
0100
0000
0001
0000
1000
0000
0100
0000
0000
1100
0000
0000
0011
0000
0000
,
0002
0000
0000
0000
0000
0000
0000
0000
0000
0000
0000
0000
0000
0000
0000
0000
0000
0000
0000
0000
0000
0000
0000
0000
0100
0000
0000
0000
0000
0000
0000
0000
0000
0000
0000
0000
0000
0000
0000
0000
0000
0000
0000
0000
0000
0000
0000
0000
0100
0000
0000
0000
0000
0000
0000
0000
0000
0000
0000
0003
0002
0000
0000
0000
0000
0000
0000
0000
0000
0000
0000
0000
0000
0000
0000
0000
0000
0000
0000
0000
0000
0000
0000
0000
1000
0000
0000
0000
0000
0000
0000
0000
0000
0000
0000
0000
0000
0000
0000
0000
0000
0000
0000
0000
0000
0000
0000
0000
1000
0000
0000
0000
0000
0000
0000
0000
0000
0000
0000
0000
0000
0000
0000
0000
0000
0000
0000
0000
0000
0000
0000
0000
0010
0000
0000
0000
0000
0000
0000
0000
0000
0000
0000
0000
0000
0000
0000
0000
0000
0000
0000
0000
0000
0000
0000
0000
0010
0000
0000
0000
0000
0000
0000
0000
0000
0000
0000
0000
0000
0000
0000
0000
0000
0000
0000
0000
0000
0000
0000
0000
0000
0000
0000
0000
0000
0000
0000
0000
0000
0000
0000
0000
,
0103
0010
0000
0001
0000
0010
0000
0100
0000
0001
0000
1000
0001
0010
0100
0010
,
0000
0000
0000
0000
0000
0000
0000
0000
0000
0000
0000
0000
0100
0000
0000
0000
0000
0000
0000
0000
0000
0000
0000
0000
2000
0000
0000
0000
0000
0000
0000
0000
0000
0000
0000
0000
0000
0000
0000
0000
0000
0000
0000
0000
0000
0000
0000
3000
2000
0000
0000
0000
0000
0000
0000
0000
0000
0000
0000
0000
0001
0000
0000
0000
0000
0000
0000
0000
0000
0000
0000
0000
0000
0000
0000
0000
0000
0000
0000
0000
0000
0000
0000
0000
0001
0000
0000
0000
0000
0000
0000
0000
0000
0000
0000
0000
0000
0000
0000
0000
0000
0000
0000
0000
0000
0000
0000
0000
0010
0000
0000
0000
0000
0000
0000
0000
0000
0000
0000
0000
0000
0000
0000
0000
0000
0000
0000
0000
0000
0000
0000
0000
0010
0000
0000
0000
0000
0000
0000
0000
0000
0000
0000
0000
0000
0000
0000
0000
0000
0000
0000
0000
0000
0000
0000
0000
0000
0000
0000
0000
0000
0000
0000
0000
0000
0000
0000
0000
0000
0000
0000
0000
0000
0000
0000
0000
0000
0000
0000
0000
0000
0000
0000
0000
0000
0000
0000
0000
0000
0000
0000
0000
,
3100
0010
0000
0001
0000
1000
0000
0010
0000
0000
1010
0000
0000
0101
0000
0000
,
0001
0000
1000
0001
0000
1000
0000
0020
0000
1000
0000
0230
0000
0301
0000
0000
,
0001
0000
1000
0010
0000
0100
0001
0010
0100
1000
0000
0001
0000
1001
0000
0000
,
0001
0000
1000
0100
0000
0010
0001
0010
0001
1000
0000
1000
0000
0010
1000
0010
,
1000
0001
0000
0001
0000
0010
0100
1000
0010
0100
0000
0220
0000
0330
0000
0000
,
0001
0010
0000
0200
0000
1300
0010
0000
0200
0000
0301
0010
0000
0200
0000
1300
,
0010
0000
0200
0000
0310
0100
0001
0010
0100
1000
0000
0010
0000
0110
0000
0000
,
1001
0000
0000
0000
1001
0000
0000
0001
0000
0010
0100
0000
1000
0000
0220
0330
,
0000
0001
1000
0000
0100
0010
0100
0010
0001
1000
0001
1000
0010
0100
0010
0100
,
0001
0000
1000
0001
0100
0000
1002
0000
0000
0013
0100
0000
1000
0000
0001
0010
,
0100
0000
0100
0010
0001
1000
0000
0010
0000
0010
0100
0000
0001
0000
0100
0001
,
1000
0000
0001
1000
0100
0000
2001
0000
0000
3010
0100
0000
0001
0000
1000
0000
,
0100
1000
0010
0000
0100
0001
0010
0000
0100
1000
0010
0000
0100
0001
0010
0000
,
0001
0000
0010
0100
1000
0000
1020
0000
0000
0000
0130
0000
0001
0000
1000
0000
,
0000
0000
1000
0010
0100
0001
0000
0021
0000
0000
0130
0000
1000
0000
0001
0000
,
0010
0000
0100
0010
0000
0100
0002
0000
0000
0000
0103
0000
0010
0000
0001
0000
,
1000
0010
1000
0010
0100
0001
0100
0001
0000
0000
0110
0000
1001
0000
1000
0001
,
0010
0000
0000
0000
0001
0000
1000
0000
0010
0000
0000
0000
2002
0000
0000
3003
0000
0000
1000
0000
0100
0000
0010
0000
0001
0000
0000
0000
1000
0000
0001
0000
,
0100
0010
0100
0010
1000
0000
0001
1000
0000
0100
0010
0000
0110
0000
0001
1000
,
0100
0000
0000
0000
1000
0000
0001
0000
0100
0000
0000
0000
2002
0000
0000
3003
0000
0000
0001
0000
0100
0000
0010
0000
1000
0000
0000
0000
0001
0000
0000
0000
,
0010
0100
1000
0000
0010
0100
0001
0000
0010
0100
1000
0000
0010
0100
0001
0000
,
0001
0000
0100
0010
1000
0000
2100
0000
0000
0000
3010
0000
0100
0000
0001
0000
,
0000
0000
1000
0100
0010
0001
0000
0102
0000
0000
0013
0000
0100
0000
1000
0000
,
0010
0000
0100
0010
0000
0100
2000
0000
0000
0000
3100
0000
0010
0000
1000
0000
,
0001
1000
0100
0001
0100
0010
0002
0000
0000
0000
0000
0000
0000
0000
0000
0000
,
0003
0000
0000
0000
;

//--------------- dance-double - kaya ----------------
#NOTEDATA:;
#STEPSTYPE:dance-double;
#DESCRIPTION:kaya;
#DIFFICULTY:Easy;
#METER:5;
#RADARVALUES:0,0,0,0,0;
#CHARTNAME:;
#CHARTSTYLE:;
#CREDIT:kaya;
#METERF:5;
#NOTES:
00000000
00000000
00000000
00000000
,
00000000
00000000
00000000
00000000
,
00000000
00000000
00000000
00000000
,
00000000
00000000
00000000
00000000
,
00000000
00000000
00000000
00000000
,
00010000
00000000
00000000
00000000
,
01000000
01000000
01000000
00000000
,
00001000
00000000
00000000
00000000
,
00000100
00000100
00000100
00000000
,
00000002
00000000
00000003
00000000
,
00002000
00000000
00003000
00000000
,
00020000
00000000
00030000
00000000
,
20000000
00000000
30000000
00000000
,
10010000
00000000
10000000
10000000
,
00100000
00000000
00010000
00001000
,
00000010
00000000
00000001
00000001
,
00000010
00000000
00001000
00010000
,
00100000
00000000
00100000
00000000
,
10000000
00000000
01000000
00000000
,
00100000
00100000
00100000
00000000
,
00001000
00001000
00001000
00000000
,
00010000
00001000
00000100
00000000
,
00001000
00000100
00000001
00000000
,
00000001
00000010
00001000
00000000
,
00000010
00001000
00010000
00000000
,
00001000
00010000
00100000
00000000
,
00010000
00100000
10000000
00000000
,
10000000
01000000
00100000
00000000
,
01000000
00100000
00001000
00000000
,
00010000
00010000
00001000
00001000
,
00000010
00000000
00000000
00000000
,
00000001
00000001
00000100
00000100
,
00001000
00000000
00000000
00000000
,
00001000
00001000
00010000
00010000
,
00100000
00000000
00000000
00000000
,
10000000
00000000
10000000
00000000
01000000
00000000
00000000
00200000
,
00000000
00310000
00010000
00010000
,
10000000
00100000
00010000
00001000
,
00000010
00000001
00000100
00000000
,
00000001
00000010
00001000
00010000
,
00100000
10000000
01000000
01000000
,
10000000
01000000
00010000
00000000
,
00001000
00000100
00000001
00000000
,
00000001
00000010
00001000
00000000
,
00010000
00100000
10000000
00000000
,
10000000
00100000
00010000
00001000
,
00000010
00000001
00000100
00001000
,
00010000
01000000
10000000
00100000
,
00010000
00001000
00010000
00001000
,
00000100
00000001
00000010
00000000
,
00000100
00010000
00001000
00000000
,
00010000
00001000
01000000
00100000
,
10010000
00000000
00000000
10010000
00000000
00000000
00000000
00000000
;

//--------------- dance-double - kaya ----------------
#NOTEDATA:;
#STEPSTYPE:dance-double;
#DESCRIPTION:kaya;
#DIFFICULTY:Medium;
#METER:10;
#RADARVALUES:0,0,0,0,0;
#CHARTNAME:;
#CHARTSTYLE:;
#CREDIT:kaya;
#METERF:10;
#NOTES:
00000000
00000000
00000000
00000000
,
00000000
00000000
00000000
00000000
,
00000000
00000000
00000000
00000000
,
00000000
00000000
00000000
00000000
,
00000000
00000000
00000000
00000000
,
00010000
00001000
00000100
00000000
,
00000001
00000010
00000010
00000000
,
00001000
00010000
01000000
00000000
,
10000000
10000000
00100000
00000000
,
00010000
00001000
00020000
01000000
,
00031000
00010000
00002000
00000100
,
00013000
00001000
00020000
00100000
,
00031000
00010000
00002000
00003010
,
00011000
00000000
00010000
00100000
,
10000000
00000000
01000000
00000000
00100000
01000000
00100000
00000000
,
00011000
00000000
00001000
00000010
,
00000001
00000000
00000100
00000000
00000010
00000100
00000010
00000000
,
00011000
00000000
00010000
01000000
,
10000000
00000000
00100000
00000000
00010000
00001000
00010000
00000000
,
00012000
00000100
00013000
00001000
,
00021000
01000000
00031000
00010000
,
00001000
00000010
00001000
00000000
00000010
00000001
00000010
00000000
,
00000001
00000100
00001000
00010000
,
00010000
00100000
00010000
00000000
00100000
10000000
00100000
00000000
,
10000000
01000000
00010000
00001000
,
00001000
00000100
00001000
00000000
00000100
00000001
00000100
00000000
,
00000001
00000010
00001000
00010000
,
00010000
01000000
00010000
00000000
01000000
10000000
01000000
00000000
,
10000000
00100000
00010000
00001000
,
00012000
00003010
00021000
00130000
,
00010000
00001000
00010000
00000000
01000000
00100000
00001000
00000000
,
00012000
00003100
00021000
01030000
,
00012000
00000000
00003010
00000000
00000010
00001000
00010000
00000000
,
00010000
01000000
00010000
00000000
00001000
00000100
00001000
00000000
,
00010000
01000000
00010000
00000000
01100000
00000000
10010000
00000000
,
20000000
30000000
20000000
30000000
00100000
01000000
00001000
00010000
,
00000000
00000000
00000100
00000000
00000010
00000000
00000001
00001000
,
00000001
00000101
00001000
00001100
,
00000001
00000100
00001000
00000000
00010000
00000000
01000000
00000000
,
10000000
11000000
00010000
01010000
,
02000000
03000000
00020000
00030000
00002000
00003000
00000020
00000030
,
00001000
00001100
00000001
00000011
,
00000001
00000010
00000100
00000000
00020000
00000000
00031000
00100000
,
00010000
01010000
10000000
10100000
,
00100000
00010000
00001000
00000020
00000030
00000000
00001001
00000000
,
00000001
00001010
00001000
00000011
,
00000001
00000010
00001000
00000000
00010000
00000000
00100000
00000000
,
10000000
10100000
00010000
00110000
,
00200000
00320000
00032000
00003020
,
00001030
00001010
00000001
00000101
,
00000001
00000010
00000100
00000000
00010000
00000000
00001000
00000000
,
00100000
00010000
10000000
00200000
00000000
01300000
00001000
00010000
,
00000100
00001000
00000001
00000200
00000000
00000000
00000300
00000000
;

//--------------- dance-double - kaya ----------------
#NOTEDATA:;
#STEPSTYPE:dance-double;
#DESCRIPTION:kaya;
#DIFFICULTY:Hard;
#METER:14;
#RADARVALUES:0,0,0,0,0;
#CHARTNAME:;
#CHARTSTYLE:;
#CREDIT:kaya;
#METERF:15;
#NOTES:
00000000
00000000
00000000
00000000
,
00000000
00000000
00000000
00000000
,
00000000
00000000
00000000
00000000
,
00000000
00000000
00000000
00000000
,
00000000
00000000
00000000
00000000
,
00011000
00000000
00000000
00000000
00001000
00010000
00000000
02000000
03000000
00000000
01000000
00000000
10000000
00000000
00000000
00000000
,
10000000
00100000
00000000
00000000
10000000
00100000
00000000
00010000
00000000
00020000
00002000
00000000
00000000
00000000
00033000
00000000
,
00011000
00000000
00000000
00000000
00010000
00001000
00000000
00000200
00000300
00000000
00000100
00000000
00000001
00000000
00000000
00000000
,
00000001
00000010
00000000
00000000
00000001
00000010
00000000
00001000
00000000
00001000
00010000
00000000
00001000
00010000
00001000
00000000
,
00100000
00001000
00010000
00000010
00001000
00000001
00001000
00000010
,
00010000
00001000
00100000
00010000
10000000
00100000
10000000
00010000
,
00100000
00001000
00010000
00000010
00001000
00000001
00001000
00000010
,
00010000
00000000
00001000
00000000
00100000
00000000
00010000
00000000
10000000
00010000
10000000
00000000
01000000
00100000
01000000
00000000
,
01100000
00000000
00000000
00000000
01000000
00010000
00000000
00010000
00000000
00000000
01000000
00000000
00100000
00010000
00000000
00010000
,
00000000
00000000
00000000
00000000
10000000
00100000
00000000
00020000
00000000
00032000
00000000
00003200
00000000
00000302
00000000
00000003
,
00000000
00000000
00000000
00000000
00000100
00001000
00000000
00001000
00000000
00000000
00000100
00000000
00000010
00001000
00000000
00000000
,
00002002
00000000
00003003
00000000
00000001
00000000
00000100
00002000
00000000
00023000
00000000
02030000
00000000
23000000
00000000
30000000
,
00000000
00000000
00000000
00000000
10000000
01000000
00000000
01000000
00000000
00000000
00010000
00000000
00001000
00010000
00000000
00010000
,
00000000
00000000
00000000
00000000
00000100
00000010
00000000
00000002
00000000
00002003
00000000
00003002
00000000
00000003
00000000
00000000
,
00001001
00000000
00000000
00000000
00000001
00000000
00000100
00002000
00000000
00003000
00010000
00000000
00001000
00000100
00000000
00000000
,
00000220
00000000
00000330
00000000
00000100
00000000
00000010
00001000
00000010
00000000
00000000
00010000
00001000
00010000
00000000
00000000
,
01000000
00000000
10000000
00000000
01000000
00200000
00000000
00320000
00000000
00032000
00000000
00003200
00000000
00000310
00000000
00000000
,
00000001
00000200
00000000
00000320
00000000
00002030
00000000
00023000
00000000
02030000
00000000
03100000
00000000
00000000
10000000
00010000
,
00000000
10000000
00010000
00000000
00100000
00010000
00000000
00001000
00000000
00000100
00000000
00010000
00000000
00000000
00000000
00000000
,
00000010
00001000
00000000
00010000
00000000
01000000
00000000
00002000
00000000
00003000
00010000
00000000
01000000
00000000
10000000
00000000
,
00100000
00000000
10000000
00000000
00100000
02000000
00000000
03020000
00000000
00032000
00000000
00003020
00000000
00000130
00000000
00000000
,
00000001
00000020
00000000
00000230
00000000
00002300
00000000
00023000
00000000
00230000
00000000
01300000
00000000
00000000
10000000
00010000
,
00000000
10000000
00010000
00000000
01000000
00100000
00000000
00010000
00000000
00001000
00000000
00010000
00000000
00000000
00000000
00000000
,
00000100
00000010
00000000
00001000
00000000
00010000
00000000
00001000
00000000
00000000
00000110
00000000
00000001
00001000
00000001
00000000
,
00000100
00000000
00000010
00010000
00000000
00001000
00000000
00000020
00000000
00000001
00000000
00000230
00000000
00001300
00000000
00000000
,
00001001
00000000
00000001
00001000
00000000
00000100
00001000
00000100
00010000
00001000
00000000
01000000
00000000
00010000
00000000
00000000
,
10010000
00000000
10000000
00010000
00000000
01000000
00010000
01000000
00001000
00010000
00000000
00010000
00000000
00001000
00010000
00001000
,
01000000
00010000
00000000
00010000
00000000
01000000
00010000
10000000
01000000
00100000
00000000
20020000
00000000
00000000
30030000
00000000
,
10000000
00100000
00000000
00010000
00000000
00100000
00010000
00000000
00001000
00000000
00010000
00001000
00000000
00000100
00000000
00001000
,
00000100
00000000
00000001
00000000
00001000
00000001
00000010
00000001
00001000
00000100
00000000
00010000
00000000
00001000
00000000
00000000
,
00011000
00000000
00000000
00000000
00011000
00000000
00000000
00001000
00000000
00010000
01000000
00000000
10000000
00000000
20020000
30030000
,
00000000
00010000
10000000
00000000
00100000
10000000
01000000
00000000
00100000
00010000
01000000
00000000
00001000
00010000
00001000
00000000
,
00010000
00000000
00000000
00001000
00000010
00000000
00000002
00000000
00000000
00000000
00001000
00000000
00001003
00000000
00000001
00001000
,
00000001
00000000
00000100
00001000
00000000
00010000
00001000
00000100
00000000
00000100
00001000
00000000
00010000
00000000
00001000
00010000
,
01000000
00010000
01000000
20000000
00000000
00010000
30010000
10000000
,
01000000
00000000
00010000
00001000
00000000
00010000
00000000
00200000
00000000
00000000
10300000
00000000
00010000
00000000
00010000
00000000
,
10000000
00000000
00000000
00100000
01000000
00000000
00002000
00000000
00000000
00000000
00013000
00000000
00000010
00000000
00000100
00000000
,
00000000
00000000
00000001
00000000
00000010
00000100
00000000
00020000
00000000
00000000
00031000
00000000
00100000
00000000
01000000
00000000
,
10000000
00000000
00010000
10000000
00000000
00010000
20000000
00000000
00000000
00000000
31000000
00000000
10000000
00000000
00010000
00000000
,
01000000
00001000
01000000
00001000
00010000
00000100
00010000
00000100
00000000
00010000
00001000
00000000
00000100
00000000
00000001
00000000
,
00001000
00000000
00000100
00000010
00000000
00000010
00002000
00000000
00000000
00000000
00010000
00000000
00013000
00000000
01000000
00100000
,
00010000
00000000
00100000
00001000
00000000
00010000
00001000
00020000
00000000
00000000
00001000
00000000
00031000
00000000
00000100
00000010
,
00001000
00000010
00000100
00002000
00000000
00010000
00013000
00001000
,
00202000
00303000
00010000
00000000
00020020
00030030
00000000
00000000
02002000
03003000
00010000
00000000
00020200
00030300
00000000
00000000
,
00010000
00000000
00000000
00000100
00000010
00000000
00000002
00000000
00000003
00000000
00000100
00000000
00000010
00000000
00010000
00000000
,
00000000
00000000
00001000
00000000
01000000
00100000
00000000
20000000
00000000
00000000
31000000
00000000
00100000
00000000
00010000
00000000
,
00100000
00000000
00001000
00010000
00000000
00001000
00200000
00000000
00000000
00300000
00001000
00000000
00010000
00000000
00001000
00000000
,
00100000
00001000
00100000
00001000
00010000
00000020
00020000
00000000
00000000
00000000
00000000
00000000
00000000
00000000
00000000
00000000
,
00030030
00000000
00000000
00000000
;
