#VERSION:0.83;
#TITLE:サムイウワサ;
#SUBTITLE:;
#ARTIST:豚乙女;
#TITLETRANSLIT:Samui Uwasa;
#SUBTITLETRANSLIT:;
#ARTISTTRANSLIT:Butaotome;
#GENRE:;
#CREDIT:;
#MUSIC:Samui Uwasa.ogg;
#BANNER:samui_uwasa-bn.png;
#BACKGROUND:b4u-bg.png;
#CDTITLE:;
#SAMPLESTART:57.750;
#SAMPLELENGTH:12.000;
#SELECTABLE:YES;
#OFFSET:-0.500;
#BPMS:0.000=136.000;
#STOPS:;
#SPEEDS:0.000=1.000=0.000=0;
#SCROLLS:0.000=1.000;
#TICKCOUNTS:0.000=4;
#TIMESIGNATURES:0.000=4=4;
#LABELS:0.000=Song Start;
#COMBOS:0.000=1;
#ORIGIN:;
#PREVIEWVID:;
#JACKET:;
#CDIMAGE:;
#DISCIMAGE:;
#BGCHANGES:;
#FGCHANGES:;

//--------------- dance-single - nobarben ----------------
#NOTEDATA:;
#STEPSTYPE:dance-single;
#DESCRIPTION:nobarben;
#DIFFICULTY:Beginner;
#METER:3;
#RADARVALUES:0.163568,0.217941,0.078964,0.150032,0,145,135,10,19,0,0,0,0,0,0.163568,0.217941,0.078964,0.150032,0,145,135,10,19,0,0,0,0,0;
#CHARTNAME:;
#CHARTSTYLE:;
#CREDIT:nobarben;
#NOTES:
0000
0000
0000
0000
,
0000
0000
0000
0000
,
0000
0000
0000
0000
,
0000
0000
0000
0000
,
1000
1000
1000
0000
,
0100
0000
0000
0000
,
0001
0001
0001
0000
,
0200
0000
0000
0300
,
0002
0000
0000
0003
,
1000
0100
1000
0000
,
0200
0000
0000
0300
,
0010
0001
0010
0000
,
0001
0000
1000
0000
,
0010
0100
0010
0000
,
1000
0000
0001
0000
,
0010
0100
0010
0000
,
2000
0000
0000
3000
,
0001
0100
0001
0000
,
0200
0000
0000
0300
,
0010
1000
0010
0000
,
1000
0000
0100
0000
,
0010
0001
0010
0000
,
0001
0000
0100
0000
,
0010
1000
0010
0000
,
1001
0000
0000
0000
,
0110
0000
0000
0000
,
0001
0000
1000
0000
,
0100
0100
0200
0300
,
1001
0000
0000
0000
,
0110
0000
0000
0000
,
0001
0001
0001
0000
,
1000
1000
1000
0000
,
2002
0000
3003
0000
,
0001
0000
0100
0000
,
0010
0010
0010
0000
,
1000
1000
1000
0000
,
0001
0001
0001
0000
,
1000
0000
0100
0000
,
0010
0100
0010
0000
,
0002
0000
0000
0003
,
1001
0000
0000
0000
,
1000
0000
0100
0000
,
0010
0010
0010
0000
,
0001
0001
0001
0000
,
1000
1000
1000
0000
,
0001
1000
0001
1001
,
0000
0000
0000
0000
,
1000
0000
0100
0000
,
0010
0001
1000
0000
,
0001
1000
0001
0000
,
1000
0010
1000
0000
,
0002
0000
0000
0003
,
0200
0000
0000
0300
,
0220
0000
0330
0000
,
2000
0000
3000
0000
,
0002
0000
0003
0000
,
0020
0000
0030
0000
,
0200
0000
0300
0000
,
1000
0001
1000
0000
,
0001
0100
0001
0000
,
0200
0000
0300
0000
,
1001
0000
0000
0000
,
1000
0000
0100
0000
,
0010
0010
0010
0000
,
0001
1000
0001
0000
,
0010
0100
0010
0000
,
0001
1000
0001
1001
,
0000
0000
0000
0000
,
0200
0000
0000
0000
,
0300
0000
0000
0000
;

//--------------- dance-single - nobarben ----------------
#NOTEDATA:;
#STEPSTYPE:dance-single;
#DESCRIPTION:nobarben;
#DIFFICULTY:Easy;
#METER:6;
#RADARVALUES:0.245916,0.299668,0.11055,0.181617,0.023689,218,204,14,23,0,0,0,0,0,0.245916,0.299668,0.11055,0.181617,0.023689,218,204,14,23,0,0,0,0,0;
#CHARTNAME:;
#CHARTSTYLE:;
#CREDIT:nobarben;
#NOTES:
0000
0000
0000
0000
,
0000
0000
0000
0000
,
0000
0000
0000
0000
,
0000
0000
0000
0000
,
1000
0001
1000
0000
,
0010
0100
0010
0000
,
1000
0100
0010
0000
,
2002
0000
0000
3003
,
0002
0000
0000
0000
0000
0000
0000
0000
1003
0000
0000
0001
0000
0000
1000
0000
,
0000
0001
1000
0100
,
0020
0000
0000
0000
0000
0000
0000
0000
0031
0000
0000
1000
0000
0000
0001
0000
,
0000
0100
0010
1000
,
0001
0001
1000
1000
,
0100
0100
0110
0000
,
1000
1000
0001
0001
,
1001
0000
0000
0000
,
0002
0000
0000
0000
0000
0000
0000
0000
1003
0000
0000
0001
0000
0000
0100
0000
,
0000
0010
0100
0010
,
2000
0000
0000
0000
0000
0000
0000
0000
3001
0000
0000
1000
0000
0000
0100
0000
,
0000
0010
0001
1001
,
1000
1000
0010
0010
,
0100
0100
0101
0000
,
0001
0001
0010
0010
,
0100
0010
0001
1000
,
1001
0000
0001
0000
0001
0000
0001
1000
,
0000
0000
1000
0000
1000
0000
1000
0001
,
0000
0010
0100
1000
,
0001
0100
0020
0030
,
1001
0000
1000
0000
1000
0000
1000
0001
,
0000
0000
0001
0000
0001
0000
0001
1000
,
0000
0010
1000
0010
,
0100
0001
1000
0100
,
0020
0000
0030
0000
,
0001
0100
0010
1000
,
0100
1000
0010
0000
,
1000
0100
0001
0000
,
0001
0100
1000
0000
,
1000
0001
0100
0001
,
1000
0100
0010
0001
,
2000
0000
0000
0000
0000
0000
0000
0000
3000
0000
0001
0000
0000
1000
0000
0000
,
0002
0000
2003
3002
,
1003
0100
0010
0001
,
0100
0001
0010
0000
,
0001
0100
1000
0000
,
1000
0100
0001
0000
,
1001
0000
0110
0000
1001
0000
1000
0001
,
0000
0000
0000
0000
,
1000
0100
0001
0100
,
0010
0001
1000
0000
,
0001
0100
1000
0100
,
0010
1000
0001
0000
,
1000
1000
0100
0010
,
0001
0001
0100
0010
,
2002
0000
3003
0000
,
2000
0000
0000
3000
,
0002
0000
0000
0003
,
0020
0000
0000
0030
,
0200
0000
0000
0300
,
1000
0100
1000
0100
,
0010
0001
0010
0001
,
1000
0000
0000
0000
0001
0000
0000
0000
0000
0000
0100
0000
0000
0010
0000
0000
,
0200
0000
0302
2003
,
3100
0010
0001
0100
,
0010
1000
0100
0000
,
1000
0100
0001
0000
,
0001
0100
1000
0000
,
1001
0000
0110
0000
1000
0001
1000
0001
,
0000
0000
0000
0000
,
2002
0000
0000
0000
,
3003
0000
0000
0000
;

//--------------- dance-single - nobarben ----------------
#NOTEDATA:;
#STEPSTYPE:dance-single;
#DESCRIPTION:nobarben;
#DIFFICULTY:Medium;
#METER:11;
#RADARVALUES:0.407229,0.463124,0.118446,0.268478,0.292167,361,346,15,34,0,0,0,0,0,0.407229,0.463124,0.118446,0.268478,0.292167,361,346,15,34,0,0,0,0,0;
#CHARTNAME:;
#CHARTSTYLE:;
#CREDIT:nobarben;
#NOTES:
0000
0000
0000
0000
,
0000
0000
0000
0000
,
0000
0000
0000
0000
,
0000
0000
0000
0000
,
1000
1000
0100
0010
,
0001
0001
1000
0001
,
0100
0100
0010
1000
,
0002
0000
0000
1003
0000
0000
2000
0000
0000
3001
0000
0000
1001
0000
0000
0000
,
0200
0000
0000
0000
0000
0000
0000
0000
0010
0000
0000
0310
0000
0000
1001
0000
,
0000
0001
0100
0000
0010
1000
0100
0000
,
0020
0000
0000
0000
0000
0000
0000
0000
0100
0000
0000
0130
0000
0000
1001
0000
,
0000
0000
1000
0000
0100
0000
0000
0000
0010
0000
0001
0000
0100
0000
0000
0010
,
0000
0000
1000
0000
0001
0000
0000
0010
0000
0000
0100
0000
0010
0000
0000
0001
,
0000
0000
1000
0000
0010
0100
0000
0001
0000
0000
0000
0000
1000
0000
0000
0100
,
0000
0000
0010
0000
0001
0000
0000
1000
0000
0000
0010
0000
0100
0010
0000
1000
,
0000
0000
0000
0000
0001
0000
0000
0010
0000
0000
0100
0000
1000
0000
0001
0000
,
0200
0000
0000
0000
0000
0000
0000
0000
0010
0000
0000
0310
0000
0000
1001
0000
,
0000
1000
0100
0010
0001
0010
0100
1000
,
0020
0000
0000
0000
0000
0000
0000
0000
0100
0000
0000
0130
0000
0000
1001
0000
,
0000
0000
0001
0000
0100
0000
0010
0000
1000
0000
0010
0000
0100
0000
0000
0001
,
0000
0000
0010
0000
0100
0000
0000
1000
0000
0000
0001
0000
0100
0000
0000
0010
,
0000
0000
0001
0000
0010
0100
0000
0010
0000
0000
0000
0000
1000
0000
0000
0001
,
0000
0000
0010
0000
0100
0000
0000
1000
0000
0000
0001
0000
0100
0010
0000
0100
,
0000
0010
1000
0001
0010
0100
1000
0001
,
1000
0000
1000
0000
0001
0000
0010
0120
,
0000
0000
0031
0000
1000
0000
0010
0120
,
0000
1030
0001
0000
0010
0100
1000
0000
,
0001
0100
0010
1000
0002
0000
0013
0000
,
0210
0000
1000
0000
1300
0000
0001
0210
,
0000
0000
0001
0000
0301
0000
1000
0220
,
0330
1000
0001
1000
0002
0000
0013
0000
,
0001
0100
1000
0100
0001
0000
0010
0000
,
2002
0000
3003
0000
,
2000
0000
0000
0000
3100
0000
0010
0001
0010
0000
0100
0000
1000
0000
0100
0000
,
0001
0000
0100
0000
0010
0001
0000
1000
0000
0000
0000
0000
0001
0100
0000
0010
,
0000
0000
1000
0000
0010
0100
0000
0001
0000
0000
0000
0000
1000
0100
0000
0010
,
0000
0000
0001
0000
0010
0100
0000
1000
0000
0000
0001
0000
1000
0001
0000
0100
,
0001
1000
0100
0010
0000
0010
0100
1000
,
0001
0000
1000
0000
0010
0000
0100
0000
0000
0000
0100
0000
0010
1000
0000
0002
,
0000
0000
0000
0000
0000
0000
0000
0000
0003
0000
0010
0000
0000
0100
0000
0000
,
0210
1300
0020
0230
,
0302
0000
0000
0000
0103
0000
0010
1000
0010
0000
0100
0000
0001
0000
0100
0000
,
1000
0000
0100
0000
0010
1000
0000
0001
0000
0000
0000
0000
1000
0100
0000
0010
,
0000
0000
0001
0000
0010
0100
0000
1000
0000
0000
0000
0000
0001
0100
0000
0010
,
0000
0000
1000
0000
0010
0100
0000
0001
0000
0000
1000
0000
0100
0000
0010
0000
,
0001
0010
1000
0010
0001
1000
0100
0010
,
0000
0000
0000
0000
,
0001
0100
0010
1000
0100
0010
0001
1000
,
0010
0000
0100
0000
0001
0000
0100
0000
1000
0000
0000
0100
0000
0000
0001
0000
,
1000
0100
0010
0001
0100
0010
1000
0010
,
0001
0010
0100
0010
1000
0001
0010
0010
,
0001
0000
0000
0100
0000
0000
0010
0000
0000
1000
0000
0000
0100
0000
1000
0000
,
0001
0000
0000
0010
0000
0100
0000
1000
0000
0001
0000
0000
1000
0000
0100
0000
,
0020
0000
0000
0031
0000
1000
0000
1001
0000
0000
0000
0000
0000
0000
0000
0000
,
0002
0000
0000
0000
,
0203
0000
0000
0000
,
0320
0000
0000
0000
,
2030
0000
0000
0000
,
3001
1000
0010
0100
,
0001
1000
0100
0010
,
0002
0000
0000
0000
1003
0000
0000
0000
0000
0000
0001
0000
0000
1000
0000
0000
,
2002
3003
2000
3002
,
1003
0000
0100
0000
0001
0000
0100
0010
0100
0000
1000
0000
0001
0000
1000
0000
,
0010
0000
0100
0000
0010
1000
0000
0001
0000
0000
0000
0000
1000
0100
0000
0010
,
0000
0000
1000
0000
0010
0100
0000
1000
0000
0000
0000
0000
0001
0100
0000
0010
,
0000
0000
0001
0000
0010
0100
0000
0001
0000
0000
1000
0000
0100
0000
0010
0000
,
0001
0100
1000
0100
0001
1000
0010
0001
,
0000
0000
0000
0000
,
0220
0000
0000
0000
,
0330
0000
0000
0000
;

//--------------- dance-single - nobarben ----------------
#NOTEDATA:;
#STEPSTYPE:dance-single;
#DESCRIPTION:nobarben;
#DIFFICULTY:Hard;
#METER:15;
#RADARVALUES:0.725341,0.801485,0.30796,0.30796,1.058118,643,604,39,39,0,0,0,0,0,0.725341,0.801485,0.30796,0.30796,1.058118,643,604,39,39,0,0,0,0,0;
#CHARTNAME:;
#CHARTSTYLE:;
#CREDIT:nobarben;
#NOTES:
0000
0000
0000
0000
,
0000
0000
0000
0000
,
0000
0000
0000
0000
,
0000
0000
0000
0000
,
1000
0001
1000
0000
0010
0000
0000
0000
0100
0000
0001
0000
1000
0000
0001
0010
,
0002
0023
0230
2300
,
3001
0000
0100
0000
0100
0000
0000
0001
0000
1000
0000
0001
0010
0000
0010
0000
,
0001
0100
0010
1000
0000
0000
1000
0100
0010
0001
0000
0000
1000
0001
0000
0000
,
2000
0000
0001
0000
3001
0010
0100
0000
1100
0000
0000
1001
0000
0000
1020
0000
,
0000
0000
1030
0000
0100
0010
0000
0001
0000
1000
0000
0001
1000
0000
1000
0000
,
0002
0000
2003
0000
0010
0000
3010
0000
0110
0000
0000
0101
0000
0000
1002
0000
,
0000
0000
0013
0000
0100
1000
0000
0001
0000
0001
0000
0100
0010
1000
0010
1000
,
0000
1000
0001
0000
0010
0001
0010
0001
0000
0001
1000
0000
0100
1000
0100
1000
,
0000
1000
0001
0000
1000
0010
0000
0120
0000
1030
0001
0100
0001
1000
0001
0010
,
0000
0010
0100
0000
1000
0001
1000
0010
0000
0010
0100
0000
0001
1000
0000
2001
,
0000
0000
3001
0000
0010
0100
0000
1000
0000
0001
0100
0001
1000
0010
0100
0001
,
2000
0000
0100
0000
3100
0010
0001
0000
0011
0000
0000
1100
0000
0000
2001
0000
,
0000
0000
3010
0100
0010
1000
0001
0010
0000
0010
0100
1000
0001
0100
0010
1000
,
0020
0000
1000
0000
1000
0000
1030
0000
1010
0000
0000
0101
0000
0000
1002
0000
,
0000
0000
0013
0100
1000
0001
0100
0001
0000
1000
0100
0010
0100
1000
0001
0010
,
0000
0010
0100
0000
1000
0001
0100
0010
0000
0010
1000
0000
0001
1000
0100
0010
,
0000
0010
0001
0000
1000
0001
0000
1002
0000
1003
0100
1000
0001
0100
0010
1000
,
0000
1000
0001
0000
0010
0001
1000
0100
0000
0100
0010
0000
0001
1000
0000
1001
,
0000
0001
0100
0010
1000
0001
0010
0100
1000
0100
0010
0001
0100
0010
1000
0000
,
0010
0100
0010
0000
0010
1000
0010
1000
0001
0000
1000
0100
0000
0000
0210
0000
,
0000
0310
0000
0001
0010
0001
0010
0001
1000
0000
0001
0100
0000
0000
0120
0000
,
0000
0000
1030
0001
0010
0000
0100
0000
1000
0000
0001
1000
0010
0000
0100
0000
,
0001
0100
0010
0000
1000
0100
0010
0001
2000
0000
0001
0000
3001
0100
0010
1000
,
0100
0010
0000
0010
0100
1000
0100
1000
0001
0000
1000
0010
0000
0000
0210
0000
,
0000
0310
0100
0001
0100
0001
1000
0001
0010
0000
0100
1000
0000
0000
1002
0000
,
0000
0000
1003
0100
1000
0000
0001
0010
0001
0000
1000
0001
0100
0000
0010
0000
,
0101
0000
1000
0100
0010
0000
0001
0100
0010
0000
1000
0001
0010
0100
1000
0001
,
2000
0000
3000
0000
,
0001
0000
1000
0100
0000
1000
0001
0100
0001
0000
1000
0000
0100
0010
0001
0000
,
1000
0000
0010
0000
0100
0001
0000
0010
0000
0010
0000
0100
1000
0001
0000
0100
,
0000
0100
0010
0000
1000
0001
0000
0010
0000
0010
0000
0100
1000
0100
0000
0010
,
0000
0010
0001
0000
1000
0010
0000
0100
0000
0100
0001
0000
1000
0001
0010
0100
,
1000
0000
0001
0010
0000
0001
2000
0000
0000
3010
0100
0001
1000
0000
0001
0000
,
1000
0000
1000
0100
1000
0100
0020
0001
0000
0031
1000
0000
0010
0100
0000
0100
,
0001
0000
1000
0000
0001
0010
0100
1000
0001
0000
0011
0000
0000
0110
0000
0000
,
2100
0000
0000
0000
3001
0000
0000
0000
1000
0010
0000
0010
0100
0001
1000
0001
,
0010
0000
0100
1000
0000
0001
0100
0001
1000
0000
0010
0000
0100
0010
1000
0000
,
0001
0000
0010
0000
0100
1000
0000
0001
0100
0001
0100
0010
1000
0001
0000
0001
,
0010
0000
0100
0000
0010
1000
0010
0001
0000
0001
1000
0010
0100
0010
0000
0001
,
0000
0001
0010
0000
0010
0100
0000
1000
0000
1000
0100
0010
1000
0001
0010
0100
,
1000
0000
0001
0100
0001
0000
1000
0100
1000
0000
0001
0100
0010
1000
0001
0000
,
0000
0000
0000
0000
,
0001
0100
0001
0100
0010
1000
0010
1000
0001
1000
0000
0100
0000
0010
0000
0012
,
0000
0000
0103
0000
0010
0000
1000
0000
1002
0000
0000
0013
0000
0000
0110
0000
,
1000
0100
0010
0100
1000
0001
0000
0101
0000
0010
0000
0000
0110
0000
0001
0000
,
0010
0100
1000
0100
0010
0001
1000
0001
0100
0010
0100
0010
1000
0001
0010
0000
,
0011
0000
0000
0110
0000
0000
1100
0000
0000
1001
0000
0000
1000
0000
0010
0000
,
0210
0000
0000
0301
0000
0010
0000
0100
0000
1000
0000
0000
0001
0000
1000
0000
,
0001
0100
0010
1000
0000
1001
0000
0001
2000
0000
0000
0000
3020
0000
0000
0000
,
0230
0000
0000
0301
1000
0001
0010
0100
,
1000
0000
0001
0000
1000
0010
0000
0200
0000
0000
0300
0000
0001
1000
0000
0200
,
0000
0000
0310
0000
0001
1000
0000
0020
0000
0000
0030
0000
0100
0001
0000
2000
,
0000
0000
3100
0000
0010
0100
0000
2000
0000
0000
3001
0000
1000
0010
0000
0100
,
0001
0001
0010
0100
,
1000
1000
0001
1000
,
0010
0000
0000
0000
0010
0000
0000
0000
0000
0000
0101
0000
0000
0011
0000
0000
,
0210
0000
0000
0000
1300
0000
0000
0000
0001
0100
0001
0100
0010
1000
0010
1000
,
0001
0000
1000
0100
0000
0010
0001
0100
0010
0000
1000
0100
1000
0010
0100
0000
,
0100
0000
0010
0000
1000
0100
0000
0001
0000
0001
0000
0100
0010
0001
0000
0001
,
1000
0000
0010
0000
0100
0010
0000
0001
0000
0001
0010
0100
0001
1000
0000
0100
,
0000
1000
0001
0000
0010
0100
0000
0001
0000
0001
0100
0010
0001
0100
0010
1000
,
0001
0000
0100
0001
0010
0000
0100
1000
0010
0000
0100
0001
0010
0100
1000
0000
,
0000
0000
0000
0000
,
0220
0000
0000
0000
,
0000
0000
0000
0000
,
0330
0000
0000
0000
;

//--------------- dance-double - nobarben ----------------
#NOTEDATA:;
#STEPSTYPE:dance-double;
#DESCRIPTION:nobarben;
#DIFFICULTY:Easy;
#METER:5;
#RADARVALUES:0.226739,0.272426,0.047378,0.165824,0.023689,201,195,6,21,0,0,0,0,0,0.226739,0.272426,0.047378,0.165824,0.023689,201,195,6,21,0,0,0,0,0;
#CHARTNAME:;
#CHARTSTYLE:;
#CREDIT:nobarben;
#NOTES:
00000000
00000000
00000000
00000000
,
00000000
00000000
00000000
00000000
,
00000000
00000000
00000000
00000000
,
00000000
00000000
00000000
00000000
,
10000000
01000000
00100000
00000000
,
00010000
00100000
00001000
00000000
,
00010000
00000100
00001000
00000000
,
00002002
00000000
00000000
00003003
,
00000002
00000000
00000000
00000000
00000000
00000000
00000000
00000000
00001003
00000000
00000000
00000001
00000000
00000000
00001000
00000000
,
00000000
00000010
00010000
00001000
,
00020000
00000000
00000000
00000000
00000000
00000000
00000000
00000000
00031000
00000000
00000000
00010000
00000000
00000000
00001000
00000000
,
00000000
01000000
00010000
10000000
,
00010000
10000000
01000000
00100000
,
00001000
00010000
00011000
00000000
,
00010000
00000100
00001000
00000100
,
00000020
00000000
00000030
00000000
,
00000002
00000000
00000000
00000000
00000000
00000000
00000000
00000000
00001003
00000000
00000000
00000010
00000000
00000000
00000100
00000000
,
00000000
00000001
00001000
00000100
,
00020000
00000000
00000000
00000000
00000000
00000000
00000000
00000000
00031000
00000000
00000000
01000000
00000000
00000000
00010000
00000000
,
00000000
10000000
00100000
01000000
,
00010000
10000000
00100000
01000000
,
00001000
00010000
00011000
00000000
,
00010000
00000010
00001000
00000010
,
00000200
00000000
00000301
00000000
,
00001000
00000000
00000100
00000000
00010000
00000000
00000000
00001000
,
00000000
00000000
01000000
00000000
00010000
00000000
00000000
10000000
,
00000000
01000000
00010000
01000000
,
00100000
00001000
00011000
00000000
,
00001000
00000000
01000000
00000000
00010000
00000000
00000000
10000000
,
00000000
00000000
01000000
00000000
00100000
00000000
00000000
00010000
,
00000000
00100000
00001000
00010000
,
00000100
00000010
00000001
00000100
,
00002000
00000000
00003000
00000000
,
00010000
00001000
00000100
00001000
,
00010000
00100000
10000000
00000000
,
01000000
00100000
00001000
00000000
,
00010000
00000100
00000010
00000000
,
00000001
00000100
00001000
00000100
,
00000010
00010000
00001000
00000000
,
00020000
00000000
00000000
00000000
00000000
00000000
00000000
00000000
00030000
00000000
00001000
00000000
00000000
00010000
00000000
00000000
,
00002000
00003000
00010000
00010000
,
00001000
00010000
01000000
00010000
,
00001000
00000010
00000001
00000000
,
00000100
00000010
00010000
00000000
,
00001000
01000000
00100000
00000000
,
10000000
00000000
01000000
00000000
00010000
00000000
00001000
00001000
,
00000000
00000000
00000000
00000000
,
00010000
00000100
00001000
00000010
,
00000100
00001000
00010000
00000000
,
00001000
01000000
00010000
00100000
,
01000000
00010000
00001000
00000000
,
00000020
00000001
00000031
00001000
,
00000020
00001000
00001030
00000010
,
00010000
00001000
00011000
00000000
,
00002000
00000000
00000000
00003000
,
02000000
00000000
00000000
03000000
,
00200000
00000000
00000000
00300000
,
20000000
00000000
00000000
30000000
,
00010000
10000000
01000000
00000000
,
00100000
00001000
00010000
00000000
,
00000200
00000000
00000000
00000000
00000000
00000000
00000000
00000000
00000300
00000000
00000010
00000000
00000000
00000001
00000000
00000000
,
00002000
00003000
00000001
00001000
,
00000001
00000100
00001000
00010000
,
00100000
10000000
00010000
00000000
,
10000000
01000000
00010000
00000000
,
00001000
00000010
00000001
00000000
,
00000001
00000000
00000100
00000000
00001000
00000000
00010000
00010000
,
00000000
00000000
00000000
00000000
,
00022000
00000000
00000000
00000000
,
00033000
00000000
00000000
00000000
;

//--------------- dance-double - nobarben ----------------
#NOTEDATA:;
#STEPSTYPE:dance-double;
#DESCRIPTION:nobarben;
#DIFFICULTY:Medium;
#METER:11;
#RADARVALUES:0.426406,0.490366,0.150032,0.28427,0.236892,378,359,19,36,0,0,0,0,0,0.426406,0.490366,0.150032,0.28427,0.236892,378,359,19,36,0,0,0,0,0;
#CHARTNAME:;
#CHARTSTYLE:;
#CREDIT:nobarben;
#NOTES:
00000000
00000000
00000000
00000000
,
00000000
00000000
00000000
00000000
,
00000000
00000000
00000000
00000000
,
00000000
00000000
00000000
00000000
,
00001000
00010000
00001000
00000000
00010000
00001000
00010000
00000000
,
00000200
00000320
00000032
00002003
,
00003010
00000100
00000010
00000000
00001000
00000010
00001000
00000000
,
00000002
00000000
00000000
00001003
00000000
00000000
00002000
00000000
00000000
00003001
00000000
00000000
00001001
00000000
00000000
00000000
,
00000020
00000000
00000000
00000000
00000000
00000000
00000000
00000000
00000100
00000000
00000000
00000130
00000000
00000000
00001001
00000000
,
00000000
00000001
00000100
00000000
00000010
00010000
00001000
00000000
,
00012000
00000000
00000000
00000000
00000000
00000000
00000000
00000000
00013000
00000000
00000000
00010000
00000000
00000000
00011000
00000000
,
00000000
00001000
01000000
00000000
00010000
01000000
00100000
00000000
,
10000000
01000000
10000000
00010000
00100000
01000000
00100000
00001000
,
00010000
00000000
00000100
00000000
00001000
00000100
00000000
00000010
00000000
00000000
00000001
00000000
00001000
00000000
00000000
00000000
,
00000001
00000100
00000001
00001000
00000010
00000100
00000010
00010000
,
00001000
00000000
01000000
00000000
00010000
00000000
00000000
10000000
00000000
00000000
01000000
00000000
00100000
00000000
00010000
00000000
,
02000000
00000000
00000000
00000000
00000000
00000000
00000000
00000000
00100000
00000000
00000000
00100000
03000000
00000000
10010000
00000000
,
00000000
10000000
01000000
00010000
00001000
00010000
00000100
00001000
,
00000200
00000000
00000000
00000000
00000000
00000000
00000000
00000000
00000010
00000000
00000000
00000010
00000300
00000000
00001001
00000000
,
00000000
00000001
00000100
00001000
00010000
00001000
01000000
00000000
,
00100000
10000000
01000000
10000000
00010000
00100000
00001000
00010000
,
00000100
00000000
00000010
00000000
00000001
00001000
00000000
00000001
00000000
00000000
00001000
00000000
00000001
00000000
00000000
00000000
,
00000010
00000000
00000001
00000000
00000100
00000000
00000001
00000000
00001000
00000000
00000010
00000000
00010000
00001000
00000000
01000000
,
00000000
00100000
10000000
01000000
00100000
00010000
10000000
00000000
,
01000000
00000000
01000000
00000000
00100000
00000000
00001000
00021000
,
00000000
00000000
00030100
00000000
00000010
00000000
00000001
00001002
,
00000000
00000103
00001000
00000000
00010000
00100000
01000000
00000000
,
00010000
10000000
01000000
00100000
00020000
00000000
10030000
00000000
,
00100000
00000000
00100000
00000000
01000000
00000000
00010000
20010000
,
00000000
00000000
31000000
00000000
00100000
00000000
00001000
00021000
,
00000000
00030100
00001000
00000100
00000020
00000000
00000031
00000000
,
00000100
00001000
00010000
00001000
01000000
00000000
00100000
00000000
,
20020000
00000000
30030000
00000000
,
20000000
00000000
31000000
00100000
00001000
00010000
00000100
00000100
,
00000010
00000000
00000001
00000000
00001000
00000001
00000000
00000100
00000000
00000000
00000000
00000000
00000010
00001000
00000000
00000010
,
00000000
00000000
00010000
00000000
00001000
01000000
00000000
00010000
00000000
00000000
00000000
00000000
00100000
00010000
00000000
00100000
,
00000000
00000000
00001000
00000000
00010000
00000100
00000000
00001000
00000000
00000000
00000100
00000000
00000010
00000001
00000000
00001000
,
00000001
00000100
00001000
00010000
00000000
00010000
00100000
10000000
,
00010000
00000000
10000000
00000000
01000000
00000000
00010000
00000000
00000000
00000000
00010000
00000000
00001000
00010000
00000000
00000200
,
00000000
00000000
00000000
00000000
00000310
00000000
00000000
00000000
00000000
00000000
00000011
00000000
00000000
00001001
00000000
00000000
,
00000102
00001003
00000200
00000320
,
00000032
00000000
00000103
00000010
00010000
00001000
01000000
01000000
,
00100000
00000000
10000000
00000000
00010000
10000000
00000000
01000000
00000000
00000000
00000000
00000000
00100000
00010000
00000000
00100000
,
00000000
00000000
00001000
00000000
00010000
00000100
00000000
00001000
00000000
00000000
00000000
00000000
00000010
00001000
00000000
00000010
,
00000000
00000000
00010000
00000000
00001000
01000000
00000000
00010000
00000000
00000000
01000000
00000000
00100000
00000000
10000000
00000000
,
01000000
00010000
00001000
00010000
01000000
00010000
00001000
00000010
,
00000000
00000000
00000000
00000000
,
00000001
00000100
00000010
00001000
00000100
00010000
00001000
01000000
,
00010000
00000000
10000000
00000000
00100000
00000000
01000000
00000000
10000000
00000000
00000000
01000000
00000000
00000000
00100000
00000000
,
10000000
01000000
00100000
00010000
01000000
00001000
00010000
00000100
,
00000010
00000001
00001000
00000001
00000100
00000010
00010000
00001000
,
00010000
00000000
00000000
01000000
00000000
00000000
10000000
00000000
00000000
00100000
00000000
00000000
00010000
00000000
00001000
00000000
,
00020000
00000000
00000000
00031000
00000000
00000100
00000000
00000001
00000000
00000010
00000000
00000000
00000100
00000000
00001000
00000000
,
00000200
00000000
00000000
00010300
00000000
00001000
00000000
00011000
00000000
00000000
00000000
00000000
00000000
00000000
00000000
00000000
,
00002000
00000000
00000000
00000000
,
00023000
00000000
00000000
00000000
,
00030200
00000000
00000000
00000000
,
00000320
00000000
00000000
00000000
,
00000031
00000100
00000010
00000010
,
00001000
00000100
00010000
00010000
,
02000000
00000000
00000000
00000000
03100000
00000000
00000000
00000000
00000000
00000000
11000000
00000000
00000000
10010000
00000000
00000000
,
20100000
00000000
32000000
03200000
,
00310000
00000000
10000000
00000000
01000000
00000000
00100000
00010000
00100000
00000000
00001000
00000000
00010000
00000000
00000100
00000000
,
00000010
00000000
00000100
00000000
00001000
00000100
00000000
00000010
00000000
00000000
00000001
00000000
00001000
00000001
00000000
00000100
,
00000000
00000000
00001000
00000000
00010000
00001000
00000000
00100000
00000000
00000000
00010000
00000000
10000000
01000000
00000000
00100000
,
00000000
00000000
00001000
00000000
00010000
00000100
00000000
00000010
00000000
00000000
00000001
00000000
00000100
00000000
00000010
00000000
,
00000100
00001000
00010000
00001000
00000100
00001000
00010000
01000000
,
00000000
00000000
00000000
00000000
,
02200000
00000000
00000000
00000000
,
03300000
00000000
00000000
00000000
;

//--------------- dance-double - nobarben ----------------
#NOTEDATA:;
#STEPSTYPE:dance-double;
#DESCRIPTION:nobarben;
#DIFFICULTY:Hard;
#METER:15;
#RADARVALUES:0.63284,0.743545,0.173721,0.252685,0.880449,561,539,22,32,0,0,0,0,0,0.63284,0.743545,0.173721,0.252685,0.880449,561,539,22,32,0,0,0,0,0;
#CHARTNAME:;
#CHARTSTYLE:;
#CREDIT:nobarben;
#NOTES:
00000M00
00000000
00000000
00000000
,
00000000
00000000
00000000
00000000
,
00000000
00000000
00000000
00000000
,
00000000
00000000
00000000
00000000
,
00000001
00001000
00000001
00000000
00000100
00000000
00000000
00000000
00000010
00001000
00000010
00000000
00010000
00000000
00001000
00010000
,
00002000
00203000
02300000
23000000
,
30010000
00000000
01000000
00000000
01000000
00000000
00000000
00100000
00000000
10000000
00000000
00010000
10000000
00000000
10000000
00000000
,
01000000
00100000
01000000
00100000
00000000
00000000
00001000
00010000
00001000
00010000
00000000
00000000
00000100
00000010
00000000
00000000
,
00000001
00000000
00000100
00000000
00000010
00000000
00001000
00000000
00001100
00000000
00000000
00011000
00000000
00000000
00020100
00000000
,
00000000
00000000
00031000
00000000
00100000
00000000
00001000
00010000
00000000
01000000
00000000
10000000
00010000
00000000
00010000
00000000
,
10000000
00000000
01000000
00000000
00100000
00000000
00010000
00000000
01010000
00000000
00000000
00011000
00000000
00000000
01002000
00000000
,
00000000
00000000
00013000
00000000
00000010
00000000
00010000
00001000
00000000
00000100
00000000
00000001
00001000
00000001
00001000
00000100
,
00000000
00001000
00000100
00000000
00000010
00000100
00001000
00000100
00000000
00001000
00000100
00000000
00010000
00000100
00010000
00001000
,
00000000
00010000
00001000
00000000
01000000
00010000
00000000
02010000
00000000
00000000
03100000
00000000
10000000
00010000
00000000
00100000
,
00000000
01000000
00100000
00000000
00010000
00000000
00100000
00001000
00000000
00010000
00001000
00000000
00010000
00000100
00000000
00001200
,
00000000
00000000
00000000
00000000
00000302
00000000
00000000
00000103
00000000
00000010
00000001
00000000
00001000
00000010
00000100
00000000
,
00000010
00000000
00001000
00000000
00010000
00000000
01000000
00000000
01100000
00000000
00000000
01001000
00000000
00000000
00021000
00000000
,
00000000
00000000
00031000
00000000
00010000
00000000
00001000
00100000
00000000
00010000
00000000
10000000
00100000
01000000
00010000
00000000
,
00100000
00000000
00010000
00000000
00001000
00000000
00000100
00000000
00000110
00000000
00000000
00010100
00000000
00000000
00012000
00000000
,
00000000
00000000
00013000
00000000
00001000
00000000
00010000
00000010
00000000
00000100
00000000
00000001
00000100
00000001
00000100
00000010
,
00000000
00000010
00001000
00000000
00000100
00010000
00000100
00010000
00000000
00010000
00001000
00000000
01000000
00010000
01000000
00100000
,
00000000
00100000
10000000
00000000
00010000
10000000
00000000
20010000
00000000
00000000
31000000
00000000
00100000
00001000
00000000
00020000
,
00000000
00000000
00030100
00000000
00000010
00000000
00000100
00002000
00000000
00000000
00003001
00000000
00001000
00000010
00000000
00000100
,
00000000
00000001
00001000
00000000
00000010
00001000
00000010
00000000
00010000
00001000
00010000
00000000
00001000
00100000
00001000
00100000
,
00010000
10000000
00010000
00000000
10000000
01000000
10000000
01000000
00100000
00000000
00000000
00001000
00000000
00000000
00011000
00000000
,
00000000
00000010
00000000
00001000
00000001
00000010
00000001
00000010
00000100
00000000
00000000
00010000
00000000
00000000
00021000
00000000
,
00000000
00000000
00031000
00000000
00010000
00001000
01000000
00000000
00100000
00000000
10000000
00000000
01000000
10000000
00010000
00000000
,
00100000
00001000
00010000
00001000
00000200
00000000
00000301
00000000
,
00001000
00000100
00000000
00000010
00000001
00001000
00000100
00001000
00000010
00000000
00000000
00010000
00000000
00000000
00011000
00000000
,
00000000
01000000
00001000
01000000
00010000
01000000
00100000
10000000
00010000
00000000
00000000
10000000
00000000
00000000
12000000
00000000
,
00000000
00000000
03100000
00001000
00010000
00000000
00001000
00010000
00000100
00000000
00001000
00000100
00000010
00000000
00000001
00000000
,
00001000
00000000
00000010
00010000
00001000
00000000
00010000
00001000
01000000
00000000
00010000
01000000
00100000
10000000
00010000
00000000
,
20000000
00000000
30000000
00000000
,
10000000
00000000
00010000
01000000
00000000
00100000
00010000
00001000
00010000
00000000
00001000
00000000
00010000
00000100
00000010
00000000
,
00000001
00000000
00001000
00000000
00000010
00000100
00000000
00001000
00010000
00001000
00010000
00000000
00001000
00010000
00000000
01000000
,
00000000
01000000
00100000
00000000
00010000
00001000
00000000
00000100
00000000
00000100
00010000
00000000
00000010
00000100
00000000
00001000
,
00000000
00001000
00010000
00000000
00100000
01000000
00000000
00010000
00000000
00010000
10000000
00000000
01000000
00100000
00000000
00100000
,
01000000
00000000
10000000
00010000
00000000
10000000
02000000
00000000
00000000
03100000
00001000
00100000
00001000
00000000
00010000
00000000
,
00000100
00000000
00000010
00000001
00000000
00001000
00000002
00000000
00000000
00001003
00000010
00001000
00000010
00000100
00000000
00000100
,
00000002
00000000
00000000
00000000
00001003
00000100
00001000
00000100
00010000
00000000
01000000
00000000
00000000
00010000
00000000
00000000
,
00000200
00000000
00000000
00000000
00000310
00000000
00000000
00000000
00000001
00000100
00000000
00000100
00000010
00001000
00000001
00001000
,
00000001
00000000
00001000
00000100
00000000
00000010
00001000
00010000
00001000
00000000
00010000
00000000
00001000
01000000
00100000
00000000
,
10000000
00000000
00010000
00000000
00100000
01000000
00000000
00010000
00001000
00010000
00001000
00000000
00010000
00001000
00000000
00000100
,
00000000
00000100
00000010
00000000
00001000
00010000
00000000
01000000
00000000
01000000
00001000
00000000
00100000
01000000
00000000
00010000
,
00000000
00010000
00001000
00000000
00000010
00000100
00000000
00001000
00000000
00000001
00000100
00000001
00001000
00000100
00010000
00001000
,
00100000
00000000
00001000
00010000
00000010
00000000
00010000
00001000
01000000
00000000
00001000
00010000
00000100
00000000
00000010
00000000
,
00000000
00000000
00000000
00000000
,
00000001
00000100
00000001
00000100
00000010
00001000
00000010
00001000
00000100
00010000
00000000
00001000
00000000
00100000
00000000
02000000
,
00000000
00000000
13000000
00000000
00010000
00000000
01000000
00000000
00200000
00000000
00000000
10300000
00000000
00000000
00010000
00000000
,
10000000
01000000
00100000
01000000
10000000
00010000
00000000
10000000
00000000
00100000
00000000
00000000
01000000
00000000
01000000
00000000
,
00100000
10000000
00100000
10000000
00010000
00100000
00010000
00100000
00001000
00010000
00001000
00010000
00000100
00001000
00000100
00001000
,
00000001
00000000
00000000
00000010
00000000
00000000
00001000
00000000
00000000
00010000
00000000
00000000
01000000
00000000
10000000
00000000
,
00200000
00000000
00000000
00310000
00000000
00001000
00000000
00000100
00000000
00000001
00000000
00000000
00001000
00000000
00000001
00000000
,
00000010
00000100
00001000
00000100
00000000
00010100
00000000
00011000
00000000
00000000
00000000
00000000
00000000
00000000
00000000
00000000
,
00002000
00000000
00010000
00000000
,
00000100
00010000
01000000
00000000
,
00023000
00000000
01000000
00000000
,
00032000
00000000
00000010
00000000
,
00013000
01000000
10000000
00100000
,
10000000
01000000
00010000
00001000
,
00000020
00000000
00000000
00000000
00000031
00000000
00000000
00000000
00000000
00000000
00000100
00000000
00000000
00001000
00000000
00000000
,
02000000
00000000
00000000
00000000
03100000
00000000
00000000
00000000
10000000
01000000
10000000
01000000
00100000
00010000
00100000
00010000
,
10000000
00000000
00010000
00100000
00000000
01000000
00010000
00001000
00010000
00000000
00001000
00000000
00010000
00000010
00000100
00000000
,
00000001
00000000
00001000
00000000
00000100
00000010
00000000
00001000
00010000
00001000
00010000
00000000
00001000
00010000
00000000
00100000
,
00000000
00100000
01000000
00000000
00010000
00001000
00000000
00000010
00000000
00000010
00010000
00000000
00000100
00000010
00000000
00001000
,
00000000
00001000
00010000
00000000
01000000
00100000
00000000
00010000
00000000
10000000
00100000
10000000
00010000
00100000
00001000
00010000
,
00000100
00000000
00010000
00001000
01000000
00000000
00001000
00010000
00000010
00000000
00010000
00001000
00100000
00000000
01000000
00000000
,
00000000
00000000
00000000
00000000
,
20020000
00000000
00000000
00000000
,
00000000
00000000
00000000
30030000
;
