#VERSION:0.83;
#TITLE:Phantasmagoria;
#SUBTITLE:;
#ARTIST:Maozon;
#TITLETRANSLIT:;
#SUBTITLETRANSLIT:;
#ARTISTTRANSLIT:;
#GENRE:;
#CREDIT:;
#MUSIC:Phasntasmagoria.ogg;
#BANNER:Phantasmagoria.png;
#BACKGROUND:Phantasmagoria-bg.png;
#JACKET:;
#DISCIMAGE:;
#CDIMAGE:;
#SELECTABLE:YES;
#LYRICSPATH:;
#CDTITLE:;
#SAMPLESTART:76.800;
#SAMPLELENGTH:15.000;
#BPMS:0.000000=150.000000;
#STOPS:;
#WARPS:;
#DELAYS:;
#SPEEDS:;
#SCROLLS:;
#TICKCOUNTS:;
#TIMESIGNATURES:;
#LABELS:;
#COMBOS:;
#FAKES:;
#BGCHANGES:;
#FGCHANGES:;
#ATTACKS:;

//---------------dance-single - KAYSTAR---------------
#NOTEDATA:;
#CHARTNAME:;
#CHARTSTYLE:;
#CREDIT:;
#STEPSTYPE:dance-single;
#DESCRIPTION:KAYSTAR;
#DIFFICULTY:Beginner;
#METER:3;
#METERF:3;
#RADARVALUES:0,0,0,0,0;
#NOTES:
// measure 0
0000
0000
0000
0000
,  // measure 1
0000
0000
0000
0000
,  // measure 2
0000
0000
0000
0000
,  // measure 3
0000
0000
0000
0000
,  // measure 4
0000
0000
0000
0000
,  // measure 5
0000
0000
0000
0000
,  // measure 6
0000
0000
0000
0000
,  // measure 7
2002
0000
0000
0000
,  // measure 8
3003
0000
0000
0000
,  // measure 9
0000
0000
0000
0000
,  // measure 10
0000
0000
0000
0000
,  // measure 11
0000
0000
0000
0000
,  // measure 12
1000
0000
1000
0000
,  // measure 13
1000
0000
0000
0000
,  // measure 14
0001
0000
0001
0000
,  // measure 15
0001
0000
0000
0000
,  // measure 16
1000
0000
0100
0000
,  // measure 17
1000
0000
0000
0000
,  // measure 18
0001
0000
0100
0000
,  // measure 19
0001
0000
0000
0000
,  // measure 20
2000
0000
3000
0000
,  // measure 21
0200
0000
0300
0000
,  // measure 22
0020
0000
0030
0000
,  // measure 23
0002
0000
0003
0000
,  // measure 24
1000
0000
0010
0000
,  // measure 25
0100
0000
0000
0000
,  // measure 26
0001
0000
1000
0000
,  // measure 27
0100
0000
0000
0000
,  // measure 28
0010
0000
0001
0000
,  // measure 29
1000
0000
0000
0000
,  // measure 30
0010
0000
0100
0000
,  // measure 31
0001
0000
0000
0000
,  // measure 32
2000
0000
0000
0000
,  // measure 33
3000
0000
0000
0000
,  // measure 34
0002
0000
0000
0000
,  // measure 35
0003
0000
0000
0000
,  // measure 36
1000
0000
0100
0000
,  // measure 37
0010
0000
0001
0000
,  // measure 38
0100
0000
0010
0000
,  // measure 39
2000
0000
3000
0000
,  // measure 40
1001
0000
0000
0000
,  // measure 41
0000
0000
0000
0000
,  // measure 42
0000
0000
0000
0000
,  // measure 43
0000
0000
0000
0000
,  // measure 44
0002
0000
0003
0000
,  // measure 45
2000
0000
3000
0000
,  // measure 46
2002
0000
0000
0000
,  // measure 47
3003
0000
0000
0000
,  // measure 48
0001
0000
0010
0000
,  // measure 49
0001
0000
0001
0000
,  // measure 50
1000
0000
0010
0000
,  // measure 51
2000
0000
3000
0000
,  // measure 52
1000
0000
0100
0000
,  // measure 53
1000
0000
1000
0000
,  // measure 54
0001
0000
0100
0000
,  // measure 55
0002
0000
0003
0000
,  // measure 56
1000
0000
0100
0000
,  // measure 57
0010
0000
0010
0000
,  // measure 58
0001
0000
1000
0000
,  // measure 59
0010
0000
0010
0000
,  // measure 60
0100
0000
0001
0000
,  // measure 61
1000
0000
1000
0000
,  // measure 62
0100
0000
0010
0000
,  // measure 63
0002
0000
0003
0000
,  // measure 64
2002
0000
0000
0000
,  // measure 65
3003
0000
0000
0000
,  // measure 66
0000
0000
0000
0000
,  // measure 67
0000
0000
0000
0000
,  // measure 68
2002
0000
0000
0000
,  // measure 69
3003
0000
0000
0000
,  // measure 70
0000
0000
0000
0200
,  // measure 71
0000
0000
0000
0000
,  // measure 72
0000
0000
0300
0000
;

//---------------dance-single - KAYSTAR---------------
#NOTEDATA:;
#CHARTNAME:;
#CHARTSTYLE:;
#CREDIT:;
#STEPSTYPE:dance-single;
#DESCRIPTION:KAYSTAR;
#DIFFICULTY:Easy;
#METER:8;
#METERF:8;
#RADARVALUES:0,0,0,0,0;
#NOTES:
// measure 0
0000
0000
0000
0000
,  // measure 1
0000
0000
0000
0000
,  // measure 2
0000
0000
0000
0000
,  // measure 3
0000
0000
0000
0000
,  // measure 4
1000
0000
1000
0000
,  // measure 5
0001
0000
0001
0000
,  // measure 6
0100
0000
0010
0000
,  // measure 7
2002
0000
0000
0000
,  // measure 8
3003
0000
0000
0000
,  // measure 9
0000
0000
0000
0000
,  // measure 10
0000
0000
0000
0000
,  // measure 11
0000
0000
0000
0000
,  // measure 12
1000
0100
1000
1000
,  // measure 13
0001
0010
0001
0001
,  // measure 14
1000
0010
0100
0001
,  // measure 15
0020
0000
0000
0030
,  // measure 16
0001
0100
0001
0100
,  // measure 17
0010
1000
0010
1000
,  // measure 18
0100
0010
0100
0010
,  // measure 19
0001
1000
0001
2000
,  // measure 20
3020
0000
0230
0000
,  // measure 21
0302
0000
2003
0000
,  // measure 22
3200
0320
0032
1003
,  // measure 23
2002
0000
3003
0000
,  // measure 24
0001
0000
0100
0001
0100
0000
0001
0000
,  // measure 25
1000
0000
0010
1000
0010
0000
1000
0000
,  // measure 26
0001
0000
0010
0001
0010
0000
0100
0000
,  // measure 27
2000
0000
3001
0000
,  // measure 28
1000
0000
0010
1000
0010
0000
1000
0000
,  // measure 29
0001
0000
0100
0001
0100
0000
0001
0000
,  // measure 30
1000
0000
0100
1000
0100
0000
0010
0000
,  // measure 31
0002
0000
0000
0003
,  // measure 32
1001
0000
0000
2002
0000
0000
3003
0000
,  // measure 33
1000
0010
0100
0000
,  // measure 34
1001
0000
0000
2002
0000
0000
3003
0000
,  // measure 35
0001
0010
0100
0000
,  // measure 36
1000
0000
0010
1000
0010
0000
0100
0000
,  // measure 37
0001
0001
1000
1000
,  // measure 38
0001
0000
0010
0001
0010
0000
0100
0000
,  // measure 39
2000
0000
0000
3000
,  // measure 40
1001
0000
0000
0000
,  // measure 41
0000
0000
0000
0000
,  // measure 42
0000
0000
0000
0000
,  // measure 43
0000
0000
0000
0000
,  // measure 44
0001
0010
0001
0001
,  // measure 45
1000
0100
1000
1000
,  // measure 46
0010
0100
0001
0000
,  // measure 47
2002
0000
3003
0000
,  // measure 48
1000
0000
0100
1000
0100
0000
0010
0000
,  // measure 49
0002
0000
1003
1000
,  // measure 50
0010
0000
0100
1000
0100
0000
0010
0000
,  // measure 51
2000
0002
3003
0000
,  // measure 52
0001
0000
0010
0001
0010
0000
0100
0000
,  // measure 53
2000
0000
3001
0001
,  // measure 54
0100
0000
0010
0001
0010
0000
0100
0000
,  // measure 55
0001
1000
2002
3003
,  // measure 56
0001
0000
0010
0000
0100
0000
1000
0100
,  // measure 57
1000
0000
0001
0000
0100
0000
0010
1000
,  // measure 58
0010
0000
1000
0000
0001
0000
0010
0100
,  // measure 59
1000
0002
2000
3003
,  // measure 60
1000
0000
0010
0000
0100
0000
0001
0100
,  // measure 61
0001
0000
1000
0000
0100
0000
0010
0001
,  // measure 62
0010
0000
0001
0000
1000
0000
0010
0100
,  // measure 63
0002
0023
0230
1300
,  // measure 64
2002
0000
0000
3003
,  // measure 65
2000
0000
3002
0000
,  // measure 66
0203
0000
0300
0000
,  // measure 67
0002
0000
1003
0000
,  // measure 68
2002
0000
0000
3003
,  // measure 69
0002
0000
2003
0000
,  // measure 70
3200
0000
0300
0020
,  // measure 71
0000
0000
0000
0000
,  // measure 72
0000
0000
0030
0000
;

//---------------dance-single - KAYSTAR---------------
#NOTEDATA:;
#CHARTNAME:;
#CHARTSTYLE:;
#CREDIT:;
#STEPSTYPE:dance-single;
#DESCRIPTION:KAYSTAR;
#DIFFICULTY:Medium;
#METER:12;
#METERF:12;
#RADARVALUES:0,0,0,0,0;
#NOTES:
// measure 0
0000
0000
0000
0000
,  // measure 1
0000
0000
0000
0000
,  // measure 2
0000
0000
0000
0000
,  // measure 3
0000
0000
0000
0000
,  // measure 4
2000
0000
0000
3100
0020
0000
0031
0000
,  // measure 5
0002
0000
0000
0103
0020
0000
1030
0000
,  // measure 6
2000
0000
0000
3100
0020
0000
0031
0000
,  // measure 7
2002
0000
3003
0000
0001
0100
0010
1000
,  // measure 8
0100
0000
0000
0000
,  // measure 9
0000
0000
0000
0000
,  // measure 10
1000
0000
0000
1000
0000
0000
0000
0000
,  // measure 11
0001
0000
0000
0001
0000
0000
0000
0000
,  // measure 12
1000
0001
0010
0001
0100
0010
1000
0000
,  // measure 13
0001
1000
0100
1000
0010
0100
0001
0000
,  // measure 14
1000
0001
0010
0001
0100
0010
1000
0100
,  // measure 15
0020
0000
0000
0030
,  // measure 16
0001
0000
0100
0000
0010
0000
1000
0001
,  // measure 17
1000
0000
0100
0000
0010
0000
0001
1000
,  // measure 18
0001
0100
1000
0100
,  // measure 19
0001
0010
0100
2000
,  // measure 20
3002
0003
0000
0200
0300
0000
0020
0030
0000
2000
3000
0000
0002
0003
0000
2000
,  // measure 21
3000
0000
0200
0000
0300
0020
0000
0030
0002
0000
0003
2000
0000
3000
0002
0000
,  // measure 22
0203
0000
0000
0320
0000
0000
2030
0000
0000
3200
0000
0000
0320
0000
0030
0000
,  // measure 23
1001
0000
0000
0110
0000
0000
1001
0000
0001
0000
1000
0000
0001
0000
1000
0000
,  // measure 24
0020
0000
0000
0000
0130
0000
0001
0000
1000
0000
0000
0100
0000
0000
0001
0000
,  // measure 25
0200
0000
0000
0000
0310
0000
0000
0000
0001
0000
0000
0100
0000
0000
1000
0000
,  // measure 26
0200
0000
0000
0000
0310
0000
0000
0000
1000
0000
0000
0001
0000
0000
0010
0000
,  // measure 27
0001
0000
0000
1000
0000
0000
0010
0000
0100
0000
0000
0001
0000
0000
1000
0000
,  // measure 28
0200
0000
0000
0000
0310
0000
0001
0000
1000
0000
0000
0010
0000
0000
0001
0000
,  // measure 29
0020
0000
0000
0000
0130
0000
0000
0000
0001
0000
0000
0010
0000
0000
1000
0000
,  // measure 30
0020
0000
0130
0000
1000
0001
1000
0001
,  // measure 31
0200
0000
0000
0300
,  // measure 32
0101
0000
1000
2200
0000
3300
0000
1000
,  // measure 33
0010
0100
0100
0001
0010
0200
0000
1300
,  // measure 34
1100
0000
0001
0202
0000
0303
0000
0000
,  // measure 35
1001
0000
0110
0000
1000
0001
1000
0001
,  // measure 36
0010
0001
0100
0020
1000
0000
1030
0000
,  // measure 37
1000
0000
0100
0000
0100
0000
0010
0000
0001
0000
0000
1001
0000
0000
1000
0000
,  // measure 38
0010
1000
0100
0020
0001
0000
0031
0000
,  // measure 39
2002
0000
0000
3003
,  // measure 40
1001
0000
0000
0000
,  // measure 41
0000
0000
0000
0000
,  // measure 42
0000
0000
0000
0000
,  // measure 43
0000
0000
0000
0000
,  // measure 44
0001
0100
0001
0100
0001
0100
0001
0000
,  // measure 45
1000
0100
1000
0100
1000
0100
1000
0000
,  // measure 46
0001
0100
0010
1000
0100
0010
0001
0100
,  // measure 47
0020
0000
0030
0000
,  // measure 48
1000
0100
1000
0001
0100
0001
0010
0100
,  // measure 49
2100
0000
3001
0100
0020
0000
1030
0100
,  // measure 50
0001
0100
1000
0002
0000
0103
1000
0100
,  // measure 51
0001
0000
0010
0000
0100
0000
2000
0000
0000
0001
0000
3001
0000
0000
1001
0000
,  // measure 52
1000
0010
1000
0001
0010
0001
0100
0010
,  // measure 53
2010
0000
3001
0010
0200
0000
1300
0010
,  // measure 54
0001
0010
1000
0002
0000
0013
1000
0010
,  // measure 55
0001
0000
0000
0011
0000
0000
1000
0000
1100
0000
0000
0000
1001
0000
0000
0000
,  // measure 56
0001
0100
0010
1000
0001
0010
0001
1000
,  // measure 57
1000
0010
0100
0001
1000
0100
1000
0001
,  // measure 58
0001
0100
0010
1000
0100
0001
0100
1000
,  // measure 59
1000
0000
0010
0000
0100
0000
0000
0002
0000
1000
0000
1003
0000
0000
1001
0000
,  // measure 60
0001
0010
0001
0010
0001
0010
0001
0000
,  // measure 61
1000
0010
1000
0010
1000
0010
1000
0000
,  // measure 62
0001
0010
0001
0100
0010
1000
0100
1000
,  // measure 63
0001
0100
1000
0001
1000
0001
0010
1000
,  // measure 64
0002
0000
0000
0003
,  // measure 65
2000
0000
3200
0000
,  // measure 66
0320
0000
0030
0000
,  // measure 67
0002
0000
1003
0000
,  // measure 68
2002
0000
0000
3003
,  // measure 69
0002
0000
0203
0000
,  // measure 70
0320
0000
0000
0000
0000
0000
0000
0000
0030
0000
0000
0000
1000
0000
0000
0001
,  // measure 71
0000
0000
0010
0000
0000
0001
0000
0000
1000
0000
0000
0020
0000
0000
0000
0000
,  // measure 72
0000
0000
0030
0000
;

//---------------dance-single - KAYSTAR---------------
#NOTEDATA:;
#CHARTNAME:;
#CHARTSTYLE:;
#CREDIT:;
#STEPSTYPE:dance-single;
#DESCRIPTION:KAYSTAR;
#DIFFICULTY:Hard;
#METER:15;
#METERF:15;
#RADARVALUES:0,0,0,0,0;
#NOTES:
// measure 0
0000
0000
0000
0000
,  // measure 1
0000
0000
0000
0000
,  // measure 2
0000
0000
0000
0000
,  // measure 3
0000
0000
0000
0000
,  // measure 4
0001
0000
0000
0001
0000
0000
0001
0000
0200
0000
0000
0000
0310
0000
0000
0000
,  // measure 5
1000
0000
0000
1000
0000
0000
1000
0000
0200
0000
0000
0000
0310
0000
0000
0000
,  // measure 6
0001
0000
0000
0100
0000
0000
0001
0000
1000
0000
0000
0010
0000
0000
1000
0000
,  // measure 7
2002
0000
0000
0000
3003
0000
0000
0000
0001
1000
0001
1000
0001
1000
0001
1000
,  // measure 8
0100
0000
0000
0000
,  // measure 9
0000
0000
0000
0000
,  // measure 10
1000
0000
0000
1000
0000
0000
0000
0000
,  // measure 11
0001
0000
0000
0000
0000
0000
0001
0000
0000
1000
0010
1000
0010
0100
0001
0100
,  // measure 12
0001
0000
1000
0001
0010
0000
0100
0000
1000
0010
0000
0010
0100
0000
0001
0000
,  // measure 13
0010
0000
0001
1000
0010
0000
0100
0000
0001
0010
0000
0010
0100
0000
1000
0001
,  // measure 14
1000
0000
0010
0000
0100
0000
0001
0000
1000
0001
1000
0001
1000
0001
1000
0001
,  // measure 15
0020
0000
0000
0100
0000
0000
1030
0000
0020
0000
0000
0100
0000
0000
0031
0000
,  // measure 16
1000
0010
0100
0001
1000
0010
0100
0002
,  // measure 17
0000
0013
0100
1000
0010
0100
0001
2002
,  // measure 18
3003
1000
0100
0010
0001
0010
0100
1000
,  // measure 19
0001
0100
0010
1000
0100
0010
0002
0000
,  // measure 20
2003
3000
0000
0020
0030
0000
2000
3000
0000
0002
0003
0000
0200
0300
0000
0002
,  // measure 21
0003
0000
0020
0000
0030
0200
0000
0300
2000
0000
3000
0020
0000
0030
0200
0000
,  // measure 22
2300
0000
0000
3002
0000
0000
0023
0000
0000
0230
0000
0000
0301
0000
1000
0001
,  // measure 23
1000
0000
0000
1100
0000
0000
0011
0000
0000
0001
0100
0001
0100
0010
1000
0010
,  // measure 24
2000
0000
0000
0000
3001
0000
1000
0001
0010
0000
0000
0100
0000
0000
1000
0100
,  // measure 25
2000
0000
0000
0000
3000
0000
0001
1000
0010
0000
0000
0100
0000
0000
0001
0100
,  // measure 26
0002
0000
0000
0000
0003
0000
1000
0100
0010
0000
0000
0001
0000
0000
0100
0010
,  // measure 27
0100
0000
0000
1000
0000
0000
0100
0010
0100
0000
0000
0001
0000
0000
1000
0100
,  // measure 28
0010
0000
0010
0000
0001
0000
1000
0000
0010
0000
0010
0000
1000
0000
0001
0010
,  // measure 29
0100
0100
1000
0001
0100
0100
0001
1000
,  // measure 30
0100
1000
0100
0000
0010
0001
0010
0000
0001
1000
0001
1000
0001
1000
0010
0000
,  // measure 31
0100
0001
1000
0000
0100
0010
0000
0001
0000
0000
1000
0010
0000
0010
0100
0000
,  // measure 32
0101
0000
0001
0000
1000
0000
1200
0000
0000
0000
0000
0000
0300
0000
0010
0001
,  // measure 33
1000
0000
0010
0000
0010
0000
1000
0000
0100
0000
0002
0000
0000
0000
0103
0010
,  // measure 34
0100
0000
1000
0000
0001
0000
0201
0000
0000
0000
0000
0000
0300
0000
0010
1000
,  // measure 35
0001
0000
0000
0000
1001
0000
0000
0000
0000
1000
0100
1000
0100
0010
0001
0010
,  // measure 36
0002
1003
0010
0002
1003
0100
0001
1000
,  // measure 37
0100
0000
0001
0000
0001
0000
0000
0000
0110
0000
0000
1001
0000
0000
1000
0001
,  // measure 38
2000
3010
0001
2000
3100
0001
1000
0000
,  // measure 39
2002
0000
0000
3003
,  // measure 40
1001
0000
0000
0000
,  // measure 41
0000
0000
0000
0000
,  // measure 42
0000
0000
0000
0000
,  // measure 43
0000
0000
0000
0000
,  // measure 44
1100
0000
0000
1000
0001
0000
0010
0000
0001
0000
0100
0010
1000
0000
0001
0000
,  // measure 45
0011
0000
0000
0001
1000
0000
0100
0000
1000
0000
0010
0100
0001
0000
1000
0000
,  // measure 46
0001
1000
0001
1000
0001
1000
0001
1000
0001
1000
0001
1000
0100
0010
0001
1000
,  // measure 47
0020
0000
0000
0000
0000
0000
0000
0000
0130
0000
0000
0100
0000
0000
0100
0000
,  // measure 48
0001
1000
0100
0000
1000
0000
0010
1000
0010
0000
0100
0000
0001
0000
1000
0100
,  // measure 49
0010
0000
1000
0000
0001
0000
0100
0010
0001
0000
1000
0010
0000
0010
0100
0000
,  // measure 50
0001
0000
1000
0000
0100
0000
0001
0000
0100
0000
1000
0001
1000
0001
1000
0000
,  // measure 51
0010
0000
0100
0000
0001
0000
1000
0000
0000
1100
0000
0011
0000
0000
1001
0000
,  // measure 52
1000
0001
0100
0000
0001
0000
0010
0001
0010
0000
0100
1000
0001
0000
0100
0010
,  // measure 53
0001
0000
1000
0000
0001
0000
1000
0100
0010
0000
1000
0001
0000
0001
0010
0000
,  // measure 54
0200
0000
0001
0000
0010
0000
2300
0000
0000
0000
3001
0100
0010
1000
0001
0000
,  // measure 55
0011
0000
0000
1100
0000
0000
1001
0000
1001
0000
0000
0000
0110
0000
0000
0000
,  // measure 56
1000
0000
0001
0100
0001
1000
0010
1000
0001
0010
0100
0010
0001
0000
1000
0010
,  // measure 57
0100
0000
0001
1000
0001
1000
0100
0010
0001
0010
0100
1000
0001
0000
0100
0010
,  // measure 58
1000
0000
0001
0010
0001
1000
0100
1000
0001
0100
0010
0100
0001
0000
1000
0100
,  // measure 59
0010
0000
0001
0000
1000
0010
0100
0001
0000
0011
0000
1100
0000
0000
1001
0000
,  // measure 60
1000
0000
1000
0000
0010
0000
0100
0000
0001
0000
0001
0000
1000
0000
0100
0010
,  // measure 61
0001
0000
1000
0000
0010
0000
0100
0001
1000
0000
0100
1000
0001
0000
0100
0010
,  // measure 62
1000
0001
0010
0001
1000
0100
1000
0001
0100
0010
1000
0001
1000
0100
0010
0001
,  // measure 63
1000
0001
1000
0001
1000
0001
1000
0001
1000
0001
1000
0001
0100
0010
1000
0001
,  // measure 64
0010
0000
0000
0000
,  // measure 65
0002
0000
0203
0000
,  // measure 66
0320
0000
0030
0000
,  // measure 67
2000
0000
3001
0000
,  // measure 68
2002
0000
0000
3003
,  // measure 69
2000
0000
3200
0000
,  // measure 70
0320
0000
0000
0000
0000
0000
0000
0000
0030
0000
0000
0000
0001
0000
0000
0100
,  // measure 71
0000
0000
1000
0000
0000
0001
0000
0000
0010
0000
0000
2000
0000
0000
0000
0000
,  // measure 72
0000
0000
3000
0000
;

//---------------dance-double - KAYSTAR---------------
#NOTEDATA:;
#CHARTNAME:;
#CHARTSTYLE:;
#CREDIT:KAYSTAR;
#STEPSTYPE:dance-double;
#DESCRIPTION:KAYSTAR;
#DIFFICULTY:Easy;
#METER:8;
#METERF:8;
#RADARVALUES:0,0,0,0,0;
#NOTES:
// measure 0
00000000
00000000
00000000
00000000
,  // measure 1
00000000
00000000
00000000
00000000
,  // measure 2
00000000
00000000
00000000
00000000
,  // measure 3
00000000
00000000
00000000
00000000
,  // measure 4
10000000
00000000
10000000
00000000
,  // measure 5
00010000
00000000
00010000
00000000
,  // measure 6
00100000
00000000
00001000
00000000
,  // measure 7
00022000
00000000
00000000
00000000
,  // measure 8
00033000
00000000
00000000
00000000
,  // measure 9
00000000
00000000
00000000
00000000
,  // measure 10
00000000
00000000
00000000
00000000
,  // measure 11
00000000
00000000
00000000
00000000
,  // measure 12
00010000
00000100
00001000
00001000
,  // measure 13
00000001
00000100
00000010
00000010
,  // measure 14
00010000
00001000
01000000
01000000
,  // measure 15
00020000
00000000
00000000
00030000
,  // measure 16
10000000
00010000
00100000
00001000
,  // measure 17
01000000
00010000
10000000
01000000
,  // measure 18
00100000
00001000
00010000
00001000
,  // measure 19
00000100
00001000
00010000
00000200
,  // measure 20
00002300
00000000
00003002
00000000
,  // measure 21
00000203
00000000
00002300
00000000
,  // measure 22
00023000
00000000
00031000
00000000
,  // measure 23
00022000
00000000
00033000
00000000
,  // measure 24
00001000
00000000
00010000
00001000
00010000
00000000
00001000
00000000
,  // measure 25
01000000
00000000
00010000
10000000
00010000
00000000
10000000
00000000
,  // measure 26
01000000
00000000
00100000
00010000
00100000
00000000
00001000
00000000
,  // measure 27
00020000
00000000
00031000
00000000
,  // measure 28
00010000
00000000
00001000
00010000
00001000
00000000
00010000
00000000
,  // measure 29
00000100
00000000
00001000
00000001
00001000
00000000
00000001
00000000
,  // measure 30
00000100
00000000
00000010
00001000
00000010
00000000
00010000
00000000
,  // measure 31
00002000
00000000
00000000
00003000
,  // measure 32
00011000
00000000
00000000
02200000
00000000
00000000
03300000
00000000
,  // measure 33
10000000
00010000
00100000
00000000
,  // measure 34
00011000
00000000
00000000
00000220
00000000
00000000
00000330
00000000
,  // measure 35
00000001
00001000
00000010
00000000
,  // measure 36
00010000
00000000
00001000
00010000
00001000
00000000
00010000
00000000
,  // measure 37
01000000
00010000
00001000
00000100
,  // measure 38
00001000
00000000
00010000
00001000
00010000
00000000
00001000
00000000
,  // measure 39
00022000
00000000
00000000
00033000
,  // measure 40
00011000
00000000
00000000
00000000
,  // measure 41
00000000
00000000
00000000
00000000
,  // measure 42
00000000
00000000
00000000
00000000
,  // measure 43
00000000
00000000
00000000
00000000
,  // measure 44
00001000
01000000
00010000
00010000
,  // measure 45
10000000
01000000
00100000
00100000
,  // measure 46
00002000
00000000
00013000
00000000
,  // measure 47
00022000
00000000
00033000
00000000
,  // measure 48
00010000
00000000
00001000
00010000
00000100
00000000
00001000
00000000
,  // measure 49
00000002
00000000
00000103
00000100
,  // measure 50
00001000
00000000
00010000
00001000
00010000
00000000
01000000
00000000
,  // measure 51
00100000
00002000
00020000
00033000
,  // measure 52
00001000
00000000
00010000
00001000
01000000
00000000
00010000
00000000
,  // measure 53
20000000
00000000
31000000
01000000
,  // measure 54
00100000
00000000
00001000
00010000
00100000
00000000
00010000
00000000
,  // measure 55
00011000
00011000
00022000
00033000
,  // measure 56
00001000
00000000
00010000
00000000
00000100
00000000
00001000
00000100
,  // measure 57
00000010
00000000
00000001
00000000
00001000
00000000
00000010
00010000
,  // measure 58
00001000
00000000
01000000
00000000
00010000
00000000
10000000
01000000
,  // measure 59
00100000
00002000
00020000
00033000
,  // measure 60
00010000
00000000
00001000
00000000
01000000
00000000
00010000
01000000
,  // measure 61
00100000
00000000
10000000
00000000
00010000
00000000
00100000
00001000
,  // measure 62
00010000
00000000
00000100
00000000
00001000
00000000
00000001
00000100
,  // measure 63
00000020
00000230
00002300
00013000
,  // measure 64
00022000
00000000
00000000
00033000
,  // measure 65
00002000
00000000
02003000
00000000
,  // measure 66
03020000
00000000
00030000
00000000
,  // measure 67
20000000
00000000
30010000
00000000
,  // measure 68
20020000
00000000
00000000
30030000
,  // measure 69
20000000
00000000
32000000
00000000
,  // measure 70
03200000
00000000
00300000
00002000
,  // measure 71
00000000
00000000
00000000
00000000
,  // measure 72
00000000
00000000
00003000
00000000
;

//---------------dance-double - KAYSTAR---------------
#NOTEDATA:;
#CHARTNAME:;
#CHARTSTYLE:;
#CREDIT:KAYSTAR;
#STEPSTYPE:dance-double;
#DESCRIPTION:KAYSTAR;
#DIFFICULTY:Medium;
#METER:12;
#METERF:12;
#RADARVALUES:0,0,0,0,0;
#NOTES:
// measure 0
00000000
00000000
00000000
00000000
,  // measure 1
00000000
00000000
00000000
00000000
,  // measure 2
00000000
00000000
00000000
00000000
,  // measure 3
00000000
00000000
00000000
00000000
,  // measure 4
00002000
00000000
00000000
01003000
00020000
00000000
10030000
00000000
,  // measure 5
02000000
00000000
00000000
03100000
00002000
00000000
00013000
00000000
,  // measure 6
00000200
00000000
00000000
00000310
00000002
00000000
00001003
00000000
,  // measure 7
00002002
00000000
00003003
00000000
00000001
00000100
00000010
00001000
,  // measure 8
00000100
00000000
00000000
00000000
,  // measure 9
00000000
00000000
00000000
00000000
,  // measure 10
00010000
00000000
00000000
00010000
00000000
00000000
00000000
00000000
,  // measure 11
00001000
00000000
00000000
00001000
00000000
00000000
00000000
00000000
,  // measure 12
00010000
00001000
01000000
00010000
01000000
00001000
00010000
00000000
,  // measure 13
00001000
00010000
00000100
00001000
00000100
00010000
00001000
00000000
,  // measure 14
00010000
00001000
00010000
00001000
01000000
00010000
10000000
01000000
,  // measure 15
00200000
00000000
00000000
00300000
,  // measure 16
00001000
00000000
00001000
00000000
00001000
00000000
00010000
00000100
,  // measure 17
00001000
00000000
00001000
00000000
00001000
00000000
00000001
00000100
,  // measure 18
00001000
00010000
00000100
00001000
,  // measure 19
00000001
00000100
00000010
00020000
,  // measure 20
00032000
00003000
00000000
02000000
03000000
00000000
00020000
00030000
00000000
20000000
30000000
00000000
02000000
03000000
00000000
00200000
,  // measure 21
00300000
00000000
00002000
00000000
00003000
00020000
00000000
00030000
00000200
00000000
00000300
00002000
00000000
00003000
00000002
00000000
,  // measure 22
00000203
00000000
00000000
00000320
00000000
00000000
00002030
00000000
00000000
00003200
00000000
00000000
00020300
00000000
00030000
00000000
,  // measure 23
00011000
00000000
00000000
00011000
00000000
00000000
00022000
00000000
00000000
00000000
00000000
00000000
00033000
00000000
00000000
00000000
,  // measure 24
00002000
00000000
00000000
00000000
00013000
00000000
00000000
00000000
01000000
00000000
00000000
00100000
00000000
00000000
00001000
00000000
,  // measure 25
00020000
00000000
00000000
00000000
00031000
00000000
00000000
00000000
00000100
00000000
00000000
00000010
00000000
00000000
00010000
00000000
,  // measure 26
00002000
00000000
00000000
00000000
00013000
00000000
00000000
00000000
01000000
00000000
00000000
00100000
00000000
00000000
00001000
00000000
,  // measure 27
00010000
00000000
00000000
00000100
00000000
00000000
00001000
00000000
00000001
00000000
00000000
00000100
00000000
00000000
00001000
00000000
,  // measure 28
00020000
00000000
00000000
00000000
00031000
00000000
00000000
00000000
00000010
00000000
00000000
00000100
00000000
00000000
00010000
00000000
,  // measure 29
00002000
00000000
00000000
00000000
00013000
00000000
00000000
00000000
00100000
00000000
00000000
01000000
00000000
00000000
00001000
00000000
,  // measure 30
00020000
00000000
00031000
00000000
00000010
00000100
00000010
00000100
,  // measure 31
00002000
00000000
00000000
00003000
,  // measure 32
00000101
00000000
00001000
00022000
00000000
00033000
00000000
00010000
,  // measure 33
00001000
01000000
01000000
00010000
01000000
00200000
00000000
10300000
,  // measure 34
11000000
00000000
00010000
00022000
00000000
00033000
00000000
00001000
,  // measure 35
00020000
00031000
00022000
00033000
,  // measure 36
00010000
00000100
00001000
00000002
00000000
00000103
00001000
00010000
,  // measure 37
00000000
00000000
00000100
00000000
00000100
00000000
00001000
00000000
00000001
00000000
00000000
00001001
00000000
00000000
00001000
00000000
,  // measure 38
00000010
00010000
00001000
02000000
00000000
03010000
10000000
00000000
,  // measure 39
20020000
00000000
00000000
30030000
,  // measure 40
10010000
00000000
00000000
00000000
,  // measure 41
00000000
00000000
00000000
00000000
,  // measure 42
00000000
00000000
00000000
00000000
,  // measure 43
00000000
00000000
00000000
00000000
,  // measure 44
10000000
01000000
10000000
01000000
10000000
01000000
10000000
00000000
,  // measure 45
00010000
01000000
00010000
01000000
00010000
01000000
00010000
00000000
,  // measure 46
10000000
01000000
00100000
01000000
00100000
00001000
00010000
00000000
,  // measure 47
00022000
00000000
00033000
00000000
,  // measure 48
00010000
00000100
00001000
00000001
00000100
00000001
00000010
00000100
,  // measure 49
00002100
00000000
00003001
00000100
00000020
00000000
00010030
00001000
,  // measure 50
00000010
00001000
00010000
00000020
00000000
00001030
00010000
01000000
,  // measure 51
00001000
00000000
00010000
00000000
00001000
00000000
00020000
00000000
00000000
00001000
00000000
00031000
00000000
00000000
00011000
00000000
,  // measure 52
00001000
00100000
00010000
10000000
00100000
10000000
01000000
00100000
,  // measure 53
00120000
00000000
10030000
00100000
02000000
00000000
03001000
00010000
,  // measure 54
01000000
00010000
00001000
02000000
00000000
03010000
00001000
00000010
,  // measure 55
00020000
00000000
00000000
00001000
00000000
00000000
00001000
00000000
00031000
00000000
00000000
00000000
00011000
00000000
00000000
00000000
,  // measure 56
00010000
00000100
00001000
00000100
00000010
00000001
00001000
00000010
,  // measure 57
00000010
00010000
00001000
01000000
00010000
10000000
01000000
00100000
,  // measure 58
00100000
00001000
00010000
00100000
00010000
00001000
00010000
00000100
,  // measure 59
00000100
00000000
00000010
00000000
00000001
00000000
00000000
00001001
00000000
00001001
00000000
00001001
00000000
00000000
00000110
00000000
,  // measure 60
00000001
00000100
00000001
00000100
00000001
00000100
00000001
00000000
,  // measure 61
00001000
00000100
00001000
00000100
00001000
00000100
00001000
00000000
,  // measure 62
00000001
00000100
00000010
00010000
00001000
01000000
00100000
10000000
,  // measure 63
00010000
00100000
00010000
00001000
00000100
00001000
00000001
00000000
,  // measure 64
00002002
00000000
00000000
00003003
,  // measure 65
00000002
00000000
00002003
00000000
,  // measure 66
00003020
00000000
00000030
00000000
,  // measure 67
00020000
00000000
00031000
00000000
,  // measure 68
00022000
00000000
00000000
00033000
,  // measure 69
00002000
00000000
02003000
00000000
,  // measure 70
03020000
00000000
00000000
00000000
00000000
00000000
00000000
00000000
00030000
00000000
00000000
00000000
10000000
00000000
00000000
01000000
,  // measure 71
00000000
00000000
00100000
00000000
00000000
00010000
00000000
00000000
01000000
00000000
00000000
00002000
00000000
00000000
00000000
00000000
,  // measure 72
00000000
00000000
00003000
00000000
;

//---------------dance-double - KAYSTAR---------------
#NOTEDATA:;
#CHARTNAME:;
#CHARTSTYLE:;
#CREDIT:KAYSTAR;
#STEPSTYPE:dance-double;
#DESCRIPTION:KAYSTAR;
#DIFFICULTY:Hard;
#METER:15;
#METERF:15;
#RADARVALUES:0,0,0,0,0;
#NOTES:
// measure 0
00000000
00000000
00000000
00000000
,  // measure 1
00000000
00000000
00000000
00000000
,  // measure 2
00000000
00000000
00000000
00000000
,  // measure 3
00000000
00000000
00000000
00000000
,  // measure 4
10000000
00000000
00000000
00010000
00000000
00000000
00100000
00000000
00002000
00000000
00000000
00000000
00013000
00000000
00000000
00000000
,  // measure 5
00001000
00000000
00000000
00010000
00000000
00000000
00000100
00000000
00002000
00000000
00000000
00000000
00003001
00000000
00000000
00000000
,  // measure 6
00001000
00000000
00000000
00000010
00000000
00000000
00010000
00000000
00001000
00000000
00000000
01000000
00000000
00000000
00010000
00000000
,  // measure 7
20020000
00000000
00000000
00000000
30030000
00000000
00000000
00000000
10000000
00010000
10000000
00010000
10000000
00010000
10000000
00010000
,  // measure 8
00100000
00000000
00000000
00000000
,  // measure 9
00000000
00000000
00000000
00000000
,  // measure 10
00001000
00000000
00000000
00001000
00000000
00000000
00000000
00000000
,  // measure 11
00010000
00000000
00000000
00000000
00000000
00000000
00010000
00000000
00000000
00001000
00010000
00001000
00010000
00001000
00010000
00000000
,  // measure 12
00000100
00000000
00001000
00000100
00000010
00000000
00000001
00000000
00001000
00000010
00000000
00000010
00010000
00000000
00001000
00000000
,  // measure 13
01000000
00000000
00010000
01000000
00100000
00000000
10000000
00000000
00010000
00100000
00000000
00100000
00001000
00000000
00010000
00001000
,  // measure 14
00010000
00000000
00010000
00000000
00000100
00000000
00001000
00000000
00000001
00001000
00000001
00001000
00000001
00001000
00000001
00001000
,  // measure 15
00000020
00000000
00000000
00000100
00000000
00000000
00000031
00000000
00000020
00000000
00000000
00000100
00000000
00000000
00001030
00000000
,  // measure 16
00000001
00000010
00000100
00001000
00000010
00000100
00001000
00020000
,  // measure 17
00000000
00031000
00010000
00001000
00010000
00001000
00010000
00022000
,  // measure 18
00033000
00001000
00010000
00100000
01000000
00010000
00100000
01000000
,  // measure 19
10000000
00100000
01000000
00010000
00100000
00001000
00020000
00000000
,  // measure 20
00030200
00000300
00000000
00002000
00003000
00000000
00000002
00000003
00000000
00000200
00000300
00000000
00002000
00003000
00000000
00020000
,  // measure 21
00030000
00000000
00000200
00000000
00000300
00000020
00000000
00000030
00000200
00000000
00000300
00020000
00000000
00030000
00002000
00000000
,  // measure 22
02003000
00000000
00000000
23000000
00000000
00000000
32000000
00000000
00000000
03020000
00000000
00000000
10030000
00000000
00010000
00100000
,  // measure 23
00001000
00000000
00000000
00011000
00000000
00000000
00011000
00000000
00000000
00001000
00010000
00001000
00010000
00001000
00010000
00000000
,  // measure 24
00002000
00000000
00000000
00000000
00013000
00000000
00000100
00001000
00000001
00000000
00000000
00000100
00000000
00000000
00000010
00010000
,  // measure 25
00002000
00000000
00000000
00000000
00003000
00000000
01000000
00010000
10000000
00000000
00000000
01000000
00000000
00000000
00100000
00001000
,  // measure 26
00020000
00000000
00000000
00000000
00030000
00000000
00000100
00001000
00000001
00000000
00000000
00000100
00000000
00000000
00000010
00000100
,  // measure 27
00001000
00000000
00000000
00000100
00000000
00000000
00000010
00000100
00001000
00000000
00000000
00000100
00000000
00000000
00000010
00010000
,  // measure 28
00001000
00000000
00001000
00000000
01000000
00000000
00010000
00000000
10000000
00000000
10000000
00000000
01000000
00000000
00100000
00001000
,  // measure 29
00010000
00010000
00000100
00001000
00000001
00000001
00000100
00001000
,  // measure 30
00010000
00001000
00010000
00001000
00010000
00001000
00010000
00000000
00001000
00010000
00001000
00010000
00001000
00010000
00001000
00000000
,  // measure 31
01000000
00010000
10000000
00000000
01000000
00100000
00000000
00010000
00000000
00000000
01000000
00100000
00000000
00100000
10000000
00000000
,  // measure 32
10010000
00000000
00010000
00000000
00100000
00000000
00012000
00000000
00000000
00000000
00000000
00000000
00003000
00000000
00010000
00000100
,  // measure 33
00001000
00000001
00000001
00000100
00001000
00020000
00000000
00031000
,  // measure 34
00011000
00000000
00010000
00000000
00000100
00000000
00001002
00000000
00000000
00000000
00000000
00000000
00000003
00000000
00001000
00000010
,  // measure 35
00010000
00000000
00000000
00000000
00011000
00000000
00000000
00000000
00000000
00001000
00010000
00001000
00010000
00001000
00010000
00000000
,  // measure 36
00001000
01000000
10000000
00010000
00100000
01000000
00010000
10000000
,  // measure 37
01000000
00000000
00100000
00000000
00100000
00000000
00001000
00000000
00011000
00000000
00000000
00011000
00000000
00000000
00010000
00001000
,  // measure 38
00010000
00001000
00000100
00000001
00000010
00000100
00010000
00000000
,  // measure 39
00022000
00000000
00000000
00033000
,  // measure 40
00011000
00000000
00000000
00000000
,  // measure 41
00000000
00000000
00000000
00000000
,  // measure 42
00000000
00000000
00000000
00000000
,  // measure 43
00000000
00000000
00000000
00000000
,  // measure 44
00011000
00000000
00000000
00001000
01000000
00000000
01000000
00000000
00010000
00000000
00100000
00001000
00010000
00000000
00001000
00000000
,  // measure 45
00011000
00000000
00000000
00010000
00000100
00000000
00000100
00000000
00001000
00000000
00000010
00010000
00001000
00000000
00010000
00000000
,  // measure 46
00001000
00010000
00001000
00010000
00001000
00010000
00001000
00010000
00001000
00010000
00001000
00010000
00001000
00010000
00001000
00000000
,  // measure 47
00022000
00000000
00033000
00000000
,  // measure 48
00010000
00000100
00001000
00000000
00000001
00000000
00000100
00000001
00000100
00000000
00000010
00000000
00010000
00000000
00001000
00010000
,  // measure 49
00100000
00000000
00010000
00000000
00001000
00000000
00010000
00001000
00100000
00000000
00010000
00100000
00000000
00100000
01000000
00000000
,  // measure 50
10000000
00000000
00010000
00000000
01000000
00000000
00001000
00000000
00010000
00000000
00000100
00001000
00000100
00000010
00000001
00000000
,  // measure 51
00001000
00000000
00000010
00000000
00010000
00000000
00001000
00000000
00000000
00011000
00000000
00011000
00000000
00000000
00011000
00000000
,  // measure 52
00001000
00100000
00010000
00000000
10000000
00000000
00100000
10000000
00100000
00000000
01000000
00001000
00010000
00000000
00001000
00000000
,  // measure 53
00000010
00000000
00001000
00000000
00010000
00000000
00001000
00010000
00100000
00000000
00010000
00001000
00000000
00001000
00010000
00000000
,  // measure 54
00000100
00000000
00000001
00000000
00000100
00000000
00001000
00000000
00000001
00000000
00000100
00000001
00000100
00000010
00001000
00000000
,  // measure 55
00001100
00000000
00000000
00000011
00000000
00000000
00001001
00000000
00001001
00000000
00000000
00000000
00000110
00000000
00000000
00000000
,  // measure 56
00000001
00000000
00000100
00000001
00000100
00000010
00001000
00000000
00000100
00010000
00000100
00010000
00001000
00000000
00100000
00010000
,  // measure 57
10000000
00000000
00100000
10000000
00100000
01000000
00010000
00000000
00100000
00001000
00100000
00001000
00010000
00000000
00000100
00001000
,  // measure 58
00000001
00000000
00000100
00001000
00000100
00001000
00010000
00000000
00001000
00010000
00001000
00010000
00100000
00000000
01000000
00010000
,  // measure 59
10000000
00000000
01000000
00000000
00100000
00010000
00100000
00001000
00000000
00011000
00000000
00011000
00000000
00000000
00011000
00000000
,  // measure 60
00010000
00000000
00010000
00000000
00000100
00000000
00001000
00000000
00000001
00000000
00000001
00000000
00000100
00000000
00000010
00010000
,  // measure 61
00001000
00000000
00010000
00000000
00001000
00000000
01000000
00010000
01000000
00000000
00100000
10000000
00100000
00000000
10000000
00000000
,  // measure 62
00010000
00100000
00010000
00100000
00001000
00010000
00000100
00000000
00001000
00000010
00001000
00000010
00010000
00001000
01000000
00000000
,  // measure 63
00001000
00010000
00001000
00010000
00001000
00010000
00001000
00010000
00001000
00010000
00000100
00001000
00000100
00000010
00000100
00000010
,  // measure 64
00000001
00000000
00000000
00000000
,  // measure 65
00000002
00000000
00002003
00000000
,  // measure 66
00003020
00000000
00000030
00000000
,  // measure 67
00020000
00000000
00031000
00000000
,  // measure 68
00022000
00000000
00000000
00033000
,  // measure 69
00002000
00000000
02003000
00000000
,  // measure 70
03020000
00000000
00000000
00000000
00000000
00000000
00000000
00000000
00030000
00000000
00000000
00000000
10000000
00000000
00000000
01000000
,  // measure 71
00000000
00000000
00010000
00000000
00000000
00001000
00000000
00000000
00000010
00000000
00000000
00000002
00000000
00000000
00000000
00000000
,  // measure 72
00000000
00000000
00000003
00000000
;
