#VERSION:0.83;
#TITLE:Our Faith;
#SUBTITLE:;
#ARTIST:kors k;
#TITLETRANSLIT:;
#SUBTITLETRANSLIT:;
#ARTISTTRANSLIT:;
#GENRE:;
#CREDIT:;
#MUSIC:Our Faith.ogg;
#BANNER:our faith-bn.png;
#BACKGROUND:b4u-bg.png;
#CDTITLE:;
#SAMPLESTART:55.509;
#SAMPLELENGTH:15.000;
#SELECTABLE:YES;
#OFFSET:0.719;
#BPMS:0.000=175.000
,68.000=87.500
,100.000=175.000
;
#STOPS:;
#SPEEDS:0.000=1.000=0.000=0;
#SCROLLS:0.000=1.000;
#TICKCOUNTS:0.000=4;
#TIMESIGNATURES:0.000=4=4;
#LABELS:0.000=Song Start;
#COMBOS:0.000=1;
#JACKET:;
#DISCIMAGE:;
#CDIMAGE:;
#PREVIEWVID:;
#BGCHANGES:;
#FGCHANGES:;

//--------------- dance-single - NewbStepper ----------------
#NOTEDATA:;
#STEPSTYPE:dance-single;
#DESCRIPTION:NewbStepper;
#DIFFICULTY:Beginner;
#METER:4;
#RADARVALUES:0.160483,0.247525,0.076161,0.076161,0,118,110,8,8,0,0,0,0,0,0.160483,0.247525,0.076161,0.076161,0,118,110,8,8,0,0,0,0,0;
#CHARTNAME:;
#CHARTSTYLE:;
#CREDIT:NewbStepper;
#METERF:4;
#NOTES:
0000
0000
0000
0000
,
0000
0000
0000
0000
,
0000
0000
0000
0000
,
0000
0000
0000
0000
,
0000
0000
0000
0000
,
1000
0000
1000
0000
,
0001
0000
0001
0000
,
0200
0000
0000
0000
,
0300
0000
0000
0000
,
1001
0000
0000
0000
,
0001
0001
0001
0000
,
1001
0000
0000
0000
,
1000
1000
1000
0000
,
1001
0000
0000
0000
,
0001
0001
0001
0000
,
1001
0000
0000
0000
,
1000
1000
1000
0000
,
0020
0000
0000
0000
,
0000
0000
0030
0000
,
0200
0000
0000
0000
,
0000
0000
0300
0000
,
0001
0000
0000
0000
,
1000
0000
0000
0000
,
0001
1000
0001
1000
,
0002
0000
0000
0003
,
1000
0000
0000
0000
,
1000
0000
0000
0000
,
0001
0000
0000
0000
,
0001
0000
0000
0000
,
0010
0010
0010
0000
,
0100
0100
0100
0000
,
0010
0010
0010
0010
,
0020
0000
0030
0000
,
0001
0000
0001
0000
,
0100
0000
0100
0000
,
0010
0000
0010
0000
,
1000
0000
1000
0000
,
0001
0000
0001
0000
,
0010
0000
0010
0000
,
0100
0000
0100
0000
,
1000
0000
1000
0000
,
0010
0000
0010
0000
,
1000
0000
1000
0000
,
0001
0000
0001
0000
,
0010
0000
0010
0000
,
0001
0000
1000
0000
,
0001
0000
1000
0000
,
1001
0000
0000
0000
,
0000
0000
0000
0000
,
0001
0001
0001
0000
,
1000
1000
1000
0000
,
0020
0000
0000
0000
,
0200
0000
0330
0000
,
1000
1000
1000
0000
,
0001
0001
0001
0000
,
0200
0000
0310
0000
,
0110
0000
0000
0000
,
0000
0000
0000
0000
,
0000
1001
0000
0000
,
0001
1000
0001
0000
,
1000
0001
1000
0000
,
0010
0100
0010
0000
,
0100
0010
0100
0000
,
1000
0001
1000
0001
,
0100
0000
0000
0000
,
1001
0000
0000
0000
;

//--------------- dance-single - NewbStepper ----------------
#NOTEDATA:;
#STEPSTYPE:dance-single;
#DESCRIPTION:NewbStepper;
#DIFFICULTY:Easy;
#METER:9;
#RADARVALUES:0.356327,0.556931,0.428408,0.247525,0.00952,262,217,45,26,0,0,0,0,0,0.356327,0.556931,0.428408,0.247525,0.00952,262,217,45,26,0,0,0,0,0;
#CHARTNAME:;
#CHARTSTYLE:;
#CREDIT:NewbStepper;
#METERF:9;
#NOTES:
0000
0000
0000
0000
,
0000
0000
0000
0000
,
0000
0000
0000
0000
,
0000
0000
0000
0000
,
0000
0000
0000
0000
,
1000
1000
1000
1000
,
0001
0001
0001
0001
,
0200
0000
0000
0300
,
1001
0000
0000
0000
,
1001
0000
0000
0001
0001
0000
0100
0000
,
0010
0010
1000
0001
,
1001
0000
0000
1000
1000
0000
0100
0000
,
0010
0010
0001
0100
,
0110
0000
0000
0010
0010
0000
1000
0001
,
1000
1000
0001
0001
,
0100
0010
0100
0010
0100
0000
0010
0000
,
2002
0000
0000
3003
,
1000
0100
0010
0001
,
2000
0000
0002
3003
,
0001
0100
0010
1000
,
0002
0000
2000
3003
,
0001
0100
1000
0010
,
0001
0100
1000
0010
,
0001
0100
0001
0100
1000
0100
1000
0100
,
0002
0000
2000
3003
,
1001
0000
0000
0000
,
0000
0000
0000
0000
,
0000
0000
0000
0000
,
0000
0000
0000
0000
,
1000
0100
0001
0000
,
1000
0010
0001
0000
,
1000
0001
1000
0000
0100
0010
0100
0000
,
0220
0000
0330
0000
,
1001
1001
0110
0110
,
0101
0101
1010
1010
,
1000
0100
1000
0000
0001
0100
0001
0000
,
0001
1000
0010
0001
,
1001
1001
0110
0110
,
1100
1100
0011
0011
,
1000
0000
0000
0000
0001
0000
0000
0000
0100
0000
0000
0100
0000
0000
0100
0000
,
0000
0010
1000
0000
2002
0000
3003
0000
,
0011
1100
0011
1100
,
1010
0101
1010
0101
,
0110
1001
0110
1001
,
0101
0000
1010
0000
1000
0100
0010
0001
,
1000
0010
1010
0000
,
0001
0010
0011
0000
,
0100
0000
0010
0000
0100
0000
0010
0000
0100
0000
0000
0010
0000
0000
0110
0000
,
0000
0000
0000
0000
,
0002
0100
2003
0100
,
3002
0010
2003
0010
,
3001
0100
1000
0100
,
0002
0000
2000
3003
,
2000
0100
3002
0100
,
2003
0010
3002
0010
,
1003
0001
0100
0001
,
1001
1001
0000
0000
,
0220
0000
0000
0000
0330
0000
1000
0001
,
0000
1001
1000
0100
,
0010
0001
0100
0000
0001
0000
1000
0000
,
0010
1000
0100
0000
1000
0000
0100
0000
,
0001
0100
1000
0000
0010
1000
0001
0000
,
1000
0100
0001
0000
0100
0010
0001
0000
,
1000
0001
1000
0001
1000
0001
1000
0001
,
2000
0000
0000
0000
,
3100
0000
0000
0000
;

//--------------- dance-single - NewbStepper ----------------
#NOTEDATA:;
#STEPSTYPE:dance-single;
#DESCRIPTION:NewbStepper;
#DIFFICULTY:Medium;
#METER:12;
#RADARVALUES:0.50321,0.804455,0.333206,0.266565,0.142803,370,335,35,28,0,0,0,0,0,0.50321,0.804455,0.333206,0.266565,0.142803,370,335,35,28,0,0,0,0,0;
#CHARTNAME:;
#CHARTSTYLE:;
#CREDIT:NewbStepper;
#METERF:12;
#NOTES:
0000
0000
0000
0000
,
0000
0000
0000
0000
,
0000
0000
0000
0000
,
0000
0000
0000
0000
,
0000
0000
0000
0000
,
0001
1000
0001
1000
,
0010
0100
0010
0100
0010
0100
0010
0100
,
0001
0010
0100
1000
0001
0100
0010
1000
,
0200
0310
2002
3003
,
1001
0000
0000
0000
0000
0000
0001
0100
0001
0000
0000
0000
1000
0000
0100
0000
,
0010
0000
0010
0000
1001
0000
0001
0100
,
0001
0000
0000
0000
0000
0000
1000
0100
1000
0000
0000
0000
0001
0000
0000
0000
,
0010
0000
0010
0000
0100
1000
0001
0100
,
1001
0000
0000
0000
0000
0000
0001
0010
0001
0000
0000
0000
1000
0000
0010
0000
,
0100
0000
0100
0000
0001
1000
0001
1000
,
0100
0000
0000
0000
0000
0000
0010
0100
0010
0000
0000
0000
1001
0000
0000
0000
,
0220
0000
0000
0330
,
0002
0203
2300
3020
,
0032
0000
0000
2003
3020
0000
0000
0000
,
2030
3200
0302
0023
,
2030
3002
0203
0000
0020
0000
0330
0000
,
1000
0000
0000
0001
0100
0000
0010
0000
1000
0000
0000
0000
1001
0000
0000
0000
,
0001
0000
1000
0000
0100
0010
0100
0000
1000
0001
1000
0000
0001
0100
1000
0100
,
0001
1000
1010
0010
0100
0010
0011
0010
,
1000
0001
1000
0001
1000
0001
1000
0001
0200
0000
0000
0000
0000
0000
0000
0000
,
0301
0000
0001
0000
,
1000
0000
1000
0000
,
0100
0000
0100
0000
,
0010
0000
0010
0000
,
0011
0000
0001
0000
0101
0000
1000
0010
,
1010
0000
1000
0000
1100
0000
0001
0100
,
0010
1000
0100
0001
0100
1000
0001
0100
,
0020
0000
0000
0000
1030
0001
1001
0000
,
1000
0000
0000
0100
0000
0000
1000
0000
0001
0000
0000
0100
0000
0000
0001
0000
,
0010
0000
0000
1000
0000
0000
0010
0000
0001
0000
0000
0100
0000
0000
0010
0000
,
1000
0100
1100
0000
0001
0100
0101
0000
,
1010
0000
0101
0000
0110
0000
0001
0100
,
0001
0000
0000
0100
0000
0000
0001
0000
1000
0000
0000
0100
0000
0000
1000
0000
,
0010
0000
0000
0001
0000
0000
0010
0000
1000
0000
0000
0100
0000
0000
0010
0000
,
0001
0000
0000
0000
1000
0000
0000
0000
1010
0000
0000
0101
0000
0000
0110
0000
,
0000
0001
0100
1000
0100
0001
0100
0010
,
1000
0000
0000
1000
0000
0000
0100
0000
0001
0000
0000
0001
0000
0000
0100
0000
,
1000
0000
0000
1000
0000
0000
0010
0000
0001
0000
0000
0001
0000
0000
0010
0000
,
1000
0000
0000
1000
0000
0000
0001
0000
0100
0000
0000
0100
0000
0000
1000
0000
,
0100
0001
0010
0100
1000
0010
0001
0010
,
1000
0000
0001
0000
0011
0000
1000
0001
,
0100
1000
0001
0010
0100
0001
0010
1000
,
0001
0000
0100
0000
0010
0000
0001
0000
0100
0000
0000
0010
0000
0000
1001
0000
,
0000
1000
0100
0001
1000
0010
0001
0100
,
0001
0010
0100
0000
1000
0010
0100
0000
,
1000
0100
0001
0000
0010
0001
1000
0000
,
0002
0203
2300
3020
,
0031
0000
0101
0000
0100
1000
0100
0001
,
1000
0010
0100
0000
0001
0010
0100
0000
,
0001
0100
1000
0000
0010
1000
0001
0000
,
0101
0010
1100
0010
,
1001
0000
1100
0101
0000
0010
0100
0000
,
0220
0000
0000
0000
0330
0000
1001
1001
,
0000
0000
1001
0000
1000
0100
0001
0000
,
0100
1000
0010
0000
0001
0010
0100
0000
,
0010
1000
0001
0000
0010
1000
0010
0001
,
1000
0010
0100
0010
0001
0010
1000
0000
,
0001
0010
0100
0010
1000
0010
0001
0000
,
1000
0100
0010
0001
0100
0010
1000
0100
,
0010
0000
0000
0001
0000
0000
0100
0000
0000
0000
0010
0000
1000
0000
0100
0000
,
0110
0000
0000
0000
;

//--------------- dance-single - NewbStepper ----------------
#NOTEDATA:;
#STEPSTYPE:dance-single;
#DESCRIPTION:NewbStepper;
#DIFFICULTY:Hard;
#METER:16;
#RADARVALUES:0.783375,1.02104,0.390327,0.228484,0.756855,576,535,41,24,0,0,0,0,0,0.783375,1.02104,0.390327,0.228484,0.756855,576,535,41,24,0,0,0,0,0;
#CHARTNAME:;
#CHARTSTYLE:;
#CREDIT:NewbStepper;
#METERF:15;
#NOTES:
0000
0000
0000
0000
,
0000
0000
0000
0000
,
0000
0000
0000
0000
,
0000
0000
0000
0000
,
0000
0000
0000
0000
,
1000
0001
1000
0001
,
0100
0010
0100
0010
0100
0010
0100
0010
,
1000
0010
1000
0010
0100
0001
0100
0001
1000
0100
1000
0100
0010
0001
0010
0001
,
0200
0000
0000
0000
0310
1000
0001
0000
0010
0001
0010
0001
0100
0000
0000
0000
,
0110
0000
0000
0000
0000
0000
0001
1000
0001
0000
0000
0000
0100
0000
0010
0000
,
1010
0000
1010
0000
0101
0000
0101
0100
,
0110
0000
0000
0000
0000
0000
1000
0001
1000
0000
0000
0000
0100
0000
0000
0000
,
0011
0000
0011
0000
0001
0100
1000
0100
,
0110
0000
0000
0000
0000
0000
1000
0001
1000
0000
0000
0000
0100
0000
0010
0000
,
0011
0000
0011
0000
1100
1000
1001
0001
,
0100
0100
0010
0010
1000
1000
0001
0001
,
0200
0000
0000
0300
,
0002
0100
2003
0010
3002
0100
2003
0010
,
3200
0000
0010
0000
0001
0000
0010
0000
2300
0000
3002
0000
0003
0000
0010
0100
,
2000
0100
3002
0010
2003
0100
3002
0010
,
0203
0000
0302
0000
2003
0000
3000
0001
0000
0100
0010
0000
1000
0000
0001
0000
,
0011
0000
0010
0001
0100
0000
0110
0000
0010
1000
0100
0001
0100
0000
1000
0010
,
1010
0000
1000
0100
0010
0001
0100
0000
1000
0100
0001
0100
0010
0100
1000
0100
,
0001
0000
1000
0100
0001
0000
0110
0000
1000
0000
0001
0100
1000
0000
0110
0000
,
1000
0000
0100
0000
0010
0000
0001
0000
1000
0000
0100
0000
0010
0000
0001
0000
1000
0100
0010
0001
1000
0100
0010
0001
2000
0000
0000
0000
0000
0000
0000
0000
,
3001
0000
0000
0001
0000
0010
0100
0000
1000
0000
0000
1000
0000
0010
0100
0000
,
0001
0000
0000
0001
0000
0100
0010
0000
1000
0000
0000
1000
0000
0100
0010
0000
,
0001
0000
0000
0001
0000
0001
0010
0100
1000
0000
0000
1000
0000
1000
0010
0100
,
0001
0000
0000
0001
0000
0000
0001
0100
0010
0000
1000
0000
0100
0000
0010
0000
,
0011
0000
0001
0100
0001
0000
1000
0100
1000
0000
0001
0100
0010
1000
0010
0000
,
1010
0000
1000
0100
1000
0000
0001
0100
0001
0000
1000
0100
0010
0001
0010
0000
,
0001
0010
0001
0010
0100
1000
0100
1000
0001
0100
0001
0100
0010
1000
0010
1000
,
0200
0000
0000
0000
0310
0001
1000
0000
0010
1000
0010
1000
0100
0000
0000
0000
,
1000
0000
0001
0100
0000
0010
0100
0000
0001
0000
1000
0100
0000
0010
0100
0000
,
1000
0000
0001
0100
0000
0010
1000
0000
0001
0000
1000
0100
0000
0010
0001
0100
,
0010
0000
1000
0001
0000
1000
0100
0000
0010
0000
0001
1000
0000
0001
0100
0010
,
0100
0000
0001
1000
0000
1000
0000
1000
0100
0000
0001
0000
0100
0000
1000
0000
,
0001
0000
1000
0100
0000
0010
0100
0000
1000
0000
0001
0100
0000
0010
0100
0000
,
0001
0000
1000
0100
0000
0010
0001
0000
1000
0000
0001
0100
0000
0010
1000
0100
,
0010
0000
0000
0000
0001
0000
0000
0000
1001
0000
0000
0101
0000
0000
0110
0000
,
0000
0000
0010
0000
1000
0000
0001
1000
0001
0000
0100
0000
1000
0000
0100
0000
,
0001
0010
0000
0010
0000
0001
0100
0010
1000
0010
0000
0010
0000
1000
0100
0010
,
0001
1000
0000
1000
0000
0010
0100
0001
1000
0001
0000
0001
0000
0010
0100
0000
,
0110
0000
0000
1001
0000
0001
1000
0010
0100
0000
0000
1001
0000
1000
0001
0010
,
0100
0000
0000
1010
0000
0000
1000
0100
0010
0000
0001
0000
0100
0000
0010
0000
,
1010
0000
0000
0000
0101
0000
0000
0000
1001
0000
0000
0000
0001
0100
0010
0000
,
1010
0000
1000
0000
0011
0000
0001
0000
0110
0000
1000
0001
0100
0000
0010
0000
,
1000
0000
0100
0000
0001
0000
0100
0000
0110
0000
0000
0011
0000
0000
1001
0000
,
0000
0000
1000
0001
0010
0001
1000
0001
0010
0001
1000
0010
1000
0001
1000
0010
,
1000
0100
0001
0100
1000
0010
0001
0010
,
1000
0001
0100
1000
0100
0001
0010
1000
,
0010
0001
0100
0010
0100
1000
0100
0001
,
1000
0000
0100
0000
0010
0000
0100
0000
0001
0000
0100
0000
1000
0000
0001
1000
,
0001
0100
1000
0100
0001
0010
1000
0010
,
0001
1000
0100
0001
0100
1000
0010
0001
,
0020
2030
3002
0103
,
1001
0000
0000
0000
1010
0000
0101
0000
0000
0000
0001
0010
0100
0000
1000
0000
,
0020
0000
0000
0000
0030
0000
0110
1001
,
0000
0000
0000
1000
0001
1000
0001
0000
0000
0000
0000
0000
1000
0000
0000
0010
0000
0000
0100
0000
0000
0001
0000
0000
,
0010
0000
0100
1000
0001
0000
1000
0000
0010
1000
0000
1000
0001
0000
1000
0000
,
0010
0000
0100
0001
1000
0000
0001
0000
0100
0000
1000
0000
0100
0000
0001
1000
,
0001
0000
0100
0000
0001
0000
0100
0000
0010
0000
1000
0000
0010
0000
1000
0001
,
1000
0100
1000
0100
0010
0001
0010
0001
,
1000
0100
0010
0001
0100
0010
1000
0100
0010
0001
0100
0010
1000
0100
0010
0001
,
2000
0000
0000
3002
0000
0000
0103
0010
0000
0010
0000
0010
1000
0001
0010
0100
,
1000
0000
0000
0000
;

//--------------- dance-double - NewbStepper ----------------
#NOTEDATA:;
#STEPSTYPE:dance-double;
#DESCRIPTION:NewbStepper;
#DIFFICULTY:Easy;
#METER:9;
#RADARVALUES:0.331846,0.464109,0.314166,0.247525,0.00952,244,211,33,26,0,0,0,0,0,0.331846,0.464109,0.314166,0.247525,0.00952,244,211,33,26,0,0,0,0,0;
#CHARTNAME:;
#CHARTSTYLE:;
#CREDIT:NewbStepper;
#METERF:9;
#NOTES:
00000000
00000000
00000000
00000000
,
00000000
00000000
00000000
00000000
,
00000000
00000000
00000000
00000000
,
00000000
00000000
00000000
00000000
,
00000000
00000000
00000000
00000000
,
00001000
00001000
00001000
00001000
,
00010000
00010000
00010000
00010000
,
00000200
00000000
00000000
00000300
,
00001001
00000000
00000000
00000000
,
00001001
00000000
00000000
00001000
00001000
00000000
00000100
00000000
,
00010000
00010000
01000000
10000000
,
10010000
00000000
00000000
00010000
00010000
00000000
01000000
00000000
,
00001000
00001000
00000100
00000010
,
00000110
00000000
00000000
00000001
00000001
00000000
00000100
00000000
,
00001000
00010000
01000000
10000000
,
00010000
01000000
00010000
01000000
00010000
00000000
00100000
00000000
,
02200000
00000000
00000000
03300000
,
10000000
01000000
00100000
00010000
,
00002000
00000000
00000002
00003003
,
00000001
00000100
00000010
00001000
,
00020000
00000000
20000000
30030000
,
10000000
00010000
00001000
00000001
,
00001000
00010000
10000000
00010000
,
00001000
00000100
00001000
00000100
00000010
00000001
00000010
00000001
,
00002000
00000000
00000002
00003003
,
00001001
00000000
00000000
00000000
,
00000000
00000000
00000000
00000000
,
00000000
00000000
00000000
00000000
,
00000000
00000000
00000000
00000000
,
00000001
00000100
00001000
00000000
,
00010000
01000000
10000000
00000000
,
00100000
00010000
00001000
00000010
,
00000220
00000000
00000330
00000000
,
00001001
00000001
00000101
00000100
,
00001100
00001000
00011000
00010000
,
00110000
00100000
10100000
10000000
,
11000000
01000000
01100000
00000000
,
10010000
10000000
11000000
01000000
,
01010000
00010000
00011000
00001000
,
00010000
00000000
00000000
00000000
00000010
00000000
00000000
00000000
00001000
00000000
00000000
00001000
00000000
00000000
00001000
00000000
,
00000000
00000001
00000100
00000000
00000220
00000000
00000330
00000000
,
00000011
00000001
00000101
00000100
,
00001100
00001000
00011000
00010000
,
01010000
01000000
11000000
10000000
,
10100000
00000000
00100000
00000000
00010000
00001000
00000100
00000010
,
00001000
00000010
00001010
00000000
,
00000001
00000010
00000011
00000000
,
00000010
00000000
00000100
00000000
00000010
00000000
00000100
00000000
00000010
00000000
00000000
00001000
00000000
00000000
00010000
00000000
,
00000000
00000000
00000000
00000000
,
00002000
00100000
00023000
00000010
,
00032000
01000000
00023000
00000100
,
00031000
00000010
00000001
00000100
,
00002000
00000000
00020000
00033000
,
00020000
00000010
00032000
00100000
,
00023000
00000100
00032000
01000000
,
00013000
00100000
10000000
01000000
,
01100000
01100000
00000000
00000000
,
20020000
00000000
00000000
00000000
30030000
00000000
10000000
00010000
,
00000000
10010000
10000000
01000000
,
00010000
00001000
00000010
00000000
00000001
00000000
00000100
00000000
,
00001000
00010000
00100000
00000000
10000000
00000000
00010000
00000000
,
01000000
00001000
01000000
00000000
00001000
00010000
00001000
00000000
,
00010000
00000100
00010000
00000000
00001000
00010000
00001000
00000000
,
00000010
00000100
00000010
00000100
00000010
00000100
00000010
00000100
,
00000020
00000000
00000000
00000000
,
00000130
00000000
00000000
00000000
;

//--------------- dance-double - NewbStepper ----------------
#NOTEDATA:;
#STEPSTYPE:dance-double;
#DESCRIPTION:NewbStepper;
#DIFFICULTY:Medium;
#METER:12;
#RADARVALUES:0.489609,0.742574,0.285605,0.238005,0.157083,360,330,30,25,0,0,0,0,0,0.489609,0.742574,0.285605,0.238005,0.157083,360,330,30,25,0,0,0,0,0;
#CHARTNAME:;
#CHARTSTYLE:;
#CREDIT:NewbStepper;
#METERF:12;
#NOTES:
00000000
00000000
00000000
00000000
,
00000000
00000000
00000000
00000000
,
00000000
00000000
00000000
00000000
,
00000000
00000000
00000000
00000000
,
00000000
00000000
00000000
00000000
,
10000000
01000000
10000000
01000000
,
00010000
00001000
00010000
00001000
00010000
00001000
00010000
00001000
,
00100000
00010000
01000000
00100000
00010000
00001000
00000100
00000010
,
00002000
00003001
00000220
00000330
,
00001001
00000000
00000000
00000000
00000000
00000000
00000001
00000100
00000001
00000000
00000000
00000000
00000100
00000000
00001000
00000000
,
00010000
00000000
00010000
00000000
00001000
00000000
00000010
00000100
,
00000010
00000000
00000000
00000000
00000000
00000000
00001000
00010000
00001000
00000000
00000000
00000000
00100000
00000000
00000000
00000000
,
01000000
00000000
01000000
00000000
00010000
00001000
00010000
00100000
,
10000000
00000000
00000000
00000000
00000000
00000000
10000000
01000000
10000000
00000000
00000000
00000000
01000000
00000000
00010000
00000000
,
00001000
00000000
00001000
00000000
00010000
00100000
00010000
00001000
,
00010000
00000000
00000000
00000000
00000000
00000000
00010000
00001000
00010000
00000000
00000000
00000000
00000100
00000000
00000000
00000000
,
00002002
00000000
00000000
00003003
,
00002000
00003200
00000302
00000023
,
00002030
00000000
00000000
00023000
00230000
00000000
00000000
00000000
,
00320000
02030000
23000000
30200000
,
00320000
20030000
32000000
00000000
00200000
00000000
03300000
00000000
,
00010000
00000000
00000000
10000000
01000000
00000000
00010000
00000000
00001000
00000000
00000000
00000000
00011000
00000000
00000000
00000000
,
00010000
00000000
00001000
00000000
00000010
00000100
00000010
00000000
00000001
00001000
00000001
00000000
00000100
00001000
00010000
00001000
,
00010000
00100000
10000000
00100000
00010000
00001000
00000010
00000001
,
00000010
00000100
00000010
00000100
00000010
00000100
00000010
00000100
00000020
00000000
00000000
00000000
00000030
00000000
00000000
00000000
,
00000001
00000000
00000001
00000000
,
00001000
00000000
00001000
00000000
,
00010000
00000000
00010000
00000000
,
10000000
00000000
10000000
00000000
,
01010000
00010000
00110000
00011000
,
00001100
00001000
00001010
00011000
,
10010000
00011000
00001001
00011000
,
20020000
00000000
30030000
00000000
01000000
00100000
01100000
00000000
,
10000000
00000000
00000000
01000000
00000000
00000000
01000000
00000000
00010000
00000000
00000000
00001000
00000000
00000000
00001000
00000000
,
00000010
00000000
00000000
00000001
00000000
00000000
00000001
00000000
00000100
00000000
00000000
00001000
00000000
00000000
00001000
00000000
,
00010000
00000000
00000000
00100000
00000000
00000000
10000000
00000000
01000000
00000000
00000000
00010000
00000000
00000000
00001000
00000000
,
00011000
01100000
00011000
00000110
,
00000001
00000000
00000000
00000100
00000000
00000000
00000100
00000000
00001000
00000000
00000000
00001000
00000000
00000000
00010000
00000000
,
00100000
00000000
00000000
10000000
00000000
00000000
10000000
00000000
01000000
00000000
00000000
00010000
00000000
00000000
00010000
00000000
,
00001000
00000000
00000000
00000000
00000010
00000000
00000000
00000000
00001000
00000000
00000000
00010000
00000000
00000000
00011000
00000000
,
00000000
00001000
00000100
00000001
00000100
00001000
00010000
01000000
,
10000000
00000000
00000000
00010000
00000000
00000000
01000000
00000000
10000000
00000000
00000000
01000000
00000000
00000000
00010000
00000000
,
00001000
00000000
00000000
00000010
00000000
00000000
00001000
00000000
00000100
00000000
00000000
00000001
00000000
00000000
00000100
00000000
,
00001000
00000000
00000000
00010000
00000000
00000000
00100000
00000000
00010000
00000000
00000000
10000000
00000000
00000000
00010000
00000000
,
00100000
00000000
00000000
10000000
00000000
00000000
00100000
00000000
00010000
00000000
00001000
00000000
00000100
00000000
00000010
00000000
,
00000001
00000000
00001000
00000000
00001001
00000000
00000001
00000100
,
00001000
00000001
00000010
00000100
00001000
00010000
00100000
10000000
,
01000000
00000000
00010000
00000000
10000000
00000000
00100000
00000000
01000000
00000000
00000000
00010000
00000000
00000000
00011000
00000000
,
00000000
00001000
00000010
00000100
00000001
00001000
00000010
00000001
,
00000100
00001000
00010000
00000000
00000010
00001000
00000100
00000000
,
00010000
00001000
00000010
00000000
00000100
00010000
00001000
00000000
,
00100000
00001000
00010000
00000000
00100000
10000000
00010000
00000000
,
10000000
01000000
00100000
00000000
10000000
00100000
01000000
10000000
,
01000000
00010000
00001000
00000000
00100000
00010000
01000000
00000000
,
00001000
00010000
00100000
00000000
01000000
00001000
00010000
00000000
,
00010100
00001000
01001000
00010000
,
00011000
00000000
00000100
00000010
00000000
00000010
00000100
00000000
,
00000220
00000000
00000000
00000000
00000330
00000000
00001001
00001001
,
00000000
00000000
00001001
00000000
00000001
00000100
00001000
00000000
,
00010000
00000100
00001000
00000000
00010000
01000000
10000000
00000000
,
01000000
00100000
10000000
00000000
00100000
00010000
00001000
00010000
,
00000010
00001000
00000010
00001000
00000010
00010000
00001000
00000000
,
00100000
00010000
00100000
00010000
00100000
00001000
00010000
00000000
,
00001000
00000100
00000010
00000100
00001000
00010000
00100000
01000000
,
00100000
00000000
00000000
10000000
00000000
00000000
01000000
00000000
00000000
00000000
00010000
00000000
00001000
00000000
00000100
00000000
,
00000001
00000000
00000000
00000000
;

//--------------- dance-double - NewbStepper ----------------
#NOTEDATA:;
#STEPSTYPE:dance-double;
#DESCRIPTION:NewbStepper;
#DIFFICULTY:Hard;
#METER:16;
#RADARVALUES:0.733054,0.959158,0.342727,0.228484,0.723534,539,503,36,24,0,0,0,0,0,0.733054,0.959158,0.342727,0.228484,0.723534,539,503,36,24,0,0,0,0,0;
#CHARTNAME:;
#CHARTSTYLE:;
#CREDIT:NewbStepper;
#METERF:15;
#NOTES:
00000000
00000000
00000000
00000000
,
00000000
00000000
00000000
00000000
,
00000000
00000000
00000000
00000000
,
00000000
00000000
00000000
00000000
,
00000000
00000000
00000000
00000000
,
00000001
00000100
00000001
00000100
,
00001000
00010000
00001000
00010000
00001000
00010000
00001000
00010000
,
00000100
00010000
00000100
00010000
00001000
01000000
00001000
01000000
00010000
10000000
00010000
10000000
01000000
00100000
01000000
00100000
,
00020000
00000000
00000000
00000000
10030000
01000000
00100000
00000000
00001000
00010000
00001000
00010000
00000010
00000000
00000000
00000000
,
00000110
00000000
00000000
00000000
00000000
00000000
00001000
00000001
00001000
00000000
00000000
00000000
00000001
00000000
00000100
00000000
,
00001000
00000000
00011000
00000000
00110000
00000000
00011000
00001000
,
01001000
00000000
00000000
00000000
00000000
00000000
01000000
00100000
01000000
00000000
00000000
00000000
00010000
00000000
00000000
00000000
,
00011000
00000000
00011000
00000000
00010000
00100000
10000000
00100000
,
01100000
00000000
00000000
00000000
00000000
00000000
00010000
10000000
00010000
00000000
00000000
00000000
10000000
00000000
01000000
00000000
,
00010000
00000000
00011000
00000000
00001000
00000010
00000001
00000010
,
00001000
00010000
00100000
10000000
01000000
00010000
00001000
00000100
,
00000002
00000000
00000000
00000003
,
00002000
00000010
00003002
00000100
00002003
00000010
00023000
01000000
,
20030000
00000000
00100000
00000000
00010000
00000000
00100000
00000000
32000000
00000000
03020000
00000000
00030000
00000000
00001000
00100000
,
00020000
00100000
20030000
01000000
30020000
00100000
00032000
00000100
,
00003002
00000000
00000203
00000000
00002300
00000000
00003000
00010000
00000000
01000000
10000000
00000000
00010000
00000000
00100000
00000000
,
00101000
00000000
00000000
00001000
00010000
00000000
00100000
00000000
10000000
01000000
00010000
00001000
00000100
00000000
00000010
00001000
,
00000001
00000000
00000100
00001000
00010000
00001000
00000010
00000000
00000100
00010000
00001000
00010000
00100000
00010000
00001000
00010000
,
01000000
00000000
10000000
00100000
00010000
00000000
00001000
00000000
00000100
00000000
00000001
00000010
00001000
00000000
00010000
00000000
,
00100000
00000000
10000000
00000000
00100000
00000000
10000000
00000000
00010000
00000000
00100000
00000000
00010000
00000000
00100000
00000000
00001000
00010000
00001000
00010000
00000010
00001000
00000010
00001000
00000002
00000000
00000000
00000000
00000000
00000000
00000000
00000000
,
00001003
00000000
00000000
00001000
00000000
00000100
00000010
00000000
00000001
00000000
00000000
00000001
00000000
00000100
00000010
00000000
,
00010000
00000000
00000000
00010000
00000000
00001000
00100000
00000000
01000000
00000000
00000000
01000000
00000000
10000000
00100000
00000000
,
00010000
00000000
00000000
00000010
00000000
00010000
00001000
01000000
00001000
00000000
00000000
00100000
00000000
00001000
00010000
00000100
,
00010000
00000000
00000000
00001000
00000000
00000000
00000100
00000001
00001000
00000000
00000001
00000000
00000100
00000000
00001000
00000000
,
00011000
00000000
00000000
00000000
00110000
00000000
00000000
00000000
00011000
00000000
00000000
00000000
00010000
00001000
00010000
00000000
,
00011000
00000000
00000000
00000000
00001010
00000000
00000000
00000000
00011000
00000000
00000000
00000000
00001000
00010000
00001000
00000000
,
01000000
00001000
01000000
00001000
00010000
00000100
00010000
00000100
00001000
00000001
00001000
00000001
00000100
00000010
00000100
00000010
,
00002000
00000000
00000000
00000000
00003001
00000100
00000010
00000000
00010000
00001000
00010000
00001000
00100000
00000000
00000000
00000000
,
00010000
00000000
10000000
01000000
00000000
00100000
01000000
00000000
10000000
00000000
00010000
01000000
00000000
00100000
01000000
00000000
,
00001000
00000000
00010000
00000100
00000000
00001000
00000100
00000000
00000010
00000000
00000001
00001000
00000000
00000001
00000100
00000010
,
00010000
00000000
00001000
00100000
00000000
00001000
00010000
00000000
00001000
00000000
00100000
00010000
00000000
10000000
00100000
01000000
,
00100000
00000000
00000000
00010000
00000000
00010000
00000000
00001000
00000100
00000000
00000001
00000000
00000100
00000000
00000010
00000000
,
00001000
00000000
00000001
00000100
00000000
00000010
00000100
00000000
00000001
00000000
00001000
00000100
00000000
00000010
00000100
00000000
,
00010000
00000000
00001000
01000000
00000000
00010000
01000000
00000000
00100000
00000000
10000000
00010000
00000000
10000000
01000000
00100000
,
00001000
00000000
00000000
00000000
00010000
00000000
00000000
00000000
00011000
00000000
00000000
00010010
00000000
00000000
00000110
00000000
,
00000000
00000100
00000001
00000010
00001000
00010000
00100000
10000000
,
11000000
00000000
00000000
10000000
00000000
01000000
00010000
00000000
00011000
00000000
00000000
00001000
00000000
00000100
00000001
00000000
,
00000011
00000000
00000000
00000001
00000000
00000010
00001000
00000000
00011000
00000000
00000000
00010000
00000000
00100000
10000000
00000000
,
11000000
00000000
00000000
01000000
00000000
00010000
00001000
00010000
00000010
00000000
00000000
00000100
00000000
00001000
00010000
00001000
,
00100000
00000000
00000000
01000000
00000000
00000000
10000000
01000000
00100000
00000000
00010000
00000000
01000000
00000000
00100000
00000000
,
10100000
00000000
00000000
00000000
01001000
00000000
00000000
00000000
00011000
00000000
00000000
00000000
00010000
00001000
00000010
00000000
,
00000001
00000100
00001000
00000100
00000001
00001000
00000001
00000010
,
00001000
00000000
00010000
00000000
00100000
00000000
10000000
00000000
11000000
00000000
00000000
01100000
00000000
00000000
00110000
00000000
,
00000000
00000000
00010000
00100000
00001000
00100000
00010000
00100000
00001000
00010000
00000010
00010000
00001000
00010000
00000010
00001000
,
00000001
00001000
00000000
00000100
00000000
00000000
00000010
00000000
00001000
00010000
00000000
00000000
00100000
00000000
10000000
00000000
,
00010000
00000000
00000000
01000000
00000000
00000000
10000000
00000000
01000000
00100000
00000000
00000000
00010000
00000000
00001000
00000000
,
00000010
00000000
00000000
00000001
00000000
00000000
00000100
00000000
00000010
00000001
00000000
00000000
00000010
00000000
00000100
00000000
,
00001000
00000000
00000000
00010000
00000000
00000000
00100000
00000000
10000000
00000000
01000000
00000000
00100000
00000000
00010000
00000000
,
10000000
00010000
00000000
01000000
00000000
00000000
00100000
00000000
00010000
00001000
00000000
00000000
00000010
00000000
00000001
00000000
,
00001000
00000000
00000000
00000100
00000000
00000000
00000001
00000000
00000100
00000010
00000000
00000000
00001000
00000000
00010000
00000000
,
00200000
20300000
30020000
01030000
,
01001000
00000000
00000000
00000000
00010100
00000000
00011000
00000000
00000000
00000000
00001000
00000010
00000100
00000000
00001000
00000000
,
00000002
00000000
00000000
00000000
00000003
00000000
00000110
00001001
,
00000000
00000000
00000000
00000001
00001000
00000001
00001000
00000000
00000000
00000000
00000000
00000000
00000001
00000000
00000000
00000100
00000000
00000000
00001000
00000000
00000000
00010000
00000000
00000000
,
01000000
00000000
10000000
00100000
01000000
00000000
00010000
00000000
01000000
00001000
00000000
00001000
00010000
00000000
00001000
00000000
,
00000100
00000000
00000001
00000010
00000100
00000000
00001000
00000000
00000010
00000000
00000100
00000000
00000001
00000000
00001000
00000000
,
00000001
00000010
00000001
00000010
00000100
00010000
00000100
00010000
,
00001000
01000000
00001000
01000000
00010000
10000000
00010000
10000000
,
00100000
10000000
00100000
10000000
00010000
00100000
00010000
00100000
00001000
00010000
00001000
00010000
00000010
00001000
00000010
00001000
,
00000002
00000000
00000000
00002003
00000000
00000000
00003100
00000010
00000000
00000010
00000000
00000010
00000001
00000000
00000100
00000000
,
00001001
00000000
00000000
00000000
;
