#VERSION:0.83;
#TITLE:ONE AND ONLY;
#SUBTITLE:;
#ARTIST:Yuta Imai;
#TITLETRANSLIT:;
#SUBTITLETRANSLIT:;
#ARTISTTRANSLIT:;
#GENRE:RAVE IN THE GAME;
#CREDIT:;
#MUSIC:ONE AND ONLY.ogg;
#BANNER:ONE AND ONLY.png;
#BACKGROUND:ONE AND ONLY-bg.png;
#CDTITLE:./CDTitles/bm IIDX 30 RESIDENT.png;
#SAMPLESTART:90.644;
#SAMPLELENGTH:15.000;
#SELECTABLE:YES;
#OFFSET:0.362;
#BPMS:0.000=174.000;
#STOPS:;
#TIMESIGNATURES:0.000=4=4;
#BGCHANGES:0.000=ONE AND ONLY.mp4=1.000=0=0=0=StretchNoLoop====,
99999.000=-nosongbg-=1.000=0=0=0=StretchNoLoop====
;
#FGCHANGES:;

//--------------- dance-single - forcednature ----------------
#NOTEDATA:;
#STEPSTYPE:dance-single;
#DESCRIPTION:forcednature;
#DIFFICULTY:Beginner;
#METER:4;
#RADARVALUES:0,0,0,0,0;
#CREDIT:forcednature;
#NOTES:
0000
0000
0000
0000
,
0000
0000
0000
0000
,
0000
0000
0000
0000
,
0000
0000
0000
0000
,
0000
0000
0000
0000
,
1000
0000
0000
0000
,
1000
0000
0000
0000
,
0001
0000
0000
0000
,
0200
0000
0300
0000
,
0010
0000
0000
0000
,
0010
0000
0000
0000
,
1000
0000
0000
0000
,
0001
0000
0000
0000
,
1000
0000
0000
0000
,
0100
0000
0000
0000
,
0010
0000
0001
0000
,
0000
0000
0000
0000
,
2000
0000
0000
0000
,
3000
0000
0000
0000
,
0001
0000
0000
0000
,
0100
0000
0000
0000
,
0001
0000
1000
0000
,
0001
0000
0000
0000
,
0000
1001
0000
0000
,
1000
0000
0000
0000
,
0100
0000
0100
0000
,
0100
0000
0000
0000
,
0010
0000
0010
0000
,
0010
0000
0000
0000
,
0001
0000
1000
0000
,
0001
0000
0000
0000
,
1000
0000
0000
0000
,
0010
0000
0010
0000
,
0010
0000
0100
0000
,
0020
0000
0000
0000
,
0030
0000
0000
0000
,
0000
0000
0000
0000
,
1000
0000
0000
0000
,
1000
0000
0000
0000
,
0100
0000
0000
0000
,
0001
0000
0000
0000
,
0100
0000
0000
0000
,
1000
0000
0000
0000
,
0002
0000
0000
0000
,
0003
0000
0000
0000
,
0200
0000
0000
0000
,
0300
0000
0000
0000
,
0020
0000
0000
0000
,
0030
0000
0000
0000
,
2000
0000
0000
0000
,
3000
0000
0000
0000
,
1001
0000
0000
0000
,
0000
0000
0000
0000
,
0110
0000
0000
0000
,
0000
0000
0000
0000
,
1001
0000
0000
0000
,
0000
0000
0000
0000
,
0110
0000
0000
0000
,
0000
0000
0000
0000
,
0002
0000
0000
0000
,
0003
0000
0000
0000
,
2000
0000
0000
0000
,
3000
0000
0000
0000
,
0001
0000
0001
0000
,
1000
0000
1000
0000
,
0001
0000
1000
0000
,
0020
0000
0030
0000
,
1001
0000
0000
0000
,
1000
0000
0100
0000
,
0010
0000
0001
0000
,
1000
0000
0000
0000
,
1001
0000
0000
0000
,
0001
0000
0100
0000
,
0010
0000
1000
0000
,
0001
0000
0000
0000
,
2002
0000
0000
0000
,
3003
0000
0000
0000
,
1000
0000
1000
0000
,
0001
0000
0001
0000
,
0100
0000
0000
0000
,
0010
0000
1000
0000
,
0010
0000
0100
0000
,
0001
0000
0000
0000
,
1001
0000
0000
0000
,
1000
0000
0000
0000
,
0100
0000
0010
0000
,
0100
0000
1000
0000
,
0001
0000
0000
0000
,
0001
0000
0000
0000
,
0001
0000
1000
0000
,
0010
0000
0000
0000
;

//--------------- dance-single - forcednature ----------------
#NOTEDATA:;
#STEPSTYPE:dance-single;
#DESCRIPTION:forcednature;
#DIFFICULTY:Easy;
#METER:8;
#RADARVALUES:0,0,0,0,0;
#CREDIT:forcednature;
#NOTES:
0000
0000
0000
0000
,
0000
0000
0000
0000
,
0000
0000
0000
0000
,
0000
0000
0000
0000
,
0000
0000
0000
0000
,
1000
0001
1000
0000
,
0010
0010
0100
0000
,
0001
1000
0001
0000
,
0200
0300
0000
0000
0020
0030
0000
0000
0200
0300
0000
0000
0000
0000
0000
0000
,
0001
1000
0001
0000
,
1000
0100
1000
0000
,
0001
0100
0001
0000
,
1000
0001
0010
0000
,
0110
0000
1000
0100
,
0010
0000
0001
0100
,
0010
0010
0100
0020
,
0030
0000
0000
0000
,
2000
0000
0000
0000
,
0001
0001
0001
3000
,
1000
0100
0001
0100
,
1000
0100
0001
0100
,
1000
1000
0001
0001
,
0000
2002
0000
3003
,
0000
0001
0100
1000
,
0100
0001
0100
1000
,
0100
0100
0010
0010
,
0200
0300
0000
0000
0020
0030
0000
0000
0200
0300
0000
0000
0000
0000
0000
0000
,
0001
1001
1000
1001
,
0001
1001
1000
1001
,
0010
0110
0100
0110
,
1001
0110
2002
3003
,
0000
0000
0000
0000
,
1001
0100
1001
0010
,
1001
0100
0110
0010
,
2002
0000
3003
0000
,
1000
0000
0001
0000
,
1000
0001
2000
3000
,
0001
0010
0100
0010
,
0001
0010
0100
0000
,
1000
0100
0010
0100
,
1000
0100
0010
0000
,
0001
0001
1000
0020
,
0030
0000
0100
0000
,
2002
0000
0000
0000
,
0000
0000
3003
0000
,
2000
0000
3200
0000
,
0320
0000
0032
0000
,
2003
0000
0100
0000
,
3002
0000
0100
0000
,
2003
0000
3002
0000
,
0003
0000
0000
0000
,
2002
0000
3003
0000
,
0001
0010
0200
0300
,
2002
0000
3003
0000
,
1000
0010
0200
0300
,
0220
0000
0330
0000
,
0001
0100
2000
3000
,
0220
0000
0330
0000
,
1000
0100
0002
0003
,
0220
0000
0000
0000
,
0000
0000
0330
0000
,
1001
0000
0001
0000
,
0001
0000
1000
0000
,
0001
0001
1000
1000
,
0001
1000
1000
0001
,
1000
0100
0010
0001
,
0200
0300
0000
0000
0020
0030
0000
0000
0200
0300
0000
0000
0000
0000
0000
0000
,
0001
1000
0100
0010
,
0100
1000
0002
0003
,
1000
0010
0100
0001
,
0100
0010
1000
0001
,
1000
0100
0010
0001
,
1000
0010
0200
0300
,
0001
1000
0100
1000
,
0001
0100
0002
0003
,
2000
0000
0001
0000
,
0001
0001
0001
3000
,
1000
0100
0001
0100
,
1000
0010
0001
0010
,
1000
0001
0100
0001
,
1000
0100
0020
0030
,
0001
1000
0001
0010
,
0200
0300
0000
0000
0020
0030
0000
0000
0200
0300
0000
0000
0000
0000
0000
0000
,
1000
0100
1000
0100
,
0010
0001
0010
0001
,
1000
0100
0010
0001
,
1000
0010
0100
0001
,
1001
0000
0110
0100
,
0110
0000
1001
0001
,
1000
0100
0010
0001
,
0000
0200
0320
0230
,
0300
0000
0000
0000
;

//--------------- dance-single - forcednature ----------------
#NOTEDATA:;
#STEPSTYPE:dance-single;
#DESCRIPTION:forcednature;
#DIFFICULTY:Medium;
#METER:12;
#RADARVALUES:0,0,0,0,0;
#CREDIT:forcednature;
#NOTES:
0000
0000
0000
0000
,
0000
0000
0000
0000
,
0000
0000
0000
0000
,
0000
0000
0000
0000
,
0000
0000
0000
0000
,
2000
0100
3100
0000
,
1000
0001
1001
0000
,
0002
0100
0103
0000
,
0002
0003
0000
0000
2000
3000
0000
0000
2002
3003
0000
0000
0000
0000
0000
0000
,
0001
0000
0010
0001
0010
0000
0100
0000
,
1000
0000
0001
1000
0001
0000
1000
0010
,
0100
0000
0001
0100
0001
0000
1000
0000
,
0100
0000
1000
0001
2000
0000
3000
0000
,
0001
0000
0000
0100
0000
0000
0001
0000
1000
0000
0000
1000
0000
0000
1000
0000
,
0001
0000
0000
0010
0000
0000
0001
0000
1000
0000
0000
1000
0000
0000
1000
0000
,
0002
0023
0230
2300
,
3000
0001
1000
0001
1000
0000
2002
0000
,
3003
0000
0000
0000
,
1000
1000
2000
3001
,
0101
0101
1000
0100
,
1100
1100
0001
0100
,
0001
1000
0001
0000
1000
0001
1000
0000
,
0020
0130
0001
1000
,
0000
0000
0000
1001
0000
0000
1000
0000
0000
0001
0000
0100
,
0001
0000
0000
1000
0000
0000
0001
0000
0001
1000
0000
0001
,
1000
0100
0010
0001
,
2000
3000
0000
0000
0002
0003
0000
0000
2002
3003
0000
0000
0000
0000
0000
0000
,
1000
0000
1000
0010
0100
0000
0100
0010
,
0001
0000
0000
0000
0001
0000
0010
0000
0100
0000
0000
0100
0000
0000
0100
0000
,
0001
1000
0001
0010
0001
0000
0001
0010
,
0100
0000
0000
0100
0000
0000
1000
0000
0200
0000
0000
0000
0300
0000
0000
0000
,
1000
0000
0000
0001
0000
0000
1000
0001
,
0100
0000
0100
0001
0100
0010
0100
0000
,
0110
0000
0010
1000
0001
1000
0001
0000
,
2002
0000
3000
0000
,
0100
0100
1000
1000
,
0010
0000
0010
0000
1000
1000
1003
0000
,
1001
0000
0001
0100
0001
0100
0010
0000
,
1000
0100
0010
0000
0001
1000
0010
0000
,
0100
0000
0001
1000
0001
1000
0100
0000
,
0010
0100
1000
0000
0010
0100
0001
0000
,
2000
3200
0320
0032
,
1003
0000
1000
0001
0000
0001
1000
0001
,
2000
0000
0000
0000
,
3020
0000
0000
0000
,
0230
0000
0302
0000
,
0023
0000
0230
0000
,
2300
0000
0001
0001
,
3002
0000
0100
0100
,
0203
0010
0320
2030
,
3000
0001
1000
0001
1000
0000
0010
0000
,
1001
0000
0000
0000
0000
0000
0000
0000
1000
0000
0000
0100
0000
0000
1000
0000
,
0001
0000
0000
0100
0000
0000
0001
0000
0200
0000
0000
0000
0300
0000
0000
0000
,
1001
0000
0000
0000
0000
0000
0000
0000
0001
0000
0000
0010
0000
0000
0001
0000
,
1000
0000
0000
0010
0000
0000
1000
0000
0010
0000
0000
0100
0000
0000
0010
0000
,
0200
0000
0000
0000
0300
0000
0000
0000
0001
0000
0000
1000
0000
0000
0001
0000
,
0010
0000
0000
0100
0000
0000
1000
0000
0200
0000
0000
0000
0300
0000
0000
0000
,
1001
0000
0000
0000
0000
0000
0000
0000
1000
0000
0000
0001
0000
0000
1000
0000
,
0020
0100
0130
0000
,
2002
0000
0000
0000
,
0000
0000
0000
3003
,
0001
0010
1000
0010
,
0001
0000
0010
0000
0100
0010
0100
0000
,
1000
0000
0000
1000
0000
0000
1000
0000
0100
0000
0000
0100
0000
0000
0100
0000
,
0010
0000
0000
0010
0000
0000
0010
0000
0001
0000
0000
0001
0000
0000
0001
0000
,
2000
3200
0320
0032
,
2003
3000
0000
0000
0002
0003
0000
0000
2002
3003
0000
0000
0000
0000
0000
0000
,
1010
0000
0010
0100
0001
0100
0001
0000
,
0010
0100
1000
0000
0010
0100
0001
0000
,
0101
0000
1000
0100
1000
0100
0010
0000
,
0001
1000
0010
0000
1000
0001
0010
0000
,
1001
0000
0001
0010
0100
1000
0100
0000
,
1000
0001
0100
0000
0001
1000
0100
0000
,
0110
0000
0000
0000
0010
0000
0001
0000
1000
0000
0000
1000
0000
0000
1000
0000
,
0001
0000
0000
0100
0000
0000
0001
0000
0200
0000
0000
0000
0300
0000
0000
0000
,
0020
0000
0000
0000
,
0000
2030
3002
2003
,
3001
0010
0001
1000
0010
1000
0001
0100
,
0001
1000
0100
1000
0001
0010
0100
1000
,
0001
0000
1000
0010
1000
0010
0100
0000
,
0001
0010
0100
0000
1000
0010
0100
0000
,
1001
0000
1000
0100
1000
0001
0100
0001
,
2000
3000
0000
0000
0002
0003
0000
0000
2002
3003
0000
0000
0000
0000
0000
0000
,
2100
0001
0010
3001
,
0102
1000
0010
1003
,
0001
0100
0001
0000
1000
0100
1000
0000
,
0001
0010
0100
1000
0100
0010
0001
0000
,
1000
0000
0000
1000
0000
0000
1000
0000
0010
0000
0000
0010
0000
0000
0010
0000
,
0100
0000
0000
0100
0000
0000
0100
0000
0001
0000
0000
0001
0000
0000
0001
0000
,
2000
3020
0230
0302
,
0003
1000
0001
1000
0001
0000
2002
0000
,
3003
0000
0000
0000
;

//--------------- dance-single - forcednature ----------------
#NOTEDATA:;
#STEPSTYPE:dance-single;
#DESCRIPTION:forcednature;
#DIFFICULTY:Hard;
#METER:16;
#RADARVALUES:0,0,0,0,0;
#CREDIT:forcednature;
#NOTES:
0000
0000
0000
0000
,
0000
0000
0000
0000
,
0000
0000
0000
0000
,
0000
0000
0000
0000
,
0000
0000
0000
0000
,
0002
0013
1001
0000
,
0100
0100
0110
0000
,
2000
3010
1001
0000
,
0020
0030
0000
0000
0200
0300
0000
0000
2002
3003
0000
0000
0001
0000
0010
0000
,
0100
0000
0100
1000
0001
0100
0010
1000
,
0100
0000
0000
0000
0010
0000
0100
0000
1000
0000
0001
0000
0100
0000
0001
0100
,
0001
0000
0001
0010
0100
1000
0001
0100
,
0010
0000
0000
0000
1000
0000
0100
0000
1000
0001
1000
0001
1000
0000
0000
0000
,
0001
0000
0010
0000
0001
0000
1000
0001
1000
0000
0010
0000
1000
0000
0001
1000
,
0001
0000
0100
0000
0010
0000
1000
0010
0100
0000
0001
0000
0010
0000
0100
1000
,
0001
0000
0100
0000
0010
0000
1000
0000
0001
0010
0001
0000
1000
0100
1000
0000
,
0000
0000
0001
1000
0100
0000
1000
0000
0020
0000
0000
0000
0230
0000
0000
0000
,
0300
0000
0000
0000
,
0001
0000
0000
0000
0001
0000
0000
0000
0001
0000
1000
0001
1000
0000
0100
0000
,
1100
0000
1000
0001
0100
0001
0100
1000
,
0100
0000
0000
0000
0100
0000
0001
1000
0100
0000
0000
0100
1000
0000
0010
0000
,
0100
0100
0100
0001
0100
1000
0100
0001
,
0010
0000
0001
1000
0020
0000
0000
0000
0030
0000
0100
0000
0010
0000
0000
0000
,
1001
0000
0000
1000
0001
1000
0100
0010
0100
1000
0001
1000
,
0020
0000
0000
1030
0001
1000
0100
0010
0001
0100
0010
1000
,
0002
0000
0000
1003
0100
1000
0001
0010
1000
0010
0001
1000
,
0020
0030
0000
0000
0200
0300
0000
0000
2002
3003
0000
0000
0000
0000
0000
0000
,
0001
0200
0000
0000
1300
0200
0000
0000
0301
0200
0000
0000
0310
0100
0010
0100
,
0001
0200
0000
0000
1300
0000
0100
0000
0001
0100
0000
0010
0100
0000
0001
0000
,
1000
0010
0100
0001
1000
0000
0100
0000
0001
0200
0000
0000
1300
0100
1000
0100
,
1000
0200
0000
1300
0200
0000
0301
0000
0200
0000
0310
0001
1000
0000
0000
0000
,
0010
0000
0000
0000
0000
0000
0100
0000
0000
0000
0000
0000
0001
0000
1000
0001
,
1000
0200
0000
0000
0301
0200
0000
0000
1300
0200
0000
0310
0200
0000
1300
0000
,
0001
0200
0000
0000
0310
1000
0001
0000
0001
1000
0100
0000
0010
0001
0000
1000
,
0020
0000
0000
0000
1030
0001
1000
0001
1000
0001
1000
0001
1000
0000
0100
0000
,
0020
0000
0000
0000
0001
0000
0000
0000
0100
0000
0000
0000
0031
0000
0000
0001
,
1000
0000
0100
0000
0010
0000
0001
0000
1000
0100
0010
0001
2000
0000
0000
0000
,
3001
0000
0100
0000
0010
0100
0010
0000
1000
0000
0100
0010
0001
0000
1000
0000
,
0010
0000
0100
0001
0100
0000
0010
0000
1000
0100
1000
0000
0001
0010
0100
0000
,
1000
0000
0100
0000
0010
0001
1000
0000
0010
0000
0100
0001
0100
0000
0010
0000
,
1000
0000
1000
0100
1000
0000
0001
0000
0010
0000
0100
1000
0001
0000
0100
0001
,
2000
3010
0200
0310
0002
0013
2000
3010
,
0100
0000
0001
1000
0001
0000
0100
0000
0002
0000
2003
0000
3200
0000
0320
0000
,
0031
0000
0001
1000
0000
0100
1000
0002
,
0000
0000
0000
0003
0000
0000
0000
0010
,
0001
0101
0110
2020
,
3030
0000
0000
0000
1000
0000
0001
0000
1000
0000
0010
0000
0100
0000
0001
1000
,
0002
0010
1000
0100
,
2003
0000
0010
0000
0001
0000
3100
0100
,
1000
0000
0010
0000
0100
0000
0001
0000
1000
0010
1000
0010
0100
0001
0100
0001
,
1000
0000
0001
1000
0100
0000
1000
0000
0020
0000
0000
0000
0130
0000
0000
0000
,
1001
0000
0000
0000
0001
1000
0001
1000
0100
0000
0000
0010
0000
0000
0100
1000
,
0001
0000
0000
0100
0000
0000
0010
0000
2020
0000
0000
0000
3030
0000
0000
0000
,
1001
0000
0000
0000
1000
0001
1000
0001
0010
0000
0000
0100
0000
0000
1000
0001
,
0100
0000
0000
0010
0000
0000
0100
0001
1000
0000
0000
0100
0000
0000
0010
0001
,
1000
0000
0000
0000
0010
1000
0010
1000
0001
0000
0000
0010
0000
0000
0100
1000
,
0001
0000
0000
0100
0000
0000
0010
0000
2020
0000
0000
0000
3030
0000
0000
0000
,
0101
0000
0000
0000
0100
0001
0100
0001
1000
0000
0000
0100
0000
0000
0010
0000
,
0002
0000
0000
0203
0000
0000
0320
0000
2030
0000
0000
0000
3000
0000
0000
0000
,
1001
0000
0200
0000
1000
1000
0000
0010
,
0010
0000
0001
0001
0000
0010
0310
0000
,
1001
1100
1001
0101
,
1001
0000
0000
0000
1010
0000
0000
0000
0001
0100
0010
1000
0001
0000
0000
0000
,
1001
0000
0000
1100
0000
0000
1000
0001
1000
0000
0000
0011
0000
0000
0001
1000
,
0001
0000
0000
1010
0000
0000
1000
0001
0010
0000
0000
0011
0000
0000
0001
1000
,
0100
0000
0010
0000
0001
0000
1000
0000
0100
0010
0001
1000
0100
0010
0001
1000
,
0020
0030
0000
0000
0200
0300
0000
0000
2002
3003
0000
0000
0000
0000
0000
0000
,
1100
0000
0000
0000
0100
1000
0100
0010
0001
0000
0000
0100
0000
0000
0010
1000
,
0001
0000
0000
0001
1000
0000
0100
0000
0020
0000
0000
0000
0031
1000
0100
1000
,
0001
0000
0000
0000
0100
0001
0100
0010
1000
0000
0000
0100
0000
0000
0010
0001
,
0010
0000
0000
0001
1000
0000
0010
0100
0001
0000
1000
0000
0001
1000
0001
0010
,
0100
0000
0000
0000
1000
0100
0010
0001
1000
0000
0000
1000
0010
0000
0100
0001
,
0100
0000
0000
0010
1000
0000
0001
0010
0200
0000
0000
0000
1300
0001
0010
0001
,
1000
0000
0000
0000
0010
0100
0001
1000
0010
0000
0000
0010
0000
0000
0100
0000
,
0101
0000
0000
0110
0000
0000
0010
0000
2000
0000
0000
0000
3000
0000
0000
0000
,
0100
0000
0000
0000
1000
0100
0010
0001
1000
0000
0000
0010
0000
0000
0100
0001
,
1000
0000
0000
0001
0010
0000
0100
0000
2000
0000
0000
0000
3002
0000
0000
0000
,
1003
0100
0010
0100
1000
0000
0001
0100
0010
0100
0001
0000
1000
0100
0010
0001
,
0100
0000
0001
0010
0100
1000
0010
0000
1000
0001
0100
0001
1000
0100
1000
0001
,
0020
0000
0000
0000
0031
1000
0001
0100
0010
0000
0000
0010
1000
0000
0100
1000
,
0001
0000
0000
0010
0100
0000
1000
0000
0010
0000
0010
0000
0010
0000
0100
0010
,
0200
0000
0000
0000
0301
1000
0100
0010
0001
0000
0000
0001
0000
0000
1000
0000
,
0020
0030
0000
0000
0200
0300
0000
0000
2002
3003
0000
0000
0000
0000
0000
0000
,
0001
0000
1000
0001
1000
0000
0010
0000
1000
0100
1000
0000
0001
0100
0001
0000
,
1000
0000
0001
1000
0001
0000
0010
0000
0100
1000
0001
0000
0100
0001
1000
0000
,
0100
0000
0100
1000
0100
0000
0010
0000
0001
1000
0010
0000
1000
0001
0010
0000
,
0100
0000
1000
0001
1000
0000
0010
0000
0100
0000
0001
0000
1000
0000
0100
0000
,
0001
0000
0100
0010
0000
0100
1000
0100
1000
0000
0001
1000
0000
1000
0010
0100
,
0001
0000
0100
0010
0000
1000
0100
1000
0001
1000
0000
0001
0010
0000
0100
0000
,
1000
0010
1000
0010
0100
0001
0100
0001
1000
0010
1000
0001
0100
0001
1000
0100
,
0010
0000
0001
1000
0100
0000
1000
0000
0020
0000
0000
0000
0230
0000
0000
0000
,
0300
0000
0000
0000
;

//--------------- dance-double - forcednature ----------------
#NOTEDATA:;
#STEPSTYPE:dance-double;
#DESCRIPTION:forcednature;
#DIFFICULTY:Easy;
#METER:8;
#RADARVALUES:0,0,0,0,0;
#CREDIT:forcednature;
#NOTES:
00000000
00000000
00000000
00000000
,
00000000
00000000
00000000
00000000
,
00000000
00000000
00000000
00000000
,
00000000
00000000
00000000
00000000
,
00000000
00000000
00000000
00000000
,
00001000
00001000
00010000
00000000
,
00000010
00000010
00000010
00000000
,
00010000
00010000
00001000
00000000
,
00020000
00030000
00000000
00000000
00002000
00003000
00000000
00000000
00020000
00030000
00000000
00000000
00000000
00000000
00000000
00000000
,
00000010
00001000
00000010
00000000
,
00000100
00000001
00000100
00000000
,
00000001
00001000
00000001
00000000
,
00000010
00000100
00001000
00000000
,
00001001
00000000
00000001
00001000
,
00000010
00000000
00010000
00001000
,
00100000
00100000
00020000
20030000
,
30000000
00000000
00000000
00000000
,
00020000
00000000
00000000
00000000
,
10000000
10000000
10030000
00000000
,
10000000
01000000
00010000
00010000
,
00001000
00010000
00001000
00000000
,
00000010
00000010
00000001
00000100
,
00000000
00002002
00000000
00003003
,
00000000
00000001
00000100
00001000
,
00001000
00010000
00100000
10000000
,
10000000
01000000
00100000
00001000
,
00020000
00030000
00000000
00000000
00002000
00003000
00000000
00000000
00020000
00030000
00000000
00000000
00000000
00000000
00000000
00000000
,
00000010
00001000
00010000
00001000
,
00000010
00001000
00010000
00001000
,
00000010
00000100
00001000
00000100
,
00000001
00000100
00002000
00003000
,
00000000
00000000
00000000
00000000
,
00010000
00100000
00010000
00001000
,
00010000
00100000
10000000
01000000
,
00020000
00000000
00030000
00000000
,
00001000
00000000
00010000
00000000
,
00001000
00010000
00002000
00003000
,
00100000
00010000
01000000
00010000
,
00100000
01000000
10000000
00000000
,
01000000
00010000
00001000
00010000
,
00001000
00000010
00000001
00000000
,
00001000
00001000
00000001
00000200
,
00000300
00000000
00000010
00000000
,
00002002
00000000
00000000
00000000
,
00000000
00000000
00003003
00000000
,
00002000
00000000
00003020
00000000
,
00020030
00000000
00032000
00000000
,
02003000
00000000
00010000
00000000
,
03002000
00000000
00010000
00000000
,
00203000
00000000
00320000
00000000
,
00030000
00000000
00000000
00000000
,
20020000
00000000
30030000
00000000
,
10000000
01000000
00200000
00300000
,
20020000
00000000
30030000
00000000
,
00010000
01000000
00002000
00003000
,
00022000
00000000
00033000
00000000
,
00010000
00000010
00002000
00003000
,
00002002
00000000
00003003
00000000
,
00000001
00000010
00000200
00000300
,
00000220
00000000
00000000
00000000
,
00000000
00000000
00000330
00000000
,
00001001
00000000
00000001
00000000
,
00000001
00000000
00000100
00000000
,
00001000
00001000
00010000
00010000
,
00001000
00010000
00010000
00001000
,
01000000
00010000
01000000
00001000
,
00020000
00030000
00000000
00000000
00002000
00003000
00000000
00000000
00020000
00030000
00000000
00000000
00000000
00000000
00000000
00000000
,
00000010
00001000
00000010
00000100
,
00000001
00001000
00000002
00000003
,
00000010
00000100
00001000
00000100
,
00010000
00001000
00010000
00001000
,
00100000
00010000
00100000
01000000
,
10000000
00010000
02000000
03000000
,
00010000
10000000
00100000
10000000
,
00010000
00100000
00020000
00030000
,
20000000
00000000
00010000
00000000
,
00010000
00010000
00010000
30000000
,
10000000
10000000
01000000
01000000
,
00010000
00010000
00001000
00000100
,
00000001
00000100
00000010
00000100
,
00000001
00001000
00000200
00000300
,
00010000
00000010
00001000
00000010
,
00020000
00030000
00000000
00000000
00002000
00003000
00000000
00000000
00020000
00030000
00000000
00000000
00000000
00000000
00000000
00000000
,
00001000
00100000
00010000
00100000
,
01000000
10000000
01000000
00100000
,
00010000
01000000
00001000
00010000
,
00000010
00001000
00000100
00000000
,
00001001
00000000
00000110
00000000
,
00011000
00000000
01100000
00000000
,
10000000
01000000
00100000
00010000
,
00000000
02000000
03200000
02300000
,
03000000
00000000
00000000
00000000
;

//--------------- dance-double - forcednature ----------------
#NOTEDATA:;
#STEPSTYPE:dance-double;
#DESCRIPTION:forcednature;
#DIFFICULTY:Medium;
#METER:12;
#RADARVALUES:0,0,0,0,0;
#CREDIT:forcednature;
#NOTES:
00000000
00000000
00000000
00000000
,
00000000
00000000
00000000
00000000
,
00000000
00000000
00000000
00000000
,
00000000
00000000
00000000
00000000
,
00000000
00000000
00000000
00000000
,
00002000
00100000
00103000
00000000
,
00001000
00010000
00011000
00000000
,
00020000
00000010
00030010
00000000
,
00020000
00030000
00000000
00000000
00002000
00003000
00000000
00000000
00022000
00033000
00000000
00000000
00000000
00000000
00000000
00000000
,
00000010
00000000
00001000
00000010
00001000
00000000
00000001
00000000
,
00000010
00000000
00000100
00001000
00000100
00000000
00010000
00001000
,
00010000
00000000
00001000
00100000
00010000
00000000
10000000
00000000
,
00100000
00000000
10000000
00010000
20000000
00000000
30000000
00000000
,
01000000
00000000
00000000
10000000
00000000
00000000
01000000
00000000
00100000
00000000
00000000
00100000
00000000
00000000
00100000
00000000
,
00001000
00000000
00000000
00010000
00000000
00000000
00000100
00000000
00001000
00000000
00000000
00001000
00000000
00000000
00001000
00000000
,
00000002
00000203
00000320
00002030
,
00003000
00000001
00001000
00000001
00001000
00000000
00002002
00000000
,
00003003
00000000
00000000
00000000
,
00000001
00000001
00000002
00001003
,
00001100
00001100
00010000
00001000
,
00011000
00011000
00100000
00010000
,
10000000
00010000
10000000
00000000
00010000
10000000
00010000
00000000
,
02000000
03100000
10000000
00010000
,
00000000
00000000
00000000
10010000
00000000
00000000
10000000
00000000
00000000
00010000
00000000
01000000
,
00010000
00000000
00000000
00100000
00000000
00000000
00001000
00000000
00001000
00010000
00000000
00001000
,
00010000
00000010
00001000
00000100
,
00020000
00030000
00000000
00000000
00002000
00003000
00000000
00000000
00022000
00033000
00000000
00000000
00000000
00000000
00000000
00000000
,
00100000
00000000
00100000
00001000
00100000
00000000
00100000
00010000
,
00100000
00000000
00000000
00000000
00100000
00000000
01000000
00000000
00100000
00000000
00000000
00100000
00000000
00000000
00001000
00000000
,
00010000
00001000
00010000
00000100
00010000
00000000
00010000
00001000
,
00010000
00000000
00000000
00010000
00000000
00000000
00000010
00000000
00020000
00000000
00000000
00000000
00030000
00000000
00000000
00000000
,
00001000
00000000
00000000
00000010
00000000
00000000
00000001
00000010
,
00000001
00000000
00000001
00001000
00000001
00000001
00000100
00000000
,
00001001
00000000
00000001
00000010
00000001
00001000
00000100
00000000
,
00022000
00000000
00003000
00000000
,
00000100
00000100
00001000
00001000
,
00000010
00000010
00031000
00011000
,
00100000
00000000
00010000
00100000
00010000
00100000
01000000
00000000
,
10000000
00100000
01000000
00000000
00010000
10000000
01000000
00000000
,
00100000
00000000
00001000
00010000
00001000
00010000
00000100
00000000
,
00001000
00000001
00000100
00000000
00000001
00001000
00000100
00000000
,
00000020
00000032
00000203
00002300
,
00013000
00000000
00010000
00001000
00000000
00001000
00010000
00001000
,
00020000
00000000
00000000
00000000
,
00230000
00000000
00000000
00000000
,
20300000
00000000
30020000
00000000
,
00230000
00000000
02300000
00000000
,
23000000
00000000
01000000
01000000
,
32000000
00000000
00010000
00010000
,
03020000
00001000
00032000
00003020
,
00000030
00000001
00001000
00000001
00001000
00000000
00000010
00000000
,
00001001
00000000
00000000
00000000
00000000
00000000
00000000
00000000
00000001
00000000
00000000
00000100
00000000
00000000
00000001
00000000
,
00000100
00000000
00000000
00001000
00000000
00000000
00000100
00000000
00002000
00000000
00000000
00000000
00003000
00000000
00000000
00000000
,
00011000
00000000
00000000
00000000
00000000
00000000
00000000
00000000
00010000
00000000
00000000
00100000
00000000
00000000
00010000
00000000
,
00100000
00000000
00000000
10000000
00000000
00000000
00100000
00000000
10000000
00000000
00000000
01000000
00000000
00000000
10000000
00000000
,
02000000
00000000
00000000
00000000
03000000
00000000
00000000
00000000
00010000
00000000
00000000
01000000
00000000
00000000
10000000
00000000
,
01000000
00000000
00000000
00100000
00000000
00000000
00001000
00000000
00020000
00000000
00000000
00000000
00030000
00000000
00000000
00000000
,
00011000
00000000
00000000
00000000
00000000
00000000
00000000
00000000
00000010
00000000
00000000
00001000
00000000
00000000
00000010
00000000
,
00000200
00000001
00000301
00000000
,
00002002
00000000
00000000
00000000
,
00000000
00000000
00000000
00003003
,
00000001
00000010
00001000
00010000
,
00100000
00000000
10000000
00000000
01000000
00100000
01000000
00000000
,
10000000
00000000
00000000
10000000
00000000
00000000
10000000
00000000
01000000
00000000
00000000
01000000
00000000
00000000
01000000
00000000
,
00100000
00000000
00000000
00100000
00000000
00000000
00100000
00000000
00010000
00000000
00000000
00010000
00000000
00000000
00010000
00000000
,
00002000
00003200
00002300
00003020
,
00020030
00030000
00000000
00000000
00002000
00003000
00000000
00000000
00022000
00033000
00000000
00000000
00000000
00000000
00000000
00000000
,
00101000
00000000
00100000
00010000
01000000
00010000
01000000
00000000
,
00100000
10000000
01000000
00000000
00100000
00010000
10000000
00000000
,
11000000
00000000
00010000
01000000
00010000
01000000
00001000
00000000
,
00010000
00001000
00010000
00000000
00001000
00100000
00010000
00000000
,
00110000
00000000
00001000
00010000
00000010
00001000
00000010
00000000
,
00001000
00000001
00000100
00000000
00000001
00001000
00000100
00000000
,
00000110
00000000
00000000
00000000
00000010
00000000
00000001
00000000
00001000
00000000
00000000
00001000
00000000
00000000
00001000
00000000
,
00000001
00000000
00000000
00000100
00000000
00000000
00000001
00000000
00000200
00000000
00000000
00000000
00000300
00000000
00000000
00000000
,
00002000
00000000
00000000
00000000
,
00000000
00010000
00100000
01003000
,
00001000
00010000
00001000
00100000
00010000
00100000
00001000
00010000
,
00000010
00001000
00000010
00010000
00001000
01000000
00010000
10000000
,
01000000
00000000
00100000
00010000
00100000
00010000
01000000
00000000
,
00001000
00010000
00001000
00000000
00010000
00000010
00001000
00000000
,
00001010
00000000
00000010
00001000
00000010
00000100
00000001
00000100
,
00002000
00003000
00000000
00000000
00020000
00030000
00000000
00000000
00022000
00033000
00000000
00000000
00100000
00000000
00000000
00000000
,
00020000
01000000
10000000
00100000
,
00032000
00000100
00000001
00000010
,
00013000
00010000
00010000
00000000
01000000
00010000
01000000
00000000
,
00100000
10000000
01000000
00000000
00100000
00001000
00010000
00000000
,
00000100
00000000
00000000
00000100
00000000
00000000
00000100
00000000
00001000
00000000
00000000
00001000
00000000
00000000
00001000
00000000
,
00000001
00000000
00000000
00000001
00000000
00000000
00000001
00000000
00000100
00000000
00000000
00000100
00000000
00000000
00000100
00000000
,
00002000
00023000
00230000
20300000
,
30000000
00010000
10000000
00010000
10000000
00000000
20020000
00000000
,
30030000
00000000
00000000
00000000
;

//--------------- dance-double - forcednature ----------------
#NOTEDATA:;
#STEPSTYPE:dance-double;
#DESCRIPTION:forcednature;
#DIFFICULTY:Hard;
#METER:16;
#RADARVALUES:0,0,0,0,0;
#CREDIT:forcednature;
#NOTES:
00000000
00000000
00000000
00000000
,
00000000
00000000
00000000
00000000
,
00000000
00000000
00000000
00000000
,
00000000
00000000
00000000
00000000
,
00000000
00000000
00000000
00000000
,
00002000
00010000
00103000
00000000
,
00001000
00010000
00011000
00000000
,
00020000
00001000
00030010
00000000
,
00020000
00030000
00000000
00000000
00002000
00003000
00000000
00000000
00022000
00033000
00000000
00000000
00000000
00000000
00000000
00000000
,
00010000
00001000
00010000
00100000
01000000
00100000
01000000
00010000
,
10000000
00000000
01000000
00000000
00100000
00000000
01000000
00000000
10000000
00000000
00010000
00000000
00100000
00000000
00001000
00010000
,
00001000
00010000
00000010
00010000
00001000
00000010
00001000
00010000
,
00000100
00000000
00001000
00000000
00000010
00000000
00000100
00000000
00000001
00000100
00000001
00000100
00000001
00000000
00000000
00000000
,
00001000
00000000
00000100
00000000
00001000
00000000
00000001
00001000
00000001
00000000
00000010
00000000
00000100
00000000
00001000
00000100
,
00001000
00000000
00000010
00000000
00010000
00000000
00001000
00010000
00001000
00000000
00100000
00000000
00010000
00000000
10000000
00010000
,
10000000
01000000
00100000
01000000
10000000
00100000
00010000
00100000
,
00000000
00000000
01000000
00100000
01000000
00000000
00100000
00000000
20000000
00000000
00000000
00000000
30020000
00000000
00000000
00000000
,
00030000
00000000
00000000
00000000
,
10000000
00000000
10000000
00000000
10000000
01000000
00010000
00001000
,
00100000
00000000
00100000
01000000
00100000
00001000
00100000
00010000
,
00100000
00000000
00000000
00000000
00100000
00000000
00001000
00100000
00001000
00000000
00000000
00001000
00010000
00000000
00000010
00000000
,
00010000
00010000
00010000
00000100
00001000
00000001
00001000
00000010
,
00000100
00000001
00000100
00000001
00002000
00000000
00000000
00000000
00003000
00000000
00000100
00000000
00000010
00000000
00000000
00000000
,
00001001
00000000
00000000
00000001
00000100
00000001
00000100
00000010
00000100
00000010
00001000
00000010
,
00002000
00000000
00000000
00013000
01000000
00010000
01000000
00100000
10000000
01000000
00100000
00010000
,
01000000
00000000
00000000
00100000
00000000
00000000
01000000
00100000
01000000
00001000
00010000
00000010
,
00020000
00030000
00000000
00000000
00002000
00003000
00000000
00000000
00022000
00033000
00000000
00000000
00000000
00000000
00000000
00000000
,
00010000
00000000
00100000
00000000
10000000
00000000
00100000
00000000
00010000
00000000
00001000
00000000
00000010
00000000
00000001
00000010
,
00000100
00000000
00001000
00000000
00000001
00000000
00000100
00000000
00001000
00010000
00000000
00010000
00001000
00000000
00100000
00000000
,
00010000
10000000
01000000
00100000
00010000
00000000
01000000
00000000
10000000
00000000
01000000
00000000
00010000
00000000
01000000
00100000
,
01000000
00000000
00000000
01000000
00000000
00000000
00100000
00000000
00010000
00000000
00001000
00010000
00001000
00000000
00000000
00000000
,
00100000
00000000
00000000
00000000
00000000
00000000
00000010
00000000
00000000
00000000
00000000
00000000
00010000
00000000
00001000
00010000
,
00001000
00000000
00000010
00000000
00000001
00000000
00000010
00000000
00001000
00010000
00000000
00010000
00001000
00000000
01000000
00000000
,
00001000
00000000
00000000
00000000
00010000
00001000
00010000
00000000
00001000
00100000
00001000
00000000
00100000
00010000
00000000
01000000
,
00020000
00000000
00000000
00000000
01030000
00100000
01000000
00100000
01000000
00010000
01000000
00010000
01000000
00000000
00001000
00000000
,
00020000
01000000
00001000
01000000
,
00032000
00000100
00010000
00003010
,
00000110
00000000
00001000
00000000
00000100
00001000
00000100
00000000
00010000
00000000
00001000
00010000
00000010
00000000
00001000
00000000
,
00000100
00000000
00010000
00001000
00010000
00000000
00000100
00000000
00001000
00000001
00001000
00000000
00000010
00000000
00000100
00000000
,
00001000
00000000
00010000
00001000
00010000
00000000
00100000
00000000
00010000
00000000
00001000
01000000
00010000
00000000
01000000
00000000
,
00100000
00000000
10000000
01000000
00100000
00000000
00010000
00000000
01000000
00000000
00001000
00010000
00001000
00000000
00100000
00000000
,
00010000
01000000
00001000
00010000
00000010
00001000
00010000
00001000
,
00000010
00000000
00000100
00000001
00000100
00000000
00000010
00000000
00001000
00000001
00001000
00000000
00000100
00000000
00000010
00000000
,
00000001
00000000
00000100
00000010
00000000
00000100
00001000
00020000
,
00000000
00000000
00000000
00030000
00000000
00000000
00000000
00001000
,
00100000
00110000
01100000
22000000
,
33000000
00000000
00000000
00000000
10000000
00000000
00010000
00000000
10000000
00000000
00100000
00000000
01000000
00000000
00010000
10000000
,
00010000
00000000
00100000
01000000
00100000
00001000
00010000
00000200
,
00000000
00000000
00000000
00000300
00000000
00000000
00010000
00001000
,
00010000
00000000
00000100
00000000
00001000
00000000
00000010
00000000
00000100
00000010
00000100
00000010
00000100
00000001
00000100
00000001
,
00001000
00000000
00000100
00000010
00000100
00000000
00000010
00000000
00000002
00000000
00000000
00000000
00001003
00000000
00000000
00000000
,
00001001
00000000
00000000
00000000
00000001
00000100
00000001
00001000
00000001
00000000
00000000
00000010
00000000
00000000
00001000
00000000
,
00010000
00000000
00000000
01000000
00000000
00000000
10000000
00000000
02000000
00000000
00000000
00000000
03000000
00000000
00000000
00000000
,
10010000
00000000
00000000
00000000
10000000
00100000
10000000
00010000
10000000
00000000
00000000
01000000
00000000
00000000
00010000
00000000
,
00001000
00000000
00000000
00000100
00000000
00000000
00001000
00010000
00001000
00000000
00000000
00001000
00000000
00000000
00010000
00001000
,
00010000
00000000
00000000
00000000
00000010
00001000
00000010
00000100
00000001
00000000
00000000
00000100
00000000
00000000
00000010
00001000
,
00000001
00000000
00000000
00000010
00000000
00000000
00001000
00000000
00020000
00000000
00000000
00000000
00030000
00000000
00000000
00000000
,
00011000
00000000
00000000
00000000
00001000
00100000
00010000
00100000
01000000
00000000
00000000
10000000
00000000
00000000
00010000
00000000
,
01000000
00000000
00000000
00100000
00000000
00000000
01000000
00000000
00002000
00000000
00000000
00000000
00003000
00000000
00000000
00000000
,
00021000
00000000
00100000
00000000
00000000
00001000
00000000
00000000
,
00000100
00000000
00000000
00001000
00000000
00000000
01030000
00000000
,
01100000
00000000
00100000
00010000
01000000
00001000
00010000
00000010
,
00001000
00000000
00000100
00000000
00010000
00000000
00001000
00000000
00100000
00001000
00010000
00001000
00010000
00000000
00000000
00000000
,
00000010
00000000
00000000
00001000
00000000
00000000
00000100
00001000
00000100
00000000
00000000
00000010
00000000
00000000
00000001
00000100
,
00000001
00000000
00000000
00000101
00000000
00000000
00000100
00000010
00000100
00000000
00000000
00001010
00000000
00000000
00001000
00000010
,
00001000
00000000
00000100
00000000
00010000
00000000
00001000
00000000
00100000
00010000
00100000
00010000
00100000
00001000
00100000
00001000
,
00020000
00030000
00000000
00000000
00002000
00003000
00000000
00000000
00022000
00033000
00000000
00000000
00000000
00000000
00000000
00000000
,
00010010
00000000
00000000
00000000
00000010
00001000
00000010
00000100
00000001
00000000
00000000
00001000
00000000
00000000
00000100
00001000
,
00000001
00000000
00000000
00000010
00000000
00000000
00000100
00000000
00002000
00000000
00000000
00000000
00003001
00000100
00000001
00000100
,
00000010
00000000
00000000
00000000
00001000
00000100
00010000
00001000
00010000
00000000
00000000
00001000
00000000
00000000
00100000
00010000
,
00100000
00000000
00000000
01000000
00000000
00000000
10000000
00010000
10000000
00000000
00100000
00000000
01000000
00010000
01000000
00010000
,
10000000
00000000
00000000
00000000
01000000
00100000
00010000
00100000
00001000
00000000
00000000
00001000
00010000
00000000
00000010
00001000
,
00000010
00000000
00000000
00001000
00000100
00000000
00000010
00000000
00000002
00000000
00000000
00000000
00001003
00000010
00000100
00000001
,
00001000
00000000
00000000
00000000
00000001
00000010
00000100
00001000
00000001
00000000
00000000
00000100
00000000
00000000
00001000
00000000
,
00010000
00000000
00000000
01000000
00000000
00000000
10000000
00000000
02000000
00000000
00000000
00000000
03000000
00000000
00000000
00000000
,
00100000
00000000
00000000
00000000
00010000
10000000
01000000
00100000
00010000
00000000
00000000
01000000
00000000
00000000
00001000
00010000
,
00001000
00000000
00000000
00100000
00020000
00000000
00000000
00000000
20030000
00000000
00000000
00000000
32000000
00000000
00000000
00000000
,
03010000
00001000
00010000
00001000
00100000
00000000
00001000
00010000
00001000
00010000
00000010
00000000
00010000
00001000
00010000
00001000
,
01000000
00000000
00001000
00010000
00001000
00010000
00000100
00000000
00010000
00000000
00001000
00000000
00000100
00000000
00000001
00000000
,
00000200
00000000
00000000
00000000
00000310
00001000
00000010
00000100
00000001
00000000
00000000
00000001
00000010
00000000
00000100
00001000
,
00000001
00000000
00000000
00000100
00000010
00000000
00001000
00000000
00000100
00000000
00000100
00000000
00000100
00000000
00010000
00001000
,
00020000
00000000
00000000
00000000
00031000
00100000
00010000
00100000
01000000
00000000
00000000
10000000
00000000
00000000
01000000
00000000
,
00020000
00030000
00000000
00000000
00002000
00003000
00000000
00000000
00022000
00033000
00000000
00000000
00000000
00000000
00000000
00000000
,
00000010
00000000
00001000
00000010
00001000
00000000
00000001
00000000
00001000
00000100
00001000
00000000
00000001
00000100
00000001
00000000
,
00001000
00000000
00000010
00001000
00000010
00000000
00010000
00000000
00001000
00010000
00001000
00000000
00100000
00010000
00100000
00000000
,
00001000
00000000
00001000
01000000
00001000
00000000
00010000
00000000
00001000
00100000
00010000
00000000
00100000
00010000
10000000
00000000
,
01000000
00000000
00100000
01000000
10000000
00000000
01000000
00000000
00100000
00000000
00001000
00000000
00010000
00000000
00000010
00000000
,
00001000
00000000
00000100
00001000
00000100
00000000
00001000
00000001
00001000
00000000
00000010
00000100
00000001
00000000
00000010
00000000
,
00000100
00000000
00010000
00001000
00010000
00000000
00001000
00100000
00001000
00000000
00100000
00010000
01000000
00000000
00100000
00000000
,
10000000
00000000
01000000
00000000
00010000
00000000
00001000
00000000
00010000
00000100
00010000
00000100
00001000
00000100
00001000
00000100
,
00000010
00000000
00000100
00000010
00000100
00000000
00000010
00000000
00000002
00000000
00000000
00000000
00002003
00000000
00000000
00000000
,
00003000
00000000
00000000
00000000
;
