#VERSION:0.83;
#TITLE:Mr. Freedom;
#SUBTITLE:;
#ARTIST:PON;
#TITLETRANSLIT:Mr. Freedom;
#SUBTITLETRANSLIT:;
#ARTISTTRANSLIT:;
#GENRE:;
#CREDIT:;
#MUSIC:Mr. Freedom.ogg;
#BANNER:mr. freedom-bn.png;
#BACKGROUND:b4u-bg.png;
#CDTITLE:;
#SAMPLESTART:52.445;
#SAMPLELENGTH:12.000;
#SELECTABLE:YES;
#OFFSET:-0.529;
#BPMS:0.000=180.000;
#STOPS:;
#SPEEDS:0.000=1.000=0.000=0;
#SCROLLS:0.000=1.000;
#TICKCOUNTS:0.000=4;
#TIMESIGNATURES:0.000=4=4;
#LABELS:0.000=Song Start;
#COMBOS:0.000=1;
#ORIGIN:;
#PREVIEWVID:;
#JACKET:;
#CDIMAGE:;
#DISCIMAGE:;
#BGCHANGES:;
#FGCHANGES:;

//--------------- dance-single - nobarben ----------------
#NOTEDATA:;
#STEPSTYPE:dance-single;
#DESCRIPTION:nobarben;
#DIFFICULTY:Beginner;
#METER:6;
#RADARVALUES:0.260959,0.333558,0.156051,0.128512,0,199,182,17,14,0,0,0,0,0,0.260959,0.333558,0.156051,0.128512,0,199,182,17,14,0,0,0,0,0;
#CHARTNAME:;
#CHARTSTYLE:;
#CREDIT:nobarben;
#NOTES:
0000
0000
0000
0000
,
0000
0000
0000
0000
,
0000
0000
0000
0000
,
0000
0000
0000
0000
,
1000
1000
1000
0000
,
0001
0000
0100
0000
,
0001
0001
0001
0000
,
0010
0000
0100
0000
,
2000
0000
0000
3000
,
0002
0000
0000
0003
,
0200
0000
0000
0300
,
0001
0001
0000
1000
,
0000
0001
0000
1000
,
0000
0100
0000
0010
,
0000
0001
0000
1000
,
0000
0001
0000
0100
,
0200
0000
0000
0300
,
0001
0100
0001
0000
,
1000
0000
0100
0000
,
0110
0000
0110
0000
,
1001
0000
0000
0000
,
2002
0000
0000
0000
,
0000
0000
0000
3003
,
0001
0100
0001
0000
,
1000
0100
1000
0000
,
0001
0100
0001
0100
,
0010
0000
0000
0000
,
1000
0100
1000
0000
,
0001
0100
0001
0000
,
1000
0100
1000
0100
,
0010
0000
0000
0000
,
0001
0010
0001
0000
,
1000
0000
0010
0000
,
0110
0000
0110
0000
,
1001
0000
0000
0000
,
1000
0100
1000
0000
,
0100
0000
0010
0000
,
0110
0000
0000
0000
,
1001
0000
0000
0000
,
0001
0100
0001
0100
,
0001
1000
0001
0000
,
1000
0100
1000
0100
,
1000
0001
1000
0000
,
0001
0010
0001
0010
,
0001
1000
0001
0000
,
1000
0010
0100
0010
,
0110
0000
1001
0000
,
0001
0001
0010
0000
,
1000
1000
0010
0000
,
0001
0001
0100
0000
,
1000
1000
0100
0000
,
1000
1000
0010
0000
,
0001
0001
0010
0000
,
1000
1000
0100
0000
,
0001
0001
0100
0000
,
0001
1000
0001
0000
,
2002
0000
0000
3003
,
0010
0100
0010
0000
,
0220
0000
0000
0330
,
1000
0001
1000
0000
,
0100
0100
0100
0000
,
2002
0000
0000
3003
,
0000
0000
0000
0000
,
0001
0100
0001
0100
,
0010
1000
0010
0000
,
1000
0100
1000
0100
,
0010
0001
0010
0000
,
0001
1000
0001
1000
,
0010
0100
0010
0000
,
1000
0001
1000
0001
,
0010
0100
0010
0000
,
1001
0000
0000
0000
,
0000
0000
0000
0000
,
0110
0000
0000
0000
,
0000
0000
0000
0000
,
1000
0100
1000
0000
,
0100
0100
0010
0000
,
0001
0010
0001
0000
,
0100
0100
0010
0000
,
1000
0000
0001
0000
,
2002
0000
0000
3003
;

//--------------- dance-single - nobarben ----------------
#NOTEDATA:;
#STEPSTYPE:dance-single;
#DESCRIPTION:nobarben;
#DIFFICULTY:Easy;
#METER:10;
#RADARVALUES:0.490445,0.591156,0.706818,0.156051,0,374,297,77,17,0,0,0,0,0,0.490445,0.591156,0.706818,0.156051,0,374,297,77,17,0,0,0,0,0;
#CHARTNAME:;
#CHARTSTYLE:;
#CREDIT:nobarben;
#NOTES:
0000
0000
0000
0000
,
0000
0000
0000
0000
,
0000
0000
0000
0000
,
0000
0000
0000
0000
,
1000
0100
0110
0011
,
1000
0010
0110
0000
,
0001
0000
0100
0000
0110
0000
0010
1000
,
0000
0001
0000
0001
0000
0000
0000
0000
,
1000
0000
0010
0000
,
1002
0000
0000
0000
,
0023
0000
0000
0000
,
0031
0100
0010
1010
,
1000
0100
0010
0011
,
0001
1000
0010
0110
,
0100
0001
1000
1100
,
0100
0010
0001
0011
,
1001
0000
0000
1000
0000
0001
1000
0000
,
1000
0000
0100
0000
0010
0001
0010
0000
,
0001
0000
0100
0000
0010
1000
0010
0000
,
1000
1100
0001
0101
,
1000
1010
0001
0011
,
1000
0100
1000
0100
0000
0010
0001
0010
,
0000
0001
1000
0002
0000
0103
0100
0000
,
0001
0000
0100
0000
0010
0100
0010
0000
,
1000
0000
0100
0000
0010
0100
0010
0000
,
0001
0010
1000
0010
,
0001
1000
1001
0000
,
1000
0000
0010
0000
1000
0010
1000
0000
,
0001
0000
0010
0000
0001
0010
0001
0000
,
1000
0010
0001
0010
,
1000
0000
0000
1001
0000
0001
1000
0000
,
0001
0010
0100
0000
1000
0000
0010
0000
,
1000
0010
0100
0000
0001
0000
1000
0000
,
0100
1000
0100
0000
1000
0010
1000
0000
,
0001
0100
0001
0000
0010
0001
0010
0000
,
0001
0100
0001
0100
0000
0010
0000
1010
,
0000
0000
1000
0001
,
0011
0000
0000
0110
0000
0000
1001
0000
,
1000
0001
0000
0000
0000
0001
1000
0000
,
0101
0101
1100
1100
,
0101
1100
1001
0000
,
1010
1010
0011
0011
,
1010
0011
1001
0000
,
0011
0000
0011
0000
0110
0000
0000
1001
,
0000
0000
0000
0110
0000
0000
0000
1010
,
0000
0010
0100
0001
,
2002
3003
0220
0330
,
1001
0000
0001
0100
0010
0000
0000
0000
,
1010
0000
1000
0001
0010
0000
0000
0000
,
0011
0000
0010
0100
1000
0000
0000
0000
,
0002
0000
0203
0300
,
0110
0000
0010
1000
0001
0000
0000
0000
,
0011
0000
0001
0010
0100
0000
0000
0000
,
1100
0000
1000
0001
0100
0000
0000
0000
,
2002
3003
0220
0330
,
0001
0100
0001
0000
0100
0010
0100
0000
,
0010
0000
1000
0000
0001
0001
0000
1000
,
0000
1000
0100
0000
0010
0100
0010
0000
,
0001
0000
1000
0000
0010
0010
0000
0100
,
0000
0001
0100
0000
0001
1000
0001
0000
,
0011
0000
0010
0000
0100
1000
0001
0000
,
1001
0000
0000
0110
0000
0000
1001
0000
,
0001
1000
0000
0000
0000
0001
1000
0000
,
0101
0101
0011
0011
,
0101
1010
1001
0000
,
1010
1010
1100
1100
,
1010
0101
1001
0000
,
0001
0100
0001
0000
0100
0010
0100
0010
,
0000
1000
0000
1001
0000
1000
0000
0001
,
0000
1000
0100
1000
,
0002
0000
0023
0030
,
0110
0000
0000
0000
0000
0000
0000
1000
,
0000
0000
0000
0001
0000
0000
1000
0000
,
0001
0010
0001
0000
0010
0000
0000
0100
,
0000
0000
0000
1000
0000
0000
0001
0000
,
1000
0100
0110
0011
,
1000
0010
0110
0101
,
0001
0000
0010
0000
0110
0000
0100
1000
,
0000
0001
1000
0001
0000
0100
0001
0000
,
0010
0000
0100
0000
,
2002
0000
3003
0000
;

//--------------- dance-single - nobarben ----------------
#NOTEDATA:;
#STEPSTYPE:dance-single;
#DESCRIPTION:nobarben;
#DIFFICULTY:Medium;
#METER:13;
#RADARVALUES:0.629448,0.628104,0.16523,0.247845,0.050487,480,462,18,27,0,0,0,0,0,0.629448,0.628104,0.16523,0.247845,0.050487,480,462,18,27,0,0,0,0,0;
#CHARTNAME:;
#CHARTSTYLE:;
#CREDIT:nobarben;
#NOTES:
0000
0000
0000
0000
,
0000
0000
0000
0000
,
0000
0000
0000
0000
,
0000
0000
0000
0000
,
0011
0000
0110
0000
0010
0001
1000
0000
,
0001
0100
0001
0100
0010
1000
0001
0000
,
1010
0000
0110
0000
0010
1000
0001
2000
,
0000
3100
1000
0100
0010
0001
1000
0000
,
0001
0000
0010
0000
0100
0000
1000
0000
0010
0000
0100
0000
,
0102
0000
0000
0000
,
0023
0000
0000
0230
0000
1300
0001
0000
,
1000
0100
1000
0000
0001
0100
0001
0000
,
1000
0010
1000
0000
0001
0010
0001
0000
,
1000
0100
0010
0000
0100
1000
0001
0000
,
1000
0010
0100
0000
0010
1000
0001
0000
,
0001
0010
0100
0000
0010
0001
1000
0000
,
0001
0000
0100
0020
0000
1030
0001
0000
,
1000
0100
1000
0100
0010
0001
1000
0000
,
0001
0100
0001
0100
0010
1000
0001
0000
,
1000
0100
0001
0000
0001
0100
1000
0000
,
0001
0100
1000
0000
1000
0100
0001
0000
,
1000
0010
0100
0020
0000
1030
0001
0020
,
0000
0031
0100
0020
0000
1000
1030
0000
,
0001
0010
0001
0010
0100
1000
0010
0000
,
1000
0010
1000
0010
0100
0001
0010
0000
,
0001
0100
0010
0000
1000
0100
0010
0000
,
0001
0010
1000
0001
0100
1000
0001
0000
,
1000
0100
1000
0100
0010
0001
0100
0000
,
0001
0100
0001
0100
0010
1000
0100
0000
,
1000
0100
0010
0000
0001
0100
0010
0000
,
1000
0010
0001
2000
0000
3100
0001
0000
,
1000
0100
0010
0100
1000
0001
0100
0000
,
0001
0010
0100
0010
0001
1000
0010
0000
,
1000
0010
0001
0000
0001
0010
1000
0000
,
0001
0010
1000
0000
1000
0010
0001
0000
,
1000
0010
0001
0010
0000
1000
0000
2002
,
0000
3003
0000
0000
0100
0000
0001
0000
,
0011
0000
0000
0110
0000
0000
1100
0000
,
0001
0100
0001
0020
0000
0100
0130
0000
,
1000
0100
1000
0100
0010
0100
1000
0001
,
0100
0010
0100
0010
1000
0010
0100
0001
,
0010
0100
1000
0100
0001
1000
0010
0001
,
1000
0010
0100
0010
0001
0010
1000
0000
,
0001
0100
0001
0100
0010
1000
0100
0010
,
0000
0001
0010
1000
0000
1000
0010
0001
,
0000
1000
0010
0100
0010
0001
0010
1000
,
0002
0000
0013
0100
1000
0000
0001
0100
,
0010
1000
1001
0000
,
1000
0100
0110
0000
,
0001
1000
1010
0000
,
1000
0100
0010
0001
0100
0010
1000
0000
,
0001
0000
0000
0010
0000
0000
0100
0000
0110
0000
0000
0000
0000
0000
0000
0000
,
1000
0000
0000
0010
0000
0000
0100
0000
0110
0000
0000
0000
0000
0000
0000
0000
,
0001
0000
0000
1000
0000
0000
0100
0000
1100
0000
0000
0000
0000
0000
0000
0000
,
1000
0100
0010
0001
0100
0010
1000
0000
,
0001
0100
0010
0100
1000
0100
0010
0100
,
0001
0010
0100
1000
0001
0001
0000
2000
,
0000
3010
0100
0000
0001
0010
0200
0000
,
1300
0100
0001
0200
1000
1300
0001
0100
,
0000
0100
0010
0000
1000
0010
0001
0000
,
0010
1000
0100
0010
0001
0100
0010
0000
,
1000
0010
1000
0001
0100
0001
0010
0100
,
0000
1000
0001
2000
0000
0010
3010
0000
,
0001
0100
0001
0100
0010
0100
0001
0100
,
1000
0100
0001
0100
0010
0100
0010
0000
,
1000
0100
1000
0100
0010
0100
0001
0100
,
1000
0100
0001
0100
0010
0100
0010
0000
,
0001
0010
0001
0010
1000
0010
0001
1000
,
0000
1000
0010
0001
0000
0001
0010
1000
,
0000
0001
0010
0100
1000
0100
0010
0001
,
0200
0000
0310
1000
0002
0000
0013
0100
,
1100
0000
0000
0000
0000
0000
0000
0001
,
0000
1000
0010
0120
0000
1030
0001
0010
,
0100
0100
0100
0000
1000
0001
1000
0200
,
0000
0310
0001
0100
0000
0100
0010
0000
,
1000
0010
0001
0010
1000
0010
0001
0020
,
0000
1030
0001
0020
0000
0130
0010
0010
,
0001
0010
1000
0010
0001
0010
1000
0020
,
0000
0031
0100
2000
0000
3100
0001
1000
,
0001
0000
0010
0000
0100
0000
1000
0000
0010
0000
0100
0000
,
0220
0000
0330
0000
;

//--------------- dance-single - nobarben ----------------
#NOTEDATA:;
#STEPSTYPE:dance-single;
#DESCRIPTION:nobarben;
#DIFFICULTY:Hard;
#METER:16;
#RADARVALUES:0.886473,0.923682,0.771074,0.33046,0.380947,676,592,84,36,0,0,0,0,0,0.886473,0.923682,0.771074,0.33046,0.380947,676,592,84,36,0,0,0,0,0;
#CHARTNAME:;
#CHARTSTYLE:;
#CREDIT:nobarben;
#NOTES:
0000
0000
0000
0000
,
0000
0000
0000
0000
,
0000
0000
0000
0000
,
0000
0000
0000
0000
,
0001
0010
0001
0100
0010
1000
0100
0020
,
0000
0031
1000
0020
0000
0130
0001
0001
,
1000
0010
1000
0100
0010
0001
0100
0020
,
0000
0000
1030
0001
1000
0000
0200
0000
0000
0000
0310
0000
0001
0000
0001
0000
,
1000
0000
0010
0000
0001
0000
0010
0000
1000
0000
0100
0000
,
2002
0000
0000
3000
,
0023
0000
0000
0230
0000
2300
3002
0000
,
1003
0010
0110
0000
0001
0010
0110
0000
,
1000
0100
0110
0000
0001
0100
0110
0000
,
1000
0000
0010
0000
0110
0000
0000
0001
1000
0000
0100
0000
1100
0000
0000
0000
,
0001
0000
0010
0000
0110
0000
0000
1000
0001
0000
0100
0000
0101
0000
0000
0000
,
1000
0000
0100
0000
0110
0000
0000
0001
1000
0000
0010
0000
1010
0000
0000
0000
,
0001
0000
0100
0010
1000
0000
0200
0000
0000
0000
0310
0001
1000
0000
0001
0000
,
1000
1000
0010
0100
1000
0100
0001
1000
,
0001
0001
0010
0100
0001
0100
1000
0001
,
1000
0010
0110
0000
0001
0010
0110
0000
,
1000
0000
0100
0000
0110
0000
0000
0000
0001
0000
0100
0000
0110
0000
0010
1000
,
0001
0000
0010
0000
0100
0000
0110
0000
0000
0000
1000
0001
1000
0001
0100
0000
,
0000
0000
0010
1000
0100
0000
0020
0000
0000
0000
0001
0000
0031
0000
0000
0000
,
1000
0000
0010
0000
0100
0000
0010
1000
0010
0000
0100
0000
0001
0000
0010
0001
,
0010
0000
0100
0000
1000
0000
0001
1000
0001
0000
0100
0000
0010
0000
1000
0000
,
0001
0000
0010
0000
1000
0000
0001
0100
0001
0000
0100
0000
1000
0000
0001
0000
,
1000
0010
0100
0010
0001
0010
0100
0000
,
0001
0000
0010
0000
0100
0000
0010
0001
0010
0000
0001
0000
1000
0000
0010
1000
,
0010
0000
0100
0000
0001
0000
1000
0001
1000
0000
0100
0000
0010
0000
0001
0000
,
1000
0000
0010
0000
0001
0000
1000
0100
1000
0000
0100
0000
0001
0000
1000
0000
,
0001
0000
0010
0100
0010
0100
2000
0000
0000
0000
3001
0100
0010
0000
0000
0000
,
1000
1000
0100
0010
1000
0010
0001
1000
,
0001
0001
0100
0010
0001
0010
1000
0001
,
1000
0100
1000
0100
0010
0000
0000
0000
0001
0100
0001
0100
0010
0000
0000
0000
,
1000
0010
1000
0010
0100
0000
0000
0000
0001
0010
0001
0010
0100
0000
0000
0000
,
1000
0001
0010
1000
0010
0100
0010
0002
,
0000
0100
0103
0000
0010
1000
0100
0010
,
0011
0001
0100
0110
0010
1000
1001
0001
,
1000
0001
0010
0200
0000
0010
0310
0000
,
0011
0001
1001
0001
0101
0100
0010
1000
,
1010
1000
1001
1000
1100
0100
0010
0001
,
0101
0100
0010
1000
1100
0100
0010
0001
,
0101
0000
0100
0000
0110
0000
0010
0000
1010
0000
1000
0001
1000
0000
0000
0000
,
1100
1000
1001
1000
1010
0010
0100
0102
,
0000
0013
0100
2100
0000
3001
0100
0120
,
0000
0130
1000
0100
0001
1000
0100
0010
,
0002
0000
0010
0000
0013
0000
0010
0100
2000
0000
0010
0000
0010
0000
3010
0100
,
0001
0000
0000
1000
0000
0000
0100
0000
1100
0000
0000
0000
0010
0000
0001
0000
,
1000
0000
0000
0001
0000
0000
0100
0000
0101
0000
0000
0000
0001
0000
1000
0000
,
0010
0000
0000
0100
0000
0000
0001
0000
1001
0000
1000
0000
0100
0000
0010
0000
,
0001
0000
0100
0010
0100
0010
0100
0010
1000
0000
0100
0000
0010
0000
0010
0000
,
0011
0000
0000
1000
0000
0000
0100
0000
0011
0000
1000
0000
0000
0000
0010
0000
,
1010
0000
0000
0001
0000
0000
0100
0000
1010
0000
0001
0000
0000
0000
0100
0000
,
0101
0000
0000
1000
0000
0000
0010
0000
0101
0000
1000
0000
0000
0000
0100
0000
,
1100
0000
0000
0001
0000
0000
0010
0000
1100
0000
0001
0000
0100
0010
0100
0010
,
1000
0100
0011
0000
0001
0100
1010
0000
,
1000
0000
0100
0000
0011
0000
1000
0000
0010
0100
0010
0000
0000
0000
0102
0000
,
0000
0103
1010
0000
1000
0100
0011
0000
,
0001
0000
0010
0000
1000
0000
0001
0000
0100
0010
0100
0010
0001
0000
1000
0000
,
0000
0010
0110
1000
0001
0010
0110
0000
,
0001
0100
0110
0001
1000
0100
0110
0000
,
1100
0000
1000
0000
0001
0000
0101
0000
0100
0000
0010
0000
1000
0001
0010
0000
,
0100
1100
0100
0020
0000
0001
0031
0100
,
0101
0100
0110
0100
1100
0100
0001
1000
,
1100
0100
0110
0100
0101
0100
0010
0001
,
0101
0100
1000
0001
0011
0010
1000
0001
,
0011
0000
0010
0000
0110
0000
0010
0000
1010
0000
0010
0100
0010
0000
0000
0000
,
1100
0100
0110
0100
0101
0100
0010
0012
,
0000
1003
0010
0210
0000
1300
0100
0102
,
0000
0013
0100
0001
0100
0010
0001
1000
,
0010
0000
0100
0001
0100
0001
1000
0000
0100
1000
0100
1000
0001
0000
1000
0000
,
1001
0000
0001
0100
0001
0000
0020
0000
0000
0000
0130
0000
0000
0000
1200
0000
,
0000
0000
0310
0001
1000
0000
0020
0000
0000
0000
0130
0001
1000
0000
0100
0000
,
0110
0000
0110
0000
0110
0000
0000
0000
1000
0001
0010
0100
1000
0001
2000
0000
,
0000
0000
3001
0100
0010
1000
0002
0000
0000
0000
0013
0100
1000
0001
1000
0000
,
0001
0000
0100
0010
1000
0000
0100
0010
0001
0000
0100
0010
1000
0000
0002
0000
,
0013
0000
0100
0010
0100
0000
0002
0000
0103
0000
0010
0001
1000
0000
0100
0000
,
0110
0000
0100
0010
0001
0000
0100
0010
1000
0000
0100
0010
0001
0000
2000
0000
,
3010
0000
0100
0010
0100
0000
2000
0000
3100
0000
0010
0100
0001
1000
0100
0010
,
0001
0000
0100
0000
1000
0000
0100
0000
0001
0000
0010
0000
,
2002
0000
3003
0000
;

//--------------- dance-double - nobarben ----------------
#NOTEDATA:;
#STEPSTYPE:dance-double;
#DESCRIPTION:nobarben;
#DIFFICULTY:Easy;
#METER:10;
#RADARVALUES:0.4275,0.480315,0.266204,0.110153,0,326,297,29,12,0,0,0,0,0,0.4275,0.480315,0.266204,0.110153,0,326,297,29,12,0,0,0,0,0;
#CHARTNAME:;
#CHARTSTYLE:;
#CREDIT:nobarben;
#NOTES:
00000000
00000000
00000000
00000000
,
00000000
00000000
00000000
00000000
,
00000000
00000000
00000000
00000000
,
00000000
00000000
00000000
00000000
,
10000000
01000000
00100000
00001000
,
00010000
00010000
00011000
00000000
,
00001000
00010000
00000100
00000010
,
00000001
00000001
00001001
00000000
,
00000002
00000000
00000203
00000000
,
00000320
00000000
00000000
00000030
,
00002000
00000000
00000000
00003000
,
00000001
00000010
00000100
00010000
,
00001000
00010000
00001000
00000000
00010000
00000000
00000000
00000000
,
00001000
01000000
00010000
01000000
,
00100000
10000000
00100000
00000000
10000000
00000000
00000000
00000000
,
00010000
10000000
01000000
00100000
,
00010000
00000000
00100000
00002000
00000000
00010000
00013000
00000000
,
00001000
00010000
00000100
00000000
00001000
00000000
00000100
00000000
,
00001000
00000100
00000010
00000000
00000001
00000000
00001000
00000000
,
00000001
00000100
00000001
00000000
00000100
00000010
00000100
00000000
,
00000010
00001000
00000010
00000000
00001000
00000000
00000000
00000000
,
00000100
00010000
00000100
00010000
00000000
00001000
00010000
00001000
,
00000000
01000000
00001000
02000000
00000000
00000000
03010000
00000000
,
10000000
01000000
00100000
00001000
,
00010000
00001000
00000100
00000001
,
00001000
00000100
00000010
00000100
,
00001000
00000001
00001000
00000000
,
00000001
00000100
00000010
00010000
,
00001000
00010000
01000000
10000000
,
00010000
01000000
00100000
01000000
,
00010000
00000000
00000000
10000000
00000000
00010000
10000000
00000000
,
01000000
00000000
00100000
00000000
00010000
00100000
00001000
00000000
,
00010000
00000000
00000100
00000000
00001000
00000100
00000010
00000000
,
00000001
00000010
00000001
00000000
00000010
00000100
00000010
00000000
,
00000100
00010000
00000100
00000000
00010000
00000000
00000000
00000000
,
00001000
01000000
00001000
01000000
00000000
00010000
00000000
10000000
,
00000000
00010000
10000000
01000000
,
00100000
00000000
00000000
00001000
00000000
00000000
00010000
00000000
,
00001000
00001000
00000000
00000000
00000000
00010000
00001000
00000000
,
01000000
00010000
01010000
01100000
,
10000000
00010000
10010000
00000000
,
10000000
01000000
01100000
00110000
,
00001000
00010000
00011000
00000000
,
00010000
00000000
00000100
00000000
00001100
00000000
00000100
00000010
,
00000000
00000001
00000000
00001001
00000000
00000001
00000000
00000101
,
00000000
00000100
00000010
00000000
00001000
00000000
00000100
00000000
,
00020000
00030000
00002000
00003000
,
01000000
00100000
01100000
00000000
,
10000000
01000000
11000000
00000000
,
00010000
00100000
00101000
00000000
,
00010000
00000100
00001100
00000000
,
00000100
00000010
00001001
00000000
,
00000001
00000100
00001010
00000000
,
00001000
00000010
00011000
00000000
,
00001000
01000000
00100000
00000000
,
10000000
00000000
01000000
00000000
00100000
00010000
00100000
00000000
,
00001000
00000000
00010000
00000000
00000100
00000100
00000000
00000010
,
00000000
00000001
00001000
00000000
00000001
00000100
00000001
00000000
,
00001000
00000100
00001000
00000100
00000000
00010000
00000000
00001000
,
00000000
00001000
01000000
00000000
00010000
10000000
00010000
00000000
,
10000000
01000000
10000000
00000000
01000000
00100000
00000000
00010000
,
10000000
00000000
00000000
00100000
00000000
00000000
01000000
00010000
,
00000000
10000000
00010000
10000000
00000000
00010000
00010000
00000000
,
00100000
01000000
11000000
01100000
,
00010000
10000000
10010000
00000000
,
10000000
00100000
01100000
01010000
,
00001000
00010000
00011000
00000000
,
00010000
00000000
00000010
00000000
00001010
00000000
00000010
00000100
,
00000000
00000001
00000000
00001001
00000000
00000001
00000000
00000011
,
00000000
00000010
00000100
00000000
00001000
00000000
00000100
00000000
,
00020000
00030000
00002000
00003000
,
00011000
00000000
00000000
00000000
00000000
00000000
00000000
00000100
,
00000000
00000000
00000000
00000010
00000000
00000000
00000001
00000000
,
00001000
00000001
00001000
00000000
00000001
00000000
00000000
00000100
,
00000000
00000000
00000000
00000010
00000000
00000000
00001000
00000000
,
00000001
00000100
00000010
00001000
,
00000100
00010000
00001000
00010000
00001000
00000000
01000000
00000000
,
00010000
10000000
01000000
00100000
,
00001000
00010000
00001000
00010000
00001000
00000000
00000000
00000000
,
00010000
00000000
00001000
00000000
,
00022000
00000000
00033000
00000000
;

//--------------- dance-double - nobarben ----------------
#NOTEDATA:;
#STEPSTYPE:dance-double;
#DESCRIPTION:nobarben;
#DIFFICULTY:Medium;
#METER:13;
#RADARVALUES:0.645184,0.591156,0.119333,0.220307,0.064256,492,479,13,24,0,0,0,0,0,0.645184,0.591156,0.119333,0.220307,0.064256,492,479,13,24,0,0,0,0,0;
#CHARTNAME:;
#CHARTSTYLE:;
#CREDIT:nobarben;
#NOTES:
00000000
00000000
00000000
00000000
,
00000000
00000000
00000000
00000000
,
00000000
00000000
00000000
00000000
,
00000000
00000000
00000000
00000000
,
00011000
00000000
00011000
00000000
00010000
00000100
00001000
00000000
,
00000100
00000010
00000001
00001000
00000010
00001000
00000001
00000000
,
00000101
00000000
00000101
00000000
00000100
00000010
00010000
00000000
,
00001000
00010000
00001000
00010000
00001000
01000000
00010000
00000000
,
10000000
00000000
01000000
00000000
10000000
00000000
00010000
00000000
00100000
00000000
01000000
00000000
,
20000000
00000000
00000000
00000000
,
30020000
00000000
00000000
02030000
00000000
03100000
10000000
00000000
,
00010000
00100000
00010000
00000000
00100000
00001000
00100000
00000000
,
00001000
00010000
00001000
00000000
00010000
00000100
00010000
00000000
,
00000100
00000010
00000001
00000000
00001000
00000001
00000100
00000000
,
00000010
00001000
00000100
00000000
00010000
00001000
00100000
00000000
,
01000000
10000000
00010000
00000000
01000000
00100000
10000000
00000000
,
00010000
10000000
00010000
00200000
00000000
01300000
01000000
00000000
,
10000000
01000000
00100000
00000000
01000000
10000000
00010000
00000000
,
00100000
00001000
00010000
00000100
00001000
00000100
00000010
00000000
,
00000001
00000100
00001000
00000000
00010000
00100000
10000000
00000000
,
10000000
01000000
00010000
00000000
00001000
00000010
00000001
00000000
,
00001000
00000001
00000100
00001000
00000000
00010000
00100000
10000000
,
00000000
00010000
00100000
02000000
00000000
10000000
13000000
00000000
,
00100000
10000000
00100000
10000000
01000000
00100000
00010000
00000000
,
00100000
00001000
00100000
00001000
00010000
00000100
00001000
00000000
,
00000100
00000010
00000100
00000010
00000001
00001000
00000010
00000100
,
00000001
00000100
00000001
00000100
00000010
00001000
00000001
00000000
,
00000010
00000001
00000010
00000001
00000100
00000010
00001000
00000000
,
00000010
00010000
00000010
00010000
00001000
01000000
00010000
00000000
,
01000000
00100000
01000000
00100000
10000000
00010000
00100000
01000000
,
10000000
01000000
00010000
00002000
00000000
00013000
00000100
00000010
,
00000001
00000100
00001000
00000000
00000100
00000010
00001000
00000000
,
00000100
00010000
00001000
00000000
00010000
01000000
10000000
00000000
,
10000000
01000000
00010000
00000000
00001000
00000010
00000001
00000000
,
00000001
00000100
00001000
00000000
00010000
00100000
10000000
00000000
,
10000000
01000000
00010000
00002000
00000000
00023000
00000000
00030200
,
00000000
00000310
00000010
00000000
00000001
00000000
00001000
00000000
,
00000101
00000000
00000000
00001100
00000000
00000000
00011000
00000000
,
00001000
00010000
00001000
00020000
00000000
00001000
00031000
00000000
,
00010000
00001000
01000000
00010000
10000000
01000000
00100000
00010000
,
01000000
00010000
10000000
00100000
10000000
01000000
00100000
00000000
,
00001000
00010000
00000100
00001000
00000100
00000010
00000001
00000200
,
00000000
00000310
00000100
00002000
00000000
00013000
00001000
02000000
,
00000000
03100000
10000000
00010000
10000000
01000000
00010000
00001000
,
00000000
00001000
00000010
00000001
00000000
00000001
00000100
00002000
,
00000000
00013000
00100000
01000000
00010000
10000000
00010000
00100000
,
02000000
00000000
03100000
00010000
00002000
00000000
00003100
00000010
,
00000001
00000000
00000000
00001000
00000000
00000000
00000010
00000000
00000100
00000000
00000000
00000000
00000010
00000000
00000000
00000000
,
00001000
00000000
00000000
00000100
00000000
00000000
00010000
00000000
00001000
00000000
00000000
00000000
00010000
00000000
00000000
00000000
,
00001000
00000000
00000000
01000000
00000000
00000000
00100000
00000000
10000000
00000000
00000000
00000000
00010000
00000000
00000000
00000000
,
10000000
01000000
00100000
00001000
00010000
00001000
01000000
00000000
,
00010000
00000000
00000000
01000000
00000000
00000000
00100000
00000000
10100000
00000000
00000000
00000000
00010000
00000000
00000000
00000000
,
10000000
00000000
00000000
01000000
00000000
00000000
00100000
00000000
00110000
00000000
00000000
00000000
00001000
00000000
00000000
00000000
,
00010000
00000000
00000000
00000100
00000000
00000000
00001000
00000000
00001100
00000000
00000000
00000000
00000001
00000000
00000000
00000000
,
00000010
00000001
00000100
00000010
00001000
00000100
00010000
00000000
,
00001000
00010000
00000100
00001000
00000010
00000100
00001000
00010000
,
00000100
00010000
00001000
00100000
00010000
00010000
00000000
10000000
,
00000000
01000000
00100000
00010000
01000000
00010000
10000000
00100000
,
01000000
00001000
00010000
00000200
00001000
00001300
00000001
00001000
,
00000000
00000100
00000010
00000001
00000100
00000001
00001000
00000000
,
00000001
00000100
00001000
00010000
00001000
00010000
00100000
00000000
,
10000000
00100000
10000000
01000000
00100000
01000000
10000000
00010000
,
00000000
10000000
01000000
00200000
00000000
00010000
00310000
00000000
,
10000000
00100000
10000000
00100000
00010000
00100000
01000000
00010000
,
00100000
00001000
00010000
00000100
00001000
00000100
00000010
00000000
,
00000001
00000010
00000001
00000010
00001000
00000010
00000100
00001000
,
00000010
00010000
00001000
01000000
00010000
01000000
00100000
00000000
,
10000000
01000000
10000000
01000000
00010000
01000000
00100000
00002000
,
00000000
00013000
00001000
00000200
00000000
00001300
00000100
00000001
,
00000000
00000001
00001000
00000100
00000010
00000001
00001000
00000000
,
00000001
00000100
00000001
00000100
00001000
00010000
00001000
00010000
,
00011000
00000000
00000000
00000000
00000000
00000000
00000000
01001000
,
00000000
01000000
00100000
10000000
00000000
00010000
00100000
01000000
,
10000000
10000000
10000000
00000000
00010000
10000000
01000000
00200000
,
00000000
00301000
00010000
00000200
00000000
00000310
00000001
00000000
,
00001000
00000010
00000100
00000010
00001000
00000100
00010000
00001000
,
01000000
00010000
01000000
00100000
10000000
00010000
10000000
00000000
,
00010000
00100000
01000000
00100000
00010000
01000000
00001000
00010000
,
00000100
00001000
00000100
00000010
00000001
00001000
00000001
00000000
,
00001000
00000000
00000010
00000000
00000100
00000000
00001000
00000000
00010000
00000000
00001000
00000000
,
00022000
00000000
00033000
00000000
;

//--------------- dance-double - nobarben ----------------
#NOTEDATA:;
#STEPSTYPE:dance-double;
#DESCRIPTION:nobarben;
#DIFFICULTY:Hard;
#METER:16;
#RADARVALUES:0.875982,0.960629,0.431434,0.376357,0.50487,668,621,47,41,0,0,0,0,0,0.875982,0.960629,0.431434,0.376357,0.50487,668,621,47,41,0,0,0,0,0;
#CHARTNAME:;
#CHARTSTYLE:;
#CREDIT:nobarben;
#NOTES:
00000000
00000000
00000000
00000000
,
00000000
00000000
00000000
00000000
,
00000000
00000000
00000000
00000000
,
00000000
00000000
00000000
00000000
,
00000001
00000100
00000010
00001000
00000100
00000010
00001000
00020000
,
00000000
01030000
00100000
00020000
00000000
10030000
00100000
00100000
,
10000000
01000000
00100000
00010000
01000000
00100000
00010000
00002000
,
00000000
00003100
00000010
00002000
00000000
00003100
00000010
00000010
,
00000001
00000000
00000100
00000000
00001000
00000000
00010000
00000000
00100000
00000000
10000000
00000000
,
20010000
00000000
00000000
00000000
,
32000000
00000000
00000000
03200000
00000000
00302000
00023000
00000000
,
00030100
00000010
00000110
00000000
00000010
00000001
00000011
00000000
,
00000001
00001000
00001001
00000000
00000001
00000100
00000101
00000000
,
00000001
00000000
00000100
00000000
00000010
00000000
00001000
00000010
00001000
00000000
00000100
00000000
00010000
00000000
00001000
00010000
,
00001000
00000000
00010000
00000000
01000000
00000000
10000000
00010000
10000000
00000000
00100000
00000000
00010000
00000000
00001000
00000000
,
00000100
00000000
00001000
00000000
00010000
00000000
00000100
00001000
00000100
00000000
00000010
00000000
00000001
00000000
00000100
00000000
,
00001000
00000000
00010000
00001000
00010000
00001000
00200000
00000000
00000000
00000000
01300000
10000000
00010000
00000000
00000000
00000000
,
10000000
10000000
01000000
00100000
00001000
00010000
00100000
00010000
,
00001000
00001000
00000100
00000001
00000010
00001000
00000010
00000001
,
00000100
00001000
00010000
00000000
01000000
00010000
00001000
00000000
,
00000010
00001000
00010000
00000000
00100000
00010000
00001000
00000000
,
00000100
00000000
00000001
00000000
00000010
00000100
00002000
00000000
00000000
00000000
00003100
00010000
00000100
00010000
00002000
00000000
,
00000000
00000000
01003000
00100000
10000000
00000000
00020000
00000000
00000000
00000000
10000000
00000000
10030000
00000000
00000000
00000000
,
00010000
00000000
01000000
00000000
00100000
00000000
10000000
00100000
10000000
00000000
01000000
00000000
00100000
00000000
00001000
00010000
,
00001000
00000000
00000100
00000000
00000001
00000000
00001000
00000001
00001000
00000000
00000100
00000000
00000010
00000000
00000001
00000000
,
00000100
00000000
00001000
00000000
00010000
00000000
00100000
10000000
00100000
00000000
10000000
00000000
01000000
00000000
00010000
00000000
,
00001000
00000100
00001000
00010000
00001000
00000010
00000001
00000000
,
00001000
00000000
00000100
00000000
00000010
00000000
00000001
00000010
00000001
00000000
00000100
00000000
00000010
00000000
00010000
00001000
,
00010000
00000000
01000000
00000000
10000000
00000000
00010000
10000000
00010000
00000000
01000000
00000000
00100000
00000000
10000000
00000000
,
01000000
00000000
00010000
00000000
00001000
00000000
00000010
00000001
00000010
00000000
00000001
00000000
00000100
00000000
00001000
00000000
,
00010000
00000000
01000000
10000000
01000000
10000000
00020000
00000000
00000000
00000000
01030000
00100000
10000000
00000000
00010000
00000000
,
10000000
10000000
00100000
00010000
00001000
00010000
01000000
00010000
,
00001000
00001000
00000010
00001000
00010000
00001000
00000100
00000001
,
00001000
00000100
00001000
00000100
00010000
00000000
00000000
00000000
00001000
00010000
00001000
00010000
00000010
00000000
00000000
00000000
,
00010000
00001000
00010000
00001000
00100000
00000000
00000000
00000000
00010000
00100000
00010000
00100000
00001000
00000000
00000000
00000000
,
00010000
00000000
00000100
00000010
00000001
00000000
00001000
00000000
00000000
00000000
00000001
00000000
00000100
00000000
00000120
00000000
,
00000000
00000031
00000010
00001000
00000001
00000010
00001000
00000000
,
00011000
00001000
01000000
01010000
00010000
10000000
10010000
10000000
,
01000000
00000000
00010000
00000000
00001000
00000000
00000020
00000000
00000000
00000000
00000001
00000000
00000031
00000000
00001000
00000001
,
00000100
00000000
00000010
00001000
00000001
00000000
00001000
00000100
00000010
00000000
00000100
00010000
00001000
00000000
00010000
00001000
,
01000000
00000000
00010000
01000000
00100000
00000000
10000000
00010000
10000000
00000000
01000000
00100000
00010000
00000000
10000000
00000000
,
10100000
00100000
01000000
00010000
00110000
00100000
00001000
00010000
,
00010100
00000000
00000100
00000000
00001100
00000000
00000100
00000000
00000110
00000000
00000010
00000001
00001000
00000000
00000000
00000000
,
00000001
00000000
00000010
00000100
00001000
00000000
00000001
00000100
00000010
00000000
00001000
00000010
00010000
00000000
00002000
00000000
,
00000000
01003000
00100000
20100000
00000000
30010000
00100000
02100000
,
00000000
00000000
13000000
00010000
10000000
00000000
00100000
01000000
00010000
00000000
10000000
01000000
00100000
00000000
00001000
00000000
,
00020000
00000000
00000100
00000000
00030100
00000000
00000100
00010000
00002000
00000000
01000000
00000000
01000000
00000000
01003000
00010000
,
10000000
00000000
00000000
01000000
00000000
00000000
00100000
00000000
00110000
00000000
00001000
00000000
00010000
00000000
00000000
00000000
,
00011000
00000000
00000000
00010000
00000000
00000000
00000100
00000000
00000110
00000000
00001000
00000000
00000001
00000000
00000000
00000000
,
00000101
00000000
00000000
00000001
00000000
00000000
00000100
00000000
00000110
00000000
00001000
00000000
00000001
00000000
00000000
00000000
,
00000010
00000000
00000100
00001000
00000100
00001000
00000100
00010000
00001000
00000000
00010000
00000000
00001000
00000000
01000000
00000000
,
01010000
00000000
00000000
10000000
00000000
00000000
01000000
00000000
00120000
00000000
10030000
00000000
00000000
00000000
00100000
00000000
,
10100000
00000000
00000000
00010000
00000000
00000000
00100000
00000000
21000000
00000000
30010000
00000000
00000000
00000000
00100000
00000000
,
00110000
00000000
00000000
00001000
00000000
00000000
00010000
00000000
00010200
00000000
00001300
00000000
00000000
00000000
00000100
00000000
,
00000110
00000000
00000000
00000001
00000000
00000000
00000100
00000000
00002010
00000000
00003001
00000000
00000010
00000100
00000010
00000100
,
00001000
00001000
00000001
00000100
00001000
00001000
00010000
00100000
,
10000000
00000000
10000000
00000000
00010000
00000000
10000000
00000000
01000000
00100000
01000000
00000000
00000000
00000000
00120000
00000000
,
00000000
10030000
00100000
00000000
00010000
00001000
00000100
00000000
,
00000001
00000000
00000010
00000000
00001000
00000000
00010000
00000000
01000000
10000000
01000000
00000000
10000000
00000000
10200000
00000000
,
00000000
01300000
10000000
01000000
00010000
00100000
01000000
00010000
,
00001000
00000100
00000010
00001000
00000100
00000001
00000100
00000010
,
00000011
00000000
00000001
00000000
00001000
00000000
00001010
00000000
00000010
00000000
00010000
00000000
00001000
00010000
00001000
00000000
,
00010000
00000000
00001000
00000000
00010000
00000000
02000000
00000000
00000000
00000000
13000000
00000000
00010000
10000000
00010000
10000000
,
00010000
00000000
10000000
01000000
00100000
00000000
00010000
10000000
00100000
00000000
01000000
00010000
00100000
00000000
00010000
00100000
,
00001000
00000000
00010000
00000100
00001000
00000000
00000100
00000010
00000001
00000000
00001000
00000001
00000100
00000000
00000001
00000000
,
00000011
00000010
00000100
00001000
00001010
00000010
00010000
00001000
,
01001000
00000000
01000000
00000000
01010000
00000000
01000000
00000000
01100000
00000000
00100000
10000000
00010000
00000000
00000000
00000000
,
10000000
00000000
00100000
01000000
00010000
00000000
10000000
01000000
00100000
00000000
00010000
00100000
00001000
00000000
00020000
00000000
,
00000000
00030100
00000010
00000012
00000000
00001003
00000010
00000210
,
00000000
00000000
00000301
00001000
00000001
00000000
00000010
00000100
00001000
00000000
00000001
00000100
00000010
00000000
00001000
00000000
,
00000100
00000000
00010000
00001000
01000000
00010000
10000000
00000000
01000000
10000000
00010000
01000000
00001000
00000000
00010000
00000000
,
00011000
00000000
00000000
00000000
00000000
00000000
00000000
00010200
,
00000000
00000310
00000001
00001002
00000000
00000103
00000010
00010000
,
00011000
00000000
00011000
00000000
00011000
00000000
00000000
00000000
00001000
00010000
00001000
01000000
00010000
01000000
00200000
00000000
,
00000000
00000000
10300000
00010000
10000000
00010000
00200000
00000000
00000000
00000000
01300000
10000000
01000000
00000000
00100000
00000000
,
00001000
00000000
00010000
00000100
00001000
00000000
00000100
00010000
00001000
00000000
00010000
00000010
00001000
00000000
00000200
00000000
,
00000310
00000000
00000001
00001000
00000001
00000000
00000200
00000000
00000310
00000000
00001000
00000010
00010000
00000000
00001000
00000000
,
00010000
00000000
00001000
00100000
00010000
00000000
00100000
00001000
00010000
00000000
00001000
01000000
00010000
00000000
20000000
00000000
,
00000000
00000000
30100000
01000000
00010000
10000000
00020000
00000000
00000000
00000000
10030000
01000000
00100000
00010000
00100000
00001000
,
00010000
00000000
00001000
00000000
00000100
00000000
00000001
00000000
00000010
00000000
00001000
00000000
,
00022000
00000000
00033000
00000000
;
