#VERSION:0.83;
#TITLE:Lisa-RICCIA;
#SUBTITLE:;
#ARTIST:DJ YOSHITAKA;
#TITLETRANSLIT:;
#SUBTITLETRANSLIT:;
#ARTISTTRANSLIT:;
#GENRE:;
#CREDIT:chronon;
#MUSIC:Lisa-RICCIA.ogg;
#BANNER:Lisa-RICCIA.png;
#BACKGROUND:b4u-bg.png;
#CDTITLE:;
#SAMPLESTART:29.485;
#SAMPLELENGTH:15.000;
#SELECTABLE:YES;
#OFFSET:0.661;
#BPMS:0.000=205.000
,328.000=102.500
,329.000=51.250
,329.500=25.625
,330.000=205.000
;
#STOPS:;
#DISPLAYBPM:205.000;
#JACKET:;
#DISCIMAGE:;
#CDIMAGE:;
#BGCHANGES:;
#FGCHANGES:;

//--------------- dance-single - chronon ----------------
#NOTEDATA:;
#STEPSTYPE:dance-single;
#DESCRIPTION:chronon;
#DIFFICULTY:Beginner;
#METER:7;
#RADARVALUES:0,0,0,0,0;
#CHARTNAME:;
#CHARTSTYLE:;
#CREDIT:chrononical;
#METERF:7;
#NOTES:
0000
0000
0000
0000
,
0000
0000
0000
0000
,
0000
0000
0000
0000
,
0000
0000
0000
0000
,
0000
0000
0000
0000
,
0000
0000
0000
0000
,
2002
0000
0000
0000
,
0000
0000
0000
0000
0000
0000
0000
3003
,
0000
0000
0000
0000
,
0000
0000
0000
0000
,
1001
0000
0000
0000
,
0000
0001
0000
0000
1000
0000
0001
0000
,
1000
0000
0000
0000
,
0000
1000
0000
0000
0001
0000
1000
0000
,
0001
0000
0000
0010
,
0000
0100
0000
1000
,
0001
0000
0000
1000
0000
0000
0001
0000
,
0000
1000
0000
0000
0001
0000
0000
0000
,
1000
0000
0010
0000
,
0100
0010
0100
0000
,
0001
0000
0010
0000
,
0100
0010
0100
0000
,
1000
0000
0000
0010
,
0000
0100
0000
0001
,
1000
0000
0000
0001
0000
0000
1000
0000
,
0000
0002
0000
0000
0000
0000
0003
0000
,
1000
0000
0000
0100
0000
0100
0000
1000
,
0000
0000
0001
0000
,
0001
0000
0000
0100
0000
0100
0000
0001
,
0000
0000
1000
0000
,
1000
0000
0000
0010
0000
0010
0000
1000
,
0000
0000
0000
0000
1000
0000
0000
1001
,
0000
0001
1000
0001
,
0010
0100
1000
0000
,
0001
0000
0000
0100
0000
0100
0000
0001
,
0000
0000
1000
0000
,
1000
0000
0000
0100
0000
0100
0000
1000
,
0000
0000
0001
0000
,
0001
0000
0000
0010
0000
0010
0000
0001
,
0000
0000
0000
0000
0001
0000
0000
1001
,
0000
1000
0001
1000
,
0010
0200
0000
0300
,
0001
0000
0000
0100
0000
0001
0000
0100
,
0000
0010
0000
1000
0000
0001
0000
1000
,
0000
0000
0000
0100
0000
1000
0000
0100
,
0000
0010
0000
0001
0000
1000
0000
0001
,
0000
0000
0000
0100
0000
0001
0000
0100
,
0000
0010
0000
1000
0000
0001
0000
1000
,
0000
0000
0000
0100
0000
0010
0000
2002
,
0000
0000
0000
3003
,
1001
0000
0000
0000
,
0000
1000
0000
0000
0001
0000
1000
0000
,
0001
0000
0000
0000
,
0000
0001
0000
0000
1000
0000
0001
0000
,
1000
0000
0000
0010
,
0000
0100
0000
0001
,
1000
0000
0000
0001
0000
0000
1000
0000
,
0000
0001
0000
0000
1000
0000
0000
0000
,
0001
1000
0001
0000
,
0010
0100
0010
0100
,
1000
0001
1000
0000
,
0010
0100
0010
0100
,
0001
0000
0000
0010
,
0000
0100
0000
1000
,
0001
0000
0000
1000
0000
0000
0001
0000
,
0000
2000
0000
0000
0000
0000
3000
0000
,
1001
0000
0000
0000
,
0000
0000
0000
0000
,
0000
0000
0000
0000
,
0000
0000
0000
0000
,
0000
0000
0000
0000
,
0000
0000
0000
0000
,
0000
0000
0000
0000
,
0000
0000
0001
1000
,
0001
0000
0000
0000
,
0010
0000
0100
0000
,
1000
0000
0000
0000
,
0010
0000
0100
0000
,
0001
1000
0001
1000
,
0001
1000
0001
0000
1000
0000
0000
2002
,
0000
0000
0000
0000
,
0000
0000
0000
3003
,
0000
0000
0000
0000
1000
0000
0000
0010
,
0000
0010
0000
1000
0000
0000
1000
0000
,
0001
0000
0000
0000
0001
0000
0000
0010
,
0000
0010
0000
0001
0000
0000
0001
0000
,
1000
0000
0000
0000
1000
0000
0000
0100
,
0000
0100
0000
1000
0000
0000
1000
0000
,
0001
0000
0000
1001
0000
0000
0001
0000
,
1000
0001
0100
0010
,
1000
0000
0001
1000
0001
0000
0000
0010
,
0000
0010
0000
0001
0000
0000
0001
0000
,
1000
0000
0000
0000
1000
0000
0000
0010
,
0000
0010
0000
1000
0000
0000
1000
0000
,
0001
0000
0000
0000
0001
0000
0000
0100
,
0000
0100
0000
0001
0000
0000
0001
0000
,
1000
0000
0000
1001
0000
0000
1000
0000
,
0001
1000
0100
0020
,
0000
0000
0030
0000
0001
0000
0000
0010
,
0000
0100
0000
1000
0000
0010
0000
0100
,
0000
0001
0000
1000
0000
0000
0000
0100
,
0000
0010
0000
0001
0000
0100
0000
0010
,
0000
1000
0000
0001
0000
0000
0000
0010
,
0000
0100
0000
1000
0000
0010
0000
0100
,
0000
0001
0000
1000
0000
0000
0000
0100
,
0000
0010
0000
2002
0000
0000
0000
0000
,
0000
0000
3003
0000
;

//--------------- dance-single - chronon ----------------
#NOTEDATA:;
#STEPSTYPE:dance-single;
#DESCRIPTION:chronon;
#DIFFICULTY:Easy;
#METER:9;
#RADARVALUES:0,0,0,0,0;
#CHARTNAME:;
#CHARTSTYLE:;
#CREDIT:chrononical;
#METERF:9;
#NOTES:
0000
0000
0000
0000
,
0000
0000
0000
0000
,
0000
0000
0000
0000
,
0000
0000
0000
0000
,
0000
0000
0000
0000
,
0000
0000
0000
0000
,
2002
0000
0000
0000
,
0000
0000
0000
0000
0000
0000
0000
3003
,
0000
0000
0000
0000
,
0000
0000
0000
0000
,
1001
0000
0000
0000
,
0000
1000
0000
0000
0100
0000
0010
0000
,
1001
0000
0000
0000
,
0000
0001
0000
0000
0100
0000
0010
0000
,
1001
0000
0000
1000
,
0000
0001
0000
1000
,
1001
0000
0000
0110
0000
0000
0110
0000
,
0000
1001
0000
0000
1000
0001
1000
0000
,
0001
0010
0100
1000
,
0001
1000
0010
0010
,
1000
0010
0100
0001
,
1000
0001
0010
0010
,
0001
0010
0000
0100
,
0000
1000
0000
0001
,
1001
0000
0000
0110
0000
0000
0110
0000
,
0000
2002
0000
0000
0000
0000
3003
0000
,
1000
0000
0000
0100
0000
0100
0000
0010
,
0000
0001
1000
0000
0001
0000
0100
0000
,
0001
0000
0000
0100
0000
0100
0000
0010
,
0000
1000
0001
0000
1000
0000
0100
0000
,
1000
0000
0000
0100
0000
0100
0000
0010
,
0000
0001
1000
0000
0001
0000
0000
0100
,
0000
0010
0100
0010
0100
0000
0000
0001
,
0000
1000
0001
0000
0010
0000
0100
0000
,
1000
0000
0000
0010
0000
0010
0000
0100
,
0000
0001
1000
0000
0001
0000
0010
0000
,
0001
0000
0000
0010
0000
0010
0000
0100
,
0000
1000
0001
0000
1000
0000
0010
0000
,
1000
0000
0000
0010
0000
0010
0000
0100
,
0000
0001
1000
0000
0001
0000
0000
0010
,
0000
0100
0010
0100
0010
0000
0000
0001
,
0000
1000
0002
0000
0000
0000
1003
0001
,
1000
0000
0000
0010
0000
0100
0000
0001
,
0000
1000
0000
0001
0000
0010
0000
0010
,
0001
0000
0000
0010
0000
0100
0000
1000
,
0000
0001
0000
1000
0000
0010
0000
0010
,
1000
0000
0000
0010
0000
0100
0000
0001
,
0000
1000
0000
0001
0000
0010
0000
0010
,
0100
0000
0000
1000
0000
0001
0000
2002
,
0000
0000
0000
3003
,
1001
0000
0000
0000
,
0000
0001
0000
0000
0100
0000
0010
0000
,
1001
0000
0000
0000
,
0000
1000
0000
0000
0100
0000
0010
0000
,
1001
0000
0000
0001
,
0000
1000
0000
0001
,
1001
0000
0000
0110
0000
0000
0110
0000
,
0000
1001
0000
0000
0001
1000
0001
0000
,
1000
0100
1000
0000
0100
0000
0010
0000
,
0001
1000
0001
0100
,
0001
0100
0001
0000
0100
0000
0010
0000
,
1000
0001
1000
0100
,
1000
0100
1000
0000
0000
0000
0100
0000
,
0000
0010
0000
0001
,
1001
0000
0000
0110
0000
0000
0110
0000
,
0000
2002
0000
0000
0000
0000
3003
0000
,
0002
0000
0000
0000
0000
0000
0000
0023
,
0000
0000
0230
0000
,
2300
0000
0000
0000
0000
0000
0000
3020
,
0000
0000
0230
0000
,
0302
0000
0000
0000
0000
0000
0000
0203
,
0000
0000
0000
0000
0320
0000
0000
0130
,
0000
0010
0100
0010
0100
0000
0000
0001
,
0000
1000
0001
0000
0100
0000
0010
0000
,
1000
0010
0100
0001
,
1000
0010
0100
0001
,
1000
0100
0010
0001
,
1000
0100
0010
0001
,
1000
0100
1000
0000
0001
0010
0001
0000
,
1000
0001
1000
0001
1000
0001
0000
2002
,
0000
0000
0000
0000
,
0000
0000
0000
3003
,
0000
0000
0000
0000
0001
0000
0010
0001
,
0000
1000
0000
0010
0000
0100
0001
0000
,
1000
0000
0001
0000
1000
0000
0010
1000
,
0000
0001
0000
0010
0000
0100
1000
0000
,
0001
0000
1000
0000
0001
0000
0010
0001
,
0000
1000
0000
0010
0000
0100
0001
0000
,
1000
0001
0000
0010
0000
0100
0010
0100
,
0010
0000
0001
1000
0000
0001
1000
0000
,
0100
1000
0100
0000
1000
0000
0100
1000
,
0000
0001
0000
0100
0000
0010
1000
0000
,
0001
0000
1000
0000
0001
0000
0100
0001
,
0000
1000
0000
0100
0000
0010
0001
0000
,
1000
0000
0001
0000
1000
0000
0100
1000
,
0000
0001
0000
0100
0000
0010
1000
0000
,
0001
1000
0000
0100
0000
0010
0100
0010
,
0100
0000
1000
0001
0000
1000
0002
0000
,
0000
0000
0103
0001
0100
0000
0010
0100
,
0000
0001
0000
1000
0000
0100
0000
0010
,
0000
0001
0000
0100
0010
0000
0100
0010
,
0000
1000
0000
0001
0000
0010
0000
0100
,
0000
1000
0000
0010
0100
0000
0010
0100
,
0000
0001
0000
1000
0000
0100
0000
0010
,
0000
0001
0000
0100
0010
0000
0100
0001
,
0000
1000
0000
2002
0000
0000
0000
0000
,
0000
0000
3003
0000
;

//--------------- dance-single - chronon ----------------
#NOTEDATA:;
#STEPSTYPE:dance-single;
#DESCRIPTION:chronon;
#DIFFICULTY:Medium;
#METER:14;
#RADARVALUES:0,0,0,0,0;
#CHARTNAME:;
#CHARTSTYLE:;
#CREDIT:chrononical;
#METERF:14;
#NOTES:
0000
0000
0000
0000
,
0000
0000
0000
0000
,
0000
0000
0000
0000
,
0000
0000
0000
0000
,
0000
0000
0000
0000
,
0000
0000
0000
0000
,
0001
0000
0010
0100
0000
0010
0000
0001
,
0000
1000
0010
0000
0100
0010
0000
2002
,
0000
0000
0000
0000
,
3003
0000
0000
0000
,
0101
0000
0000
0000
,
0000
0101
0000
0000
1010
0000
1001
0000
,
1001
1100
0000
0000
,
0000
0000
1100
0000
0000
0000
1000
0000
0100
0000
0000
0010
0000
0000
0001
0000
,
1010
0011
0000
0010
,
0000
0000
0100
0000
0000
0000
1000
0001
,
1000
0000
0000
0010
0000
0000
0100
0001
,
0000
1000
0000
0000
0001
1000
0001
1000
,
0001
0000
0010
0100
1000
0000
0010
0100
,
0001
0000
0010
0100
1000
0001
1000
0001
,
1000
0000
0010
0100
0001
0000
0010
0100
,
1000
0000
0010
0100
0001
1000
0001
1000
,
0001
0000
0100
0010
1000
0000
0100
0010
,
0001
0000
0100
0010
1000
0000
0010
0000
,
1010
0000
0000
1001
0000
0000
0011
0000
,
0000
2002
0000
0000
0000
0000
3003
0000
,
1000
0000
0100
0010
0000
0100
0000
0002
,
0000
0000
0103
0000
0010
0000
0000
0000
0001
0000
0000
1000
0000
0000
0001
0000
,
1000
0000
0010
0100
0000
0010
0000
0002
,
0000
0000
0013
0000
0100
0000
0000
0000
0001
0000
0000
0010
0000
0000
0100
0000
,
1000
0000
0100
0010
0000
0100
0000
0002
,
0000
0103
0010
0000
0001
1000
0000
1001
,
0000
0100
0010
0100
0010
0100
0000
1001
,
0000
0001
1000
0000
0010
1000
0001
0100
,
0001
0000
0100
0010
0000
0100
0000
2000
,
0000
0000
3100
0000
0010
0000
0000
0000
1000
0000
0000
0001
0000
0000
1000
0000
,
0001
0000
0010
0100
0000
0010
0000
2000
,
0000
0000
3010
0000
0100
0000
0000
0000
1000
0000
0000
0010
0000
0000
0100
0000
,
0001
0000
0100
0010
0000
0100
0000
2000
,
0000
3100
0010
0000
1000
0001
0000
1001
,
0000
0100
0010
0100
0010
0100
0000
1001
,
0000
1000
0002
0000
0000
0000
1003
0100
,
0020
0000
0130
1000
0000
0001
0000
0100
,
0010
0102
0013
2100
,
3020
0000
0130
0001
0000
1000
0000
1200
,
0000
0310
0000
0201
0000
0310
0000
0000
,
0200
0000
0310
1000
0000
0001
0000
0021
,
0000
0130
0000
1020
0000
0130
0000
0000
,
0010
0000
0000
1000
0000
0001
0000
2002
,
0000
0000
0000
3003
,
1100
0000
0000
0000
,
0000
1100
0000
0000
0011
0000
1001
0000
,
1001
0101
0000
0000
,
0000
0000
0101
0000
0000
0000
0001
0000
0100
0000
0000
0010
0000
0000
1000
0000
,
1001
1010
0000
0010
,
0000
0000
0100
0000
0000
0000
0001
1000
,
0001
0000
0000
0010
0000
0000
0100
1000
,
0000
0001
0000
0000
1000
0001
1000
0001
,
1000
0010
1000
0001
1000
0100
1000
0000
,
0001
0010
0001
1000
0001
0100
0001
0000
,
1000
0100
1000
0001
1000
0010
1000
0000
,
0001
0100
0001
1000
0001
0010
0001
0000
,
1000
0100
0010
0001
1000
0001
0100
0000
,
0001
0100
0010
1000
0001
1000
0100
0000
,
1100
0000
0000
1001
0000
0000
0101
0000
,
0000
2002
0000
0000
0000
0000
3003
0000
,
0002
0000
0000
0000
0000
0000
0000
0203
,
0000
0000
0320
0000
,
2030
0000
0000
0000
0000
0000
0000
3200
,
0000
0000
0320
0000
,
0032
0000
0000
0000
0000
0000
0000
0023
,
0000
0000
0000
0000
0230
0000
0000
0310
,
0000
0100
0010
0100
0010
0100
0000
1001
,
0000
1000
0001
0000
0010
0001
1000
0100
,
1000
0100
0010
0000
0100
0010
0001
0000
,
1000
0010
0100
0000
0010
0100
0001
0000
,
0001
0100
0010
0000
0100
0010
1000
0000
,
0001
0010
0100
0000
0010
0100
1000
0000
,
1000
0100
0010
0001
0010
0100
1000
0100
,
0010
0001
0010
0100
1000
0001
0000
2002
,
0000
0000
0000
0000
,
0000
0000
0000
3003
,
MMMM
MMMM
MMMM
MMMM
0001
0100
0010
0100
,
0001
1000
0100
0002
0000
0103
1000
0001
,
0100
0000
0000
0100
0000
0000
0010
0000
1000
0000
0010
0000
0100
0000
0010
0000
,
1000
0001
0010
2000
0000
3010
0001
1000
,
0010
0000
0000
0010
0000
0000
0100
0000
0001
0000
0100
0000
0010
0000
0100
0000
,
0001
1000
0100
0002
0000
0103
1000
0001
,
0100
0010
0000
1001
0000
0010
0100
0010
,
0100
0010
0000
1001
0000
0001
1000
0100
,
0001
0100
0010
0100
1000
0100
0010
0100
,
1000
0001
0100
2000
0000
3100
0001
1000
,
0100
0000
0000
0100
0000
0000
0010
0000
0001
0000
0010
0000
0100
0000
0010
0000
,
0001
1000
0010
0002
0000
0013
1000
0001
,
0010
0000
0000
0010
0000
0000
0100
0000
1000
0000
0100
0000
0010
0000
0100
0000
,
1000
0001
0100
2000
0000
3100
0001
1000
,
0100
0010
0000
1001
0000
0010
0100
0010
,
0100
0010
0000
1001
0000
1000
0002
0000
,
0000
0000
1003
0010
0002
0000
0013
0100
,
0001
1000
0000
0001
0010
0000
2100
0000
,
3010
0000
0201
0000
2300
0000
3100
0010
,
1000
0001
1000
0100
0000
0012
0000
0103
,
0000
1020
0000
0000
0032
0000
0013
0100
,
0001
1000
0001
0010
0000
2100
0000
3010
,
0000
0201
0000
0000
2300
0000
3100
0010
,
1000
0001
0000
2002
0000
0000
0000
0000
,
0000
0000
3003
0000
1000
0001
1000
0100
,
0000
0100
0000
0010
0000
0010
0000
0001
,
0000
0100
0010
2000
0000
0000
0000
0000
,
0000
0000
0000
0000
,
0000
0000
3000
0000
;

//--------------- dance-single - chronon ----------------
#NOTEDATA:;
#STEPSTYPE:dance-single;
#DESCRIPTION:chronon;
#DIFFICULTY:Hard;
#METER:16;
#RADARVALUES:0,0,0,0,0;
#CHARTNAME:;
#CHARTSTYLE:;
#CREDIT:chrononical;
#METERF:16;
#NOTES:
0000
0000
0000
0000
,
0000
0000
0000
0000
,
0000
0000
0000
0000
,
0000
0000
0000
0000
,
0000
0000
0000
0000
,
0000
0000
0000
0000
,
1000
0000
0100
0010
0000
0100
0000
1000
,
0000
0001
1000
0010
0100
0010
0000
2002
,
0000
0000
0000
0000
,
3003
0000
0000
0000
,
0001
1000
0100
0010
0001
0010
0200
1000
,
0000
0010
0000
0000
0001
0000
0010
0000
,
1300
0001
0100
0010
1000
0010
0200
0001
,
0000
0000
0010
0000
0000
0000
1000
0000
1000
0000
0000
0010
0000
0000
0301
0000
,
1000
0000
0010
0100
0001
0100
0020
1000
,
0000
0100
0001
0130
,
1010
0000
0000
0101
0000
0000
0001
0010
,
0000
0000
1100
0000
0000
0000
1000
0100
0010
0000
0001
0000
1000
0000
0001
0000
,
0100
0000
0010
0100
0001
1000
0010
0001
,
0010
0100
0010
1000
0001
1000
0100
0010
,
0100
0000
0010
0100
1000
0001
0010
1000
,
0010
0100
0010
0001
1000
0001
0100
0010
,
0100
0000
0010
0100
0001
1000
0010
0001
,
0010
0100
0010
1000
0001
1000
0100
0010
,
0100
0000
1000
0001
1000
0000
0010
0000
1000
0001
1000
0000
0100
0000
0010
0000
,
0000
2002
0000
0000
0000
0000
3003
0000
,
0101
0100
0010
1010
0000
1001
0000
1100
,
0000
0000
1000
0000
0100
0000
0010
0000
0110
0000
0000
0011
0000
0000
0001
0000
,
1100
0100
0010
0011
0000
1001
0000
0101
,
0000
0000
0001
0000
0100
0000
0010
0000
0110
0000
0000
1010
0000
0000
1000
0000
,
0101
0100
0010
1010
0000
1001
0000
1100
,
0000
1000
0100
0010
0001
1000
0000
0020
,
0000
0100
0100
0100
0130
0001
0010
0100
,
1000
0000
0010
0000
0100
0000
0001
1000
0001
0000
1000
0000
0010
0000
1000
0000
,
1010
0010
0100
0101
0000
1001
0000
0011
,
0000
0000
0001
0000
0010
0000
0100
0000
0110
0000
0000
1100
0000
0000
1000
0000
,
0011
0010
0100
1100
0000
1001
0000
1010
,
0000
0000
1000
0000
0010
0000
0100
0000
0110
0000
0000
0101
0000
0000
0001
0000
,
1010
0010
0100
0101
0000
1001
0000
0011
,
0000
0001
0010
0100
1000
0001
0000
0200
,
0000
0010
0010
0010
0310
1000
0100
0010
,
0001
0100
0020
0000
0000
0000
0130
0010
,
0001
0010
0100
0001
0010
0100
0001
0100
,
0010
1000
0001
0100
0010
1000
0010
0001
,
0100
0000
0010
1000
0010
0100
1000
0100
,
0010
0001
1000
0100
0010
0001
0010
0100
,
0000
0010
0100
0001
0010
0100
0001
0100
,
0010
1000
0001
0100
0010
1000
0010
0001
,
0100
0010
1000
0100
1000
0010
0100
0202
,
0000
0000
0000
0303
,
0001
1000
0010
0100
0001
0100
0020
1000
,
0000
0100
0000
0000
0001
0000
0100
0000
,
1030
0001
0010
0100
1000
0100
0020
0001
,
0000
0000
0100
0000
0000
0000
1000
0000
1000
0000
0000
0100
0000
0000
0031
0000
,
1000
0000
0000
0000
0100
0000
0010
0001
0010
0000
0001
0000
1000
0001
1000
0000
,
0001
0000
0010
0001
0010
0000
0001
0000
1000
0001
1000
0000
0001
0000
1000
0000
,
0001
0100
0001
0000
1000
0000
0010
0100
0010
0000
1000
0000
0001
0100
0001
0000
,
1000
0000
0100
0010
0100
0000
0001
0000
1000
0000
0010
0100
0010
0000
0001
0000
,
1000
0000
0100
1000
0100
0000
1000
0000
0010
1000
0010
0000
1000
0000
0100
1000
,
0100
0000
1000
0000
0010
1000
0010
0000
1000
0000
0100
0010
0100
0000
0010
0000
,
0001
0000
0010
0001
0010
0000
0001
0000
0100
0001
0100
0000
0001
0000
0010
0001
,
0010
0000
0001
0000
0100
0001
0100
0000
0001
0000
0010
0100
0010
0000
0100
0000
,
1000
0000
0100
1000
0100
0000
1000
0000
0010
1000
0010
0000
1000
0000
0100
1000
,
0100
0000
1000
0000
0010
1000
0010
0000
1000
0000
0100
0010
0100
0000
0010
0000
,
0001
0010
0001
0000
1000
0000
0100
0010
0100
0000
1000
0000
0001
0010
0001
0000
,
1000
0000
0010
0100
0010
0000
0001
0000
1000
0000
0100
0010
0100
0000
0001
0000
,
2000
0000
0000
0000
0000
0000
0000
3020
,
0000
0000
0230
0000
,
0302
0000
0000
0000
0000
0000
0000
0023
,
0000
0000
0230
0000
,
2300
0000
0000
0000
0000
0000
0000
3200
,
0000
0000
0000
0000
0320
0000
0000
0230
,
0000
0010
0010
0010
0310
0001
0000
0200
,
0000
0301
2000
0000
3001
0010
0100
1000
,
0001
0010
0001
0010
0001
0010
0001
0010
,
0100
0010
0100
0010
0100
1000
0100
1000
,
0010
1000
0010
1000
0010
1000
0010
0100
,
0010
0100
0010
0100
0001
0100
0001
0100
,
0001
0100
1000
0001
0010
1000
0001
0010
,
1000
0001
0100
1000
0001
0110
0000
2002
,
0000
0000
0000
0000
,
0000
0000
0000
3003
,
MMMM
MMMM
MMMM
MMMM
1000
0010
0100
1000
,
0001
0000
0010
0000
0100
0000
0001
0000
1000
0100
0010
0000
0001
0000
1000
0000
,
0001
0000
0100
0010
0000
1000
0001
0000
1000
0001
0010
0000
0100
0000
0001
0000
,
1000
0000
0010
0100
1000
0000
0001
0000
0100
0010
1000
0000
0010
0000
0100
0000
,
1000
0000
0100
0010
0000
1000
0001
0000
1000
0000
0100
0010
0100
0000
0001
0000
,
1000
0000
0010
0100
0010
0000
0001
0000
1000
0010
0100
0000
0010
0000
0100
0000
,
0001
0000
1000
0000
0000
0000
0200
0000
0000
0000
0310
0100
0010
0100
0010
0100
,
0010
0000
0001
0000
0100
0000
0010
0000
1000
0000
0100
0000
0010
0000
0001
1000
,
0001
0100
0010
1000
0001
0010
0100
0001
,
1000
0000
0010
0000
0100
0000
1000
0000
0001
0100
0010
0000
1000
0000
0001
0000
,
1000
0000
0100
0010
0000
0001
1000
0000
0001
1000
0010
0000
0100
0000
1000
0000
,
0001
0000
0010
0100
0001
0000
1000
0000
0100
0010
0001
0000
0010
0000
0100
0000
,
0001
0000
0100
0010
0000
0001
1000
0000
0001
0000
0100
0010
0100
0000
1000
0000
,
0001
0000
0010
0100
0010
0000
1000
0000
0001
0010
0100
0000
0010
0000
0100
0000
,
1000
0000
0001
0000
0000
0000
0200
0000
0000
0000
0310
0100
0010
0100
0010
0100
,
0010
1000
0100
0010
0001
0100
0020
0000
,
0030
0000
0000
0000
1000
0000
0010
0000
0001
0000
0010
0100
0010
0000
1000
0000
,
0100
0001
0100
0010
1000
0001
0100
0010
,
1000
0001
0100
0010
1000
0010
0001
1000
,
0010
0001
0010
0100
1000
0001
0010
0100
,
1000
0000
0100
0000
0001
0000
0010
0000
1000
0000
0010
0100
0010
0000
0001
0000
,
0100
1000
0100
0010
0001
1000
0100
0010
,
0001
1000
0100
0010
0001
0010
1000
0001
,
0010
1000
0010
0220
0000
0000
0000
0000
,
0000
0000
0330
0000
0001
1000
0001
0100
,
0000
0100
0000
0010
0000
0010
0000
1000
,
0000
0100
0010
0002
0000
0000
0000
0000
,
0000
0000
0000
0000
,
0000
0000
0003
0000
;

//--------------- dance-single - chronon ----------------
#NOTEDATA:;
#STEPSTYPE:dance-single;
#DESCRIPTION:chronon;
#DIFFICULTY:Challenge;
#METER:18;
#RADARVALUES:0,0,0,0,0;
#CHARTNAME:;
#CHARTSTYLE:;
#CREDIT:chrononical;
#METERF:18;
#NOTES:
0000
0000
0000
0000
,
0000
0000
0000
0000
,
0002
0000
0103
0010
0000
1000
0000
0100
,
0000
0000
0010
0000
0100
0000
1000
0000
0010
0000
0000
0100
0000
0000
0001
0000
,
2000
0000
3010
0100
0000
0001
0000
0010
,
0000
0000
0100
0000
0010
0000
0001
0000
0100
0000
0000
0010
0000
0000
1000
0000
,
0001
0100
0001
0100
0001
0100
0001
0100
0010
1000
0010
1000
0010
1000
0010
1000
,
0001
0010
0001
0010
0001
0010
0001
0010
0100
0000
0110
0000
0000
0000
2002
0000
,
0000
0000
0000
0000
,
3003
0000
0000
0000
,
1100
1000
0100
0010
0100
1000
0001
0010
,
0000
0011
0000
0000
0110
0000
1100
0000
,
1001
0000
0201
0310
0100
0001
1000
0010
,
0000
0000
1010
0000
0000
0000
0110
0000
0110
0000
0000
0101
0000
0000
1001
0000
,
1001
0000
0021
0130
0010
0001
1000
0200
,
0000
1300
0001
0010
0100
1000
0001
1000
,
1010
0010
0100
0101
0001
0100
0110
1001
,
0000
0000
1010
0000
0010
0000
0100
0001
1000
0000
0010
0000
1000
0000
0001
0000
,
1001
0000
0000
0000
1100
0000
1000
0100
0010
0000
0100
0000
1000
0000
0001
0000
,
0010
0000
0100
0000
1000
0000
0001
0010
0100
0000
0100
0000
1000
0000
1000
0000
,
1001
0000
0000
0000
0101
0000
0001
0100
0010
0000
0100
0000
0001
0000
1000
0000
,
0010
0000
0100
0000
0001
0000
1000
0010
0100
0000
0100
0000
0001
0000
0001
0000
,
1001
0000
0000
0000
0011
0000
0001
0010
0100
0000
1000
0000
0100
0000
0010
0001
,
1000
0000
0100
0000
0010
0000
0001
0010
0100
0000
1000
0000
0001
0000
0001
0000
,
1001
0000
1000
0010
0100
0000
0110
0000
0010
0100
0001
0000
0101
0000
0101
0000
,
0000
0000
1001
0000
1000
0010
0100
0001
1000
0010
0100
0001
0010
0000
0100
0000
,
0002
0003
0101
0110
0000
1100
0000
1010
,
0000
0000
1000
0000
0010
0000
0100
0000
0101
0000
0000
0120
0000
0000
0130
0000
,
2000
0000
3100
0010
0100
0001
0010
0011
,
0000
0000
0001
0000
0010
0000
0100
0000
1100
0000
0000
0120
0000
0000
0130
0000
,
0002
0000
0103
0010
0100
1000
0010
1010
,
0000
1000
0010
0010
0100
0110
0000
0101
,
0000
0001
0001
0001
0001
0010
0100
2000
,
0000
0000
3001
0000
0100
0000
0010
0100
0001
0000
1000
0000
0001
0000
0010
0000
,
2000
3000
1010
0110
0000
0011
0000
0101
,
0000
0000
0001
0000
0100
0000
0010
0000
1010
0000
0000
0210
0000
0000
0310
0000
,
0002
0000
0013
0100
0010
1000
0100
1100
,
0000
0000
1000
0000
0100
0000
0010
0000
0011
0000
0000
0210
0000
0000
0310
0000
,
2000
0000
3010
0100
0010
0001
0100
0101
,
0000
0001
0100
0100
0010
0110
0000
1010
,
0000
1000
1000
1000
1000
0100
0010
0012
,
0000
1003
0020
0000
0130
0000
0010
1000
,
0100
0000
0010
0100
1000
0000
1100
0000
0000
0000
1001
0000
0000
0000
0101
0000
,
0100
0000
0010
0000
0100
0010
0100
0000
0001
0100
0001
0000
0100
0010
0100
0000
,
1000
0000
0100
0010
1000
0000
1010
0000
0000
0000
1001
0000
0000
0000
0011
0000
,
0010
0000
0100
0000
0010
0100
0010
0000
0001
0010
0001
0000
0010
0100
0010
0000
,
0100
0000
0010
0100
1000
0000
1100
0000
0000
0000
1001
0000
0000
0000
0101
0000
,
0100
0000
0010
0000
0100
0010
0100
0000
0001
0100
0001
0000
0100
0010
0100
0000
,
1000
0000
0100
0010
1000
0000
1010
0000
0000
0000
1001
0000
0000
0000
2200
0000
,
0000
0000
3300
0110
,
0011
0001
0010
0100
0010
0001
1000
0100
,
0000
1100
0000
0000
0110
0000
0011
0000
,
1001
0000
1020
0130
0010
1000
0001
0100
,
0000
0000
0101
0000
0000
0000
0110
0000
0110
0000
0000
1010
0000
0000
1001
0000
,
1001
0000
0000
0000
1100
0000
1000
0100
0010
0100
1000
0000
0001
0010
0100
0010
,
0001
0000
1000
0100
0010
0100
1000
0000
0001
0010
0100
1000
0001
0000
0100
0000
,
0101
0000
0001
0100
0010
0000
1010
0000
1000
0010
0100
0000
0110
0000
1001
0000
,
0000
0000
0101
0000
0001
0100
0010
0000
1000
0010
0100
0001
1000
0000
0001
0000
,
1001
0000
0000
0000
0011
0000
0001
0010
0100
1000
0001
0000
1000
0100
0010
0001
,
1000
0000
0001
0010
0100
1000
0001
0000
0010
0001
0010
0100
1000
0100
1000
0000
,
1001
0000
0000
0000
1010
0000
1000
0010
0100
0001
1000
0000
0001
0100
0010
1000
,
0001
0000
1000
0010
0100
0001
1000
0000
0010
1000
0010
0100
0001
0100
0001
0000
,
1001
0000
0000
0000
1100
0000
1000
0100
0010
0001
1000
0000
0001
0010
0100
1000
,
0001
0000
1000
0100
0010
0001
1000
0000
0001
0010
0100
1000
0001
1000
0001
0000
,
1001
0000
0001
0100
0010
0000
0110
0000
0100
0010
1000
0000
1010
0000
1010
0000
,
0000
0000
1001
0000
0001
0100
0010
1000
0001
0100
0010
1000
0100
0000
0000
0000
,
2100
0000
0000
0000
0000
0000
0000
3200
,
0000
0000
0320
0000
,
0032
0000
0000
0000
0000
0000
0000
0203
,
0000
0000
0320
0000
,
2030
0000
0000
0000
0000
0000
0000
3020
,
0000
0000
0000
0000
0230
0000
0000
0301
,
0000
1000
1000
1000
1000
0100
0000
0020
,
0000
0031
0200
0000
0301
0100
0010
1000
,
0001
0100
0001
0100
0001
0100
0001
0100
,
0010
0100
0010
0100
0010
1000
0010
1000
,
0100
1000
0100
1000
0100
1000
0100
0010
,
0100
0010
0100
0010
0001
0010
0001
0010
,
0001
0010
0001
0010
0001
0010
0001
0010
0100
1000
0100
1000
0100
1000
0100
1000
,
0001
0100
0001
0100
0001
0100
0001
0100
0010
0000
0110
0000
0000
0000
2002
0000
,
0000
0000
0000
0000
,
0000
0000
0000
3003
,
MMMM
0000
MMMM
0000
MMMM
0000
MMMM
0000
1000
0001
1000
0000
0100
0010
0001
0000
,
0100
0010
1000
0000
0100
0000
1100
0000
1000
0100
0010
0001
1000
0001
0100
0010
,
1000
0000
0001
0100
0000
0010
0100
0000
1000
0100
0010
0000
0100
0010
1000
0000
,
0100
0010
0001
0000
0100
0000
0101
0000
0001
0100
0010
1000
0001
1000
0100
0010
,
0001
0000
1000
0100
0000
0010
0100
0000
0001
0000
0100
0010
0001
0000
1000
0000
,
0001
0100
0010
0000
1000
0000
1010
0000
0010
1000
0010
0100
0001
1000
0001
0010
,
0100
0000
0100
0000
0000
0000
1100
0000
0000
0000
1000
0100
1000
0001
1000
0010
,
1000
0010
0100
0000
0001
0000
1000
0000
0001
0000
0100
0000
0010
0000
1000
0000
,
0001
0000
1000
0000
0100
0000
0010
0000
1000
0010
0100
0000
0010
0100
1000
0000
,
0010
0100
0001
0000
0010
0000
0011
0000
0001
0010
0100
1000
0001
1000
0010
0100
,
0001
0000
1000
0010
0000
0100
0010
0000
0001
0010
0100
0000
0010
0100
0001
0000
,
0010
0100
1000
0000
0010
0000
1010
0000
1000
0010
0100
0001
1000
0001
0010
0100
,
1000
0000
0001
0010
0000
0100
0010
0000
1000
0000
0010
0100
1000
0000
0001
0000
,
1000
0010
0100
0000
0001
0000
0101
0000
0100
0001
0100
0010
1000
0001
1000
0100
,
0010
0000
0010
0000
0000
0000
0011
0000
0000
0000
0001
0010
0001
1000
0001
0100
,
0001
0100
0010
0000
1000
0000
0001
0000
1000
0000
0010
0000
0200
0000
0000
0000
,
0310
0000
0000
0000
0100
0000
0001
0000
0010
0000
0001
0010
0100
0000
0010
0000
,
1000
0000
0001
0000
0100
0000
0110
0000
0000
0000
0010
0100
0010
0100
1000
0001
,
1000
0001
0010
0100
0010
0100
1000
0000
0010
0000
1000
0010
0100
0000
0010
0000
,
0001
0000
1000
0000
0100
0000
0110
0000
0000
0000
0010
0100
0010
0100
0001
1000
,
0001
1000
0010
0100
0010
0100
0001
0000
0010
0000
0001
0010
0100
0000
0010
0000
,
1000
0000
0001
0000
0100
0000
0110
0000
0000
0000
0010
0100
0010
0100
1000
0001
,
1000
0001
0010
0100
0010
0100
1000
0000
0010
0000
1000
0010
0100
0000
0010
0000
,
0001
1000
0100
0202
0000
0000
0000
0000
,
0303
0000
0110
0000
1010
0010
1000
0100
,
0000
0100
0000
0010
0000
0010
0000
0001
,
0000
0001
0100
0020
0000
0000
0000
0000
,
0000
0000
0000
0000
,
0000
0000
0030
0000
;

//--------------- dance-double - kaya ----------------
#NOTEDATA:;
#STEPSTYPE:dance-double;
#DESCRIPTION:kaya;
#DIFFICULTY:Easy;
#METER:10;
#RADARVALUES:0,0,0,0,0;
#CHARTNAME:;
#CHARTSTYLE:;
#CREDIT:kaya;
#METERF:10;
#NOTES:
00000000
00000000
00000000
00000000
,
00000000
00000000
00000000
00000000
,
00000000
00000000
00000000
00000000
,
00000000
00000000
00000000
00000000
,
00000000
00000000
00000000
00000000
,
00000000
00000000
00000000
00000000
,
00010000
00001000
00010000
00001000
,
00010000
00001000
00010000
00001000
00010000
00000000
00000000
00022000
,
00000000
00000000
00000000
00000000
,
00033000
00000000
00000000
00000000
,
00010000
00001000
01000000
00010000
,
10000000
00100000
01010000
01010000
,
00001000
00010000
00000100
00000010
,
00000001
00001001
00001001
00001001
,
00000001
00000100
00000010
00001000
,
00010000
01000000
00100000
10000000
,
10000000
01000000
00100000
00010000
,
00001000
00000100
00000010
00000001
,
00000100
00000110
00000010
00010000
,
00001000
00100000
01000000
01000000
,
10000000
00010000
10000000
00100000
,
01000000
00000000
00001000
00000000
00010000
00001000
00010000
00000000
,
00011000
00010000
00000100
00000100
,
00000010
00000000
00000001
00000000
00001000
00000001
00001000
00000000
,
00000001
00000000
00000000
00000001
00000000
00000000
00001000
00000000
,
00000000
00001000
00000000
00000000
00000010
00010000
00001000
00010000
,
00002000
00000000
00000000
00010000
00000000
00013000
00000000
00011000
,
00000000
00010000
01000000
10000000
,
00020000
00000000
00000000
10000000
00000000
10030000
00000000
10010000
,
00000000
10000000
01000000
00010000
,
00002000
00000000
00000000
00010000
00000000
00013000
00000000
00011000
,
00000000
00000000
00010000
00000000
00001000
00000000
00000000
00020000
,
00000000
00000000
00000100
00000000
00030100
00000000
00000000
00002000
,
00000000
01000000
01003000
00000000
,
00020000
00000000
00000000
00001000
00000000
00031000
00000000
00011000
,
00000000
00001000
00000100
00000001
,
00002000
00000000
00000000
00000001
00000000
00003001
00000000
00001001
,
00000000
00000001
00000100
00001000
,
00020000
00000000
00000000
00001000
00000000
00031000
00000000
00011000
,
00000000
00000000
00001000
00000000
00010000
00000000
00000000
00002000
,
00000000
00000000
01000000
00000000
01003000
00000000
00000000
00020000
,
00000000
00000100
00030100
00000000
,
00011000
00010000
01000000
00100000
,
00001000
00001000
00010000
00010000
,
00011000
00001000
00000100
00000010
,
00010000
00010000
00001000
00001000
,
00011000
00010000
00100000
01000000
,
00010000
00010000
00001000
00001000
,
00011000
00000000
00001000
00000000
00000010
00000000
00000100
00020000
,
00002000
00000000
00033000
00000000
,
10000000
00000000
00000000
00000000
,
00000000
00100000
00000000
00000000
00100000
00000000
00100000
00000000
,
01000000
00002000
00000000
00000000
,
00003000
00010000
00000000
00000100
00000020
00000000
00000000
00000000
,
00000031
00001000
00000001
00001000
,
00000010
00000100
00000010
00000100
,
00001000
00010000
00001000
00010000
,
00100000
01000000
00100000
01000000
,
00100000
10000000
00010000
10000000
,
01000000
00000000
00100000
00000000
00001000
00010000
00001000
00000000
,
00010000
00000010
00000100
00000001
,
00000010
00000000
00000100
00000000
00001000
00000001
00001000
00000000
,
00000100
00010000
00001000
01000000
,
00100000
00000000
10000000
00000000
00100000
10000000
00010000
00000000
,
01000000
00010000
00100000
00001000
,
00010000
00000000
00000010
00000000
00001000
00000100
00000010
00000000
,
00000002
00000000
00000000
00000000
00000000
00000000
00000000
00000003
,
00000000
00000000
00000200
00000000
,
00002300
00000000
00000000
00000000
00000000
00000000
00000000
00003000
,
00000000
00000000
00020000
00000000
,
02030000
00000000
00000000
00000000
00000000
00000000
00000000
03200000
,
00000000
00000000
00000000
00000000
00000000
00000000
00000000
00320000
,
00000000
00000000
00000000
00000000
00000000
00000000
00000000
10030000
,
00000000
00000000
00000000
00000000
10000000
01000000
00010000
00000000
,
00002000
00000000
00000000
00010000
00000000
00013000
00000000
00011000
,
00000000
00001000
00000010
00000100
,
00020000
00000000
00000000
00001000
00000000
00031000
00000000
00011000
,
00000000
00001000
01000000
00100000
,
00010000
00001000
00010000
00001000
,
00020000
00032000
00023000
00032000
00020000
00000000
00000000
00033000
,
00000000
00000000
00000000
00000000
,
00000000
00000000
00000000
00000000
,
00000000
00000000
00011000
00001000
,
00000100
00000000
00000010
00000000
00010000
00001000
00010000
00000000
,
00000010
00000000
00000000
00000010
00000000
00000000
00010000
00000000
00001000
00000000
00000000
00000000
00100000
00000000
00000000
00000000
,
01000000
00000000
00010000
00000000
00001000
00010000
00001000
00000000
,
00100000
00000000
00000000
00100000
00000000
00000000
00001000
00000000
00010000
00000000
00000000
00000000
00001000
00000000
00000000
00000000
,
00000100
00000000
00000010
00000000
00010000
00001000
00010000
00000000
,
00000100
00000010
00000000
00000022
00000000
00000000
00000033
00000000
,
00000001
00000010
00000000
00002200
00000000
00003300
00000000
00000000
,
00000100
00010000
00001000
00000000
00011000
00000000
00001000
00000000
,
00000010
00000000
00000100
00000000
00010000
00001000
00010000
00000000
,
00000100
00000000
00000000
00000100
00000000
00000000
00010000
00000000
00001000
00000000
00000000
00000000
01000000
00000000
00000000
00000000
,
00100000
00000000
00010000
00000000
00001000
00010000
00001000
00000000
,
01000000
00000000
00000000
01000000
00000000
00000000
00001000
00000000
00010000
00000000
00000000
00000000
00001000
00000000
00000000
00000000
,
00000010
00000000
00000100
00000000
00010000
00001000
00010000
00000000
,
00000010
00000100
00000000
00000202
00000000
00000000
00000303
00000000
,
00000001
00000100
00000000
00002020
00000000
00003030
00000000
00000000
,
00000010
00010000
00001000
00000000
00010000
00000000
01000000
00000000
,
10000000
00000000
00010000
01000000
00100000
10000000
00100000
10000000
,
00100000
00010000
00001000
00000100
,
00000001
00000000
00001000
00000100
00000010
00000001
00000010
00000001
,
00000010
00001000
00010000
01000000
,
10000000
00000000
00010000
01000000
00100000
10000000
00100000
10000000
,
00100000
00010000
00001000
00000100
,
00000001
00001000
00000000
00002002
00000000
00000000
00000000
00000000
,
00003003
00000000
00000000
00000000
;

//--------------- dance-double - kaya ----------------
#NOTEDATA:;
#STEPSTYPE:dance-double;
#DESCRIPTION:kaya;
#DIFFICULTY:Medium;
#METER:15;
#RADARVALUES:0,0,0,0,0;
#CHARTNAME:;
#CHARTSTYLE:;
#CREDIT:kaya + chrono;
#METERF:15;
#NOTES:
00000000
00000000
00000000
00000000
,
00000000
00000000
00000000
00000000
,
00022000
00000000
00030000
00000000
,
02000000
00003000
00200000
03000000
,
20000000
00000000
00300000
00000000
,
30020000
00000000
00230000
00000000
,
01300000
10000000
01000000
10000000
01000000
00100000
01000000
00100000
,
00001000
00000000
00010000
00000000
00001000
00000000
00010000
00000000
00001000
00010000
00001000
00000000
00000000
00000000
00022000
00000000
,
00000000
00000000
00000000
00000000
,
00033000
00000000
00000000
00000000
,
00022000
00000000
00033000
00000000
00001000
00000100
00000010
00001000
,
00000000
00000001
00000010
00000001
00000021
00000000
00001030
00000000
,
00021000
00000000
01030000
00000000
00100000
01000000
00100000
00010000
,
00000000
00000000
10000000
00000000
01000000
00000000
00100000
00000000
00001000
00000000
00000000
00010000
00000000
00000000
00001000
00000000
,
00010000
00021000
00000100
00030100
,
00011000
00002000
01000000
01003000
,
01010000
00000000
00000000
01001000
00000000
00000000
00011000
00010100
,
00000000
00001100
00000000
00000000
00000100
00001000
00000001
00000000
,
00000010
00000100
00001000
00000010
00000100
00000001
00001000
00000001
,
00000100
00000001
00000010
00000001
00001000
00000100
00010000
00000000
,
00001000
00100000
01000000
10000000
00100000
01000000
00010000
10000000
,
01000000
10000000
00010000
01000000
00001000
00001000
00010000
00000000
,
00000100
00000010
00000100
00000010
00000001
00001000
00000100
00010000
,
00001000
01000000
00001000
01000000
00010000
01000000
00100000
10000000
,
00010000
00000000
00000000
00110000
00000000
00000000
00101000
00011000
,
00000000
00010010
00000000
00000000
00000010
00001000
00000001
00000100
,
00000110
00000000
00000200
00000010
00000000
00001000
00000000
00010300
,
00000000
00000000
00000100
00000000
00001000
00000000
00010000
00000000
00001000
00000000
00000000
01000000
00000000
00000000
00100000
00000000
,
01100000
00000000
02000000
00100000
00000000
00010000
00000000
03001000
,
00000000
00000000
01000000
00000000
00010000
00000000
00001000
00000000
00010000
00000000
00000000
00000100
00000000
00000000
00000010
00000000
,
00000110
00000000
00000020
00000100
00000000
00001000
00000000
00010030
,
00000000
00000010
00001000
00010000
00001000
00001000
00000000
00000200
,
00000000
00000301
00001000
00000001
00000100
00000100
00000000
00002000
,
00000000
00010000
00013000
00000000
00010000
01000000
00100000
01000000
,
01100000
00000000
00200000
01000000
00000000
00010000
00000000
00301000
,
00000000
00000000
00100000
00000000
00010000
00000000
00001000
00000000
00010000
00000000
00000000
00000100
00000000
00000000
00000010
00000000
,
00000110
00000000
00000020
00000100
00000000
00001000
00000000
00010030
,
00000000
00000000
00000010
00000000
00001000
00000000
00010000
00000000
00001000
00000000
00000000
00100000
00000000
00000000
01000000
00000000
,
01100000
00000000
00200000
01000000
00000000
00010000
00000000
00301000
,
00000000
00100000
00010000
00001000
00010000
00010000
00000000
02000000
,
00000000
03100000
10000000
00010000
01000000
01000000
00000000
00002000
,
00000000
00010000
00013000
00000000
00000000
00000000
00001000
00000100
,
00000001
00000000
00000001
00000020
00000000
00000130
00000000
00000010
,
00001000
00010000
00001000
00010000
01000000
00000000
00010000
01000000
,
10000000
00000000
10000000
00200000
00000000
01300000
00000000
00100000
,
00010000
00001000
00010000
00001000
00010000
00001000
00000100
00000001
,
00000000
00000001
00000200
00000000
00000310
00000000
00000110
00000000
,
00000100
00001000
00010000
00001000
00010000
00100000
10000000
00000000
,
10000000
01000000
00100000
00010000
00000000
00110000
00000000
00202000
,
00000000
00000000
00000000
00303000
,
00011000
00000000
00000000
00000000
,
00000000
00002000
00000000
00000000
00010000
00000000
00013000
00000000
,
00011000
00022000
00000000
00033000
,
00000000
00000000
00011000
00000000
00000000
00000000
00010000
00000000
00001000
00000000
00000000
00000100
00000000
00000000
00000001
00000000
,
00000010
00000000
00001001
00000000
00001000
00000001
00000100
00000000
,
00000010
00010000
00001000
00000000
00010000
01000000
00100000
00000000
,
01100000
00000000
00000000
01100000
00000000
00000000
10000000
00010000
,
00000000
10010000
00000000
00000000
10000000
00010000
01000000
00010000
,
00100000
01000000
00010000
01000000
00100000
00010000
00001000
00000100
,
00000010
00001000
00000010
00000100
00010000
00001000
00010000
00000000
,
00000010
00000100
00001000
00000100
00000010
00001000
00010000
01000000
,
00100000
00010000
00100000
01000000
00001000
00010000
00001000
00000000
,
01000000
00100000
00010000
00100000
01000000
00010000
00001000
00000010
,
00000100
00001000
00000100
00000010
00010000
00001000
00010000
00000000
,
00000100
00000010
00001000
00000010
00000100
00001000
00010000
00100000
,
01000000
00010000
01000000
00100000
00001000
00010000
00001000
00000000
,
00000000
00000000
00000000
00000000
,
00000000
00000000
00000000
00000000
,
00000000
00000000
00000000
00000000
,
00000000
00000000
00000000
00000000
,
00000000
00000000
00000000
00000000
,
00000000
00000000
00000000
00000000
,
00000000
00000000
00000000
00000000
,
00000000
00000000
00000000
00000000
,
00011000
00001000
00010000
01000000
,
10000000
00000000
00000000
00000000
10000000
00000000
00100000
00000000
00010000
00000000
00000000
00001000
00000000
00000000
00010000
00000000
,
00011000
00001000
00000100
00000001
,
00000001
00000000
00000000
00000000
00000010
00000000
00001000
00000000
00010000
00000000
00000000
00001000
00000000
00000000
00000010
00000000
,
00000001
00000100
00001000
00010000
01000000
10000000
00100000
00010000
,
00001000
00000100
00000001
00000010
00001000
00011000
00000000
00022000
,
00000000
00000000
00000000
00000000
,
00033000
00000000
00000000
00000000
,
00000000
00000000
00000000
00000000
10100000
00000000
10000000
02000000
,
00000000
00100000
00000000
03010000
00001000
00100000
00100000
00001000
,
00010000
00000000
00000000
01000000
00000000
00000000
10000000
00000000
11000000
00000000
00000000
00000000
10000000
00000000
00200000
00000000
,
00000000
01000000
00000000
00310000
00001000
01000000
01000000
00001000
,
00010000
00000000
00000000
00100000
00000000
00000000
01000000
00000000
01100000
00000000
00000000
00000000
00100000
00000000
02000000
00000000
,
00000000
00010000
00000000
03001000
00000000
01000000
00010000
00001000
,
00010000
00010000
00000000
00200000
00000000
10300000
00010000
10000000
,
01000000
00010000
00000000
00002000
00000000
00010000
00013000
00000000
,
00001000
00000010
00000001
00000000
00000011
00000000
00000001
00000200
,
00000000
00000010
00000000
00001300
00010000
00000100
00000100
00010000
,
00001000
00000000
00000000
00000100
00000000
00000000
00000001
00000000
00000101
00000000
00000000
00000000
00000001
00000000
00000200
00000000
,
00000000
00000010
00000000
00001300
00010000
00000010
00000010
00010000
,
00001000
00000000
00000000
00000010
00000000
00000000
00000100
00000000
00000110
00000000
00000000
00000000
00000010
00000000
00000200
00000000
,
00000000
00001000
00000000
00010300
00000000
00000100
00001000
00010000
,
00001000
00001000
00000000
00000020
00000000
00000031
00001000
00000001
,
00000100
00000100
00000000
00002000
00000000
00010000
00013000
00000000
,
00000000
00000000
00010000
00001000
00011000
00000000
00001000
02000000
,
00000000
00010000
00000000
03100000
01000000
10000000
01000000
00100000
,
01000000
00010000
01000000
00001000
00011000
00000000
00010000
00000200
,
00000000
00001000
00000000
00000310
00000100
00000001
00000100
00000010
,
00000100
00001000
00000100
00010000
00011000
00000000
00001000
00200000
,
00000000
00010000
00000000
01300000
00100000
10000000
00100000
01000000
,
00100000
00010000
00100000
00001000
00010000
00000100
00000010
00000001
,
00000000
00001001
00000000
00000220
00000000
00000000
00000000
00000000
,
00000000
00000000
00000330
00000000
00001000
00000001
00000000
00000001
,
00000000
00000100
00000000
00000100
00000000
00001000
00000000
00001000
,
00000000
00010000
00100000
20000000
00000000
00000000
00000000
00000000
,
00000000
00000000
00000000
00000000
,
00000000
00000000
30000000
00000000
;

//--------------- dance-double - chronon ----------------
#NOTEDATA:;
#STEPSTYPE:dance-double;
#DESCRIPTION:chronon;
#DIFFICULTY:Hard;
#METER:17;
#RADARVALUES:0,0,0,0,0;
#CHARTNAME:;
#CHARTSTYLE:;
#CREDIT:chrononical;
#METERF:17;
#NOTES:
00000000
00000000
00000000
00000000
,
00000000
00000000
00000000
00000000
,
00000000
00000000
00000000
00000000
,
00000000
00000000
00000000
00000000
,
00000000
00000000
00000000
00000000
,
00000000
00000000
00000000
00000000
,
10000000
00000000
01000000
00100000
00000000
00001000
00000000
00010000
,
00000000
00000100
00000010
00000001
00001000
00000001
00000000
00002002
,
00000000
00000000
00000000
00000000
,
00003003
00000000
00000000
00000000
,
00000001
00000100
00000010
00001000
00000001
00000010
00000100
00020000
,
00000000
00001000
00000000
00000000
01030000
00000000
01100000
00000000
,
10000000
01000000
00100000
00010000
10000000
00100000
01000000
00002000
,
00000000
00000000
00010000
00000000
00000000
00000000
00000100
00000000
00003100
00000000
00000000
00000010
00000000
00000000
00001000
00000000
,
00000001
00000010
00000100
00001000
00000001
00000100
00000010
00020000
,
00000000
00001000
00130000
01000000
,
10100000
00000000
00000000
01010000
00000000
00000000
10000000
01000000
,
00000000
00000000
00110000
00000000
00000000
00000000
00010000
01000000
00100000
00000000
10000000
00000000
00010000
00000000
10000000
00000000
,
01000000
00000000
11000000
01000000
00100000
00001000
00010000
00200000
,
00000000
00310000
00001000
00010000
00000010
00001000
00000001
00000000
,
00000100
00000000
00000101
00000100
00000010
00010000
00001000
00000020
,
00000000
00001030
00010000
00001000
00100000
00010000
10000000
00000000
,
00100000
00000000
10100000
00100000
01000000
00001000
00010000
02000000
,
00000000
03010000
00001000
00010000
00000100
00001000
00000001
00000010
,
00000011
00000000
00000000
00001100
00000000
00000000
00000001
00000100
,
00000000
00002020
00000000
00000000
00000000
00000000
00003030
00000000
,
00000011
00000010
00000100
00001100
00000000
00010100
00000000
00021000
,
00000000
00000000
01030000
00000000
00100000
00000000
00010000
00000000
01000000
00000000
00000000
00100000
00000000
00000000
10000000
00000000
,
10100000
00100000
01000000
01010000
00000000
01001000
00000000
00012000
,
00000000
00000000
00003100
00000000
00000010
00000000
00001000
00000000
00000001
00000000
00000000
00000010
00000000
00000000
00000001
00000000
,
00000101
00000100
00000010
00001010
00000000
00010010
00000000
00021000
,
00000000
00130000
01000000
00010000
00100000
01000000
00000000
21000000
,
00000000
00010000
00010000
00010000
30010000
01000000
00100000
01000000
,
00010000
00000000
00100000
00000000
01000000
00000000
10000000
01000000
00100000
00000000
01000000
00000000
10000000
00000000
01000000
00000000
,
11000000
01000000
00100000
00110000
00000000
00101000
00000000
00012000
,
00000000
00000000
00003010
00000000
00000100
00000000
00001000
00000000
00000010
00000000
00000000
00000100
00000000
00000000
00000001
00000000
,
00000101
00000100
00000010
00001010
00000000
00010010
00000000
00021000
,
00000000
00000000
00130000
00000000
01000000
00000000
00010000
00000000
10000000
00000000
00000000
01000000
00000000
00000000
10000000
00000000
,
10100000
00100000
01000000
01010000
00000000
01001000
00000000
00012000
,
00000000
00003100
00000010
00001000
00000100
00000010
00000000
00000012
,
00000000
00001000
00001000
00001000
00001003
00000010
00000100
00000010
,
00001000
00000100
00000020
00000000
00000000
00000000
00000130
00001000
,
00020000
00000000
00130000
00001000
00010000
00100000
01000000
00100000
,
10000000
01000000
00100000
00010000
01000000
00100000
01000000
00010000
,
00002000
00000000
00003010
00010000
00001000
00000010
00000100
00001000
,
00000010
00000100
00000001
00000010
00000001
00000100
00000010
00001000
,
00020000
00000000
01030000
00001000
00010000
01000000
00100000
01000000
,
10000000
00100000
01000000
00010000
00100000
01000000
00100000
00010000
,
00001000
00000100
00000100
00000010
00000001
00001000
00000001
00002002
,
00000000
00000000
00000000
00003003
,
00000001
00000010
00000100
00001000
00000001
00000100
00000010
00020000
,
00000000
00001000
00000000
00000000
00130000
00000000
01100000
00000000
,
10000000
00100000
01000000
00010000
10000000
01000000
00100000
00002000
,
00000000
00000000
00010000
00000000
00000000
00000000
00000010
00000000
00003010
00000000
00000000
00000100
00000000
00000000
00001000
00000000
,
00000001
00000000
00001000
00000001
00001000
00000000
00000010
00000000
00000100
00000010
00000100
00000000
00000001
00000000
00001000
00000001
,
00001000
00000100
00010000
00001000
01000000
00010000
10000000
01000000
,
11000000
00000000
00000000
00110000
00000000
00000000
10000000
00100000
,
00000000
00000000
01010000
00000000
00000000
00000000
00010000
00000000
10000000
00100000
01000000
00010000
10000000
00000000
00100000
00000000
,
10000000
00100000
10000000
00000000
00100000
00000000
01000000
00010000
01000000
00000000
00001000
00000000
00010000
00001000
00010000
00000000
,
00000010
00000000
00001000
00000010
00001000
00000000
00000001
00000000
00000100
00000001
00000100
00000000
00000001
00000000
00001000
00000000
,
00000001
00000010
00000001
00000000
00000010
00000000
00000100
00001000
00000100
00000000
00010000
00000000
00001000
00010000
00001000
00000000
,
00100000
00000000
00010000
00100000
00010000
00000000
10000000
00000000
01000000
10000000
01000000
00000000
10000000
00000000
00010000
00000000
,
10000000
01000000
10000000
00000000
01000000
00000000
00100000
00010000
00100000
00000000
00001000
00000000
00010000
00001000
00010000
00000000
,
00000100
00000000
00001000
00000100
00001000
00000000
00000001
00000000
00000010
00000001
00000010
00000000
00000001
00000000
00000100
00000000
,
00000101
00000000
00000000
00001010
00000000
00000000
00000001
00000010
,
00000000
00002200
00000000
00000000
00000000
00000000
00003300
00000000
,
00000002
00000000
00000000
00000000
00000000
00000000
00000000
00000203
,
00000000
00000000
00000320
00000000
,
00020030
00000000
00000000
00000000
00000000
00000000
00000000
00032000
,
00000000
00000000
00203000
00000000
,
00320000
00000000
00000000
00000000
00000000
00000000
00030000
20000000
,
00000000
00000000
00000000
00000000
30020000
00000000
00000000
20030000
,
00000000
00010000
00010000
00010000
30010000
00100000
00000000
02000000
,
00000000
13000000
00020000
00000000
10030000
00010000
10000000
00000000
,
00100000
10000000
00100000
10000000
00010000
01000000
00010000
01000000
,
00001000
01000000
00001000
01000000
00001000
00010000
00001000
00010000
,
00000100
00010000
00000100
00010000
00000100
00001000
00000100
00001000
,
00000001
00000010
00000001
00000010
00000001
00001000
00000001
00001000
,
00000001
00000010
00000100
00001000
00010000
00100000
01000000
10000000
,
10000000
00100000
01000000
00010000
00001000
00000010
00000000
00000202
,
00000000
00000000
00000000
00000000
,
00000000
00000000
00000000
00000303
,
MMMMMMMM
MMMMMMMM
MMMMMMMM
MMMMMMMM
00000001
00000100
00000010
00000100
,
00001000
00000000
00010000
00000000
00100000
00000000
00010000
00000000
00001000
00010000
00001000
00000000
00100000
00000000
01000000
00000000
,
10000000
00000000
00100000
01000000
00000000
00010000
10000000
00000000
00010000
10000000
01000000
00000000
00100000
00000000
01000000
00000000
,
00010000
00000000
00001000
00000000
00000010
00000000
00001000
00000000
00010000
00001000
00010000
00000000
00000010
00000000
00000100
00000000
,
00000001
00000000
00000100
00000010
00000000
00001000
00000001
00000000
00001000
00000000
00000001
00000010
00000100
00000000
00001000
00000000
,
00000001
00000100
00000010
00000000
00000100
00000000
00001000
00000000
00010000
00000000
00000100
00000000
00001000
00000000
00010000
00000000
,
00100000
00000000
01000000
00000000
00000000
00000000
21000000
00000000
00000000
00000000
30010000
10000000
00010000
10000000
00010000
10000000
,
00010000
01000000
00001000
00100000
00001000
00010000
01000000
10000000
,
00010000
00000000
10000000
00000000
00100000
00000000
01000000
00000000
00010000
10000000
00100000
00000000
01000000
00000000
00100000
00000000
,
00010000
00000000
00001000
00000000
00000100
00000000
00001000
00000000
00010000
00001000
00010000
00000000
00000100
00000000
00000010
00000000
,
00000001
00000000
00000010
00000100
00000000
00001000
00000001
00000000
00001000
00000001
00000010
00000000
00000100
00000000
00000010
00000000
,
00001000
00000000
00010000
00000000
01000000
00000000
00010000
00000000
00001000
00010000
00001000
00000000
01000000
00000000
00100000
00000000
,
10000000
00000000
01000000
00100000
00000000
00010000
10000000
00000000
00010000
00000000
10000000
00100000
01000000
00000000
00010000
00000000
,
10000000
01000000
00100000
00000000
01000000
00000000
00010000
00000000
00001000
00000000
01000000
00000000
00010000
00000000
00001000
00000000
,
00000010
00000000
00000100
00000000
00000000
00000000
00000102
00000000
00000000
00000000
00001003
00000001
00001000
00000001
00001000
00000001
,
00001000
00000100
00010000
00000010
00010000
00001000
02000000
00000000
,
00000000
00000000
00000000
00000000
03100000
00000000
00010000
00000000
00001000
00000000
00000100
00000010
00000100
00000000
00000001
00000000
,
00000010
00000100
00001000
00000010
00000001
00001000
00000100
00000001
,
00001000
00000000
00000100
00000000
00000010
00000000
00001000
00000000
00010000
00000000
01000000
00100000
01000000
00000000
10000000
00000000
,
00100000
01000000
00010000
00100000
10000000
00010000
01000000
10000000
,
00010000
00000000
00100000
00000000
01000000
00000000
00010000
00000000
00001000
00000000
00000010
00000100
00000010
00000000
00000001
00000000
,
00000100
00000010
00001000
00000100
00000001
00001000
00000010
00000001
,
00001000
00000010
00000100
00001000
00010000
01000000
01000000
10000000
,
00010000
10000000
00010000
20020000
00000000
00000000
00000000
00000000
,
00000000
00000000
30030000
00000000
10000000
01000000
00100000
00001000
,
00000000
00001000
00000000
00010000
00000000
00010000
00000000
00000010
,
00000000
00010000
00000100
00000020
00000000
00000000
00000000
00000000
,
00000000
00000000
00000000
00000000
,
00000000
00000000
00000030
00000000
;

//--------------- dance-double - chronon ----------------
#NOTEDATA:;
#STEPSTYPE:dance-double;
#DESCRIPTION:chronon;
#DIFFICULTY:Challenge;
#METER:18;
#RADARVALUES:0,0,0,0,0;
#NOTES:
00000000
00000000
00000000
00000000
,
00000000
00000000
00000000
00000000
,
20000000
00000000
31000000
00100000
00000000
00001000
00000000
00020000
,
00000000
00000000
00030010
00000000
00000100
00000000
00000001
00000000
00000010
00000000
00000000
00000100
00000000
00000000
00001000
00000000
,
00000002
00000000
00000103
00000010
00000000
00010000
00000000
00002000
,
00000000
00000000
00103000
00000000
01000000
00000000
10000000
00000000
00100000
00000000
00000000
01000000
00000000
00000000
00010000
00000000
,
10000000
00100000
10000000
00100000
10000000
00100000
10000000
00100000
01000000
00010000
01000000
00010000
01000000
00010000
01000000
00010000
,
10000000
01000000
10000000
01000000
10000000
01000000
10000000
01000000
00100000
00000000
00001000
00000000
00000000
00000000
00022000
00000000
,
00000000
00000000
00000000
00000000
,
00033000
00000000
00000000
00000000
,
00010100
00000000
00000100
00001000
00000100
00000010
00000001
00000100
,
00000000
00000101
00000000
00000000
00001010
00000000
00011000
00000000
,
01001000
00000000
01000000
00010000
01000000
00100000
10000000
01000000
,
00000000
00000000
11000000
00000000
00000000
00000000
10010000
00000000
10010000
00000000
00000000
01010000
00000000
00000000
00011000
00000000
,
00010010
00000000
00000010
00001000
00000010
00000100
00000001
00000020
,
00000000
00000031
00000010
00000100
00001000
00000100
00010000
00001000
,
00101000
00100000
00010000
00110000
00100000
01000000
01100000
10010000
,
00000000
00000000
10100000
00000000
00100000
00000000
01000000
00010000
01000000
00000000
00001000
00000000
00010000
00000000
00000100
00000000
,
00010100
00000000
00000000
00000000
00010000
00000000
00000100
00001000
00000100
00000000
00000010
00000000
00000001
00000000
00000100
00000000
,
00000010
00000000
00001000
00000000
00000001
00000000
00000100
00000010
00010000
00000000
00010000
00000000
00001000
00000000
00001000
00000000
,
01001000
00000000
00000000
00000000
00001000
00000000
01000000
00010000
01000000
00000000
00100000
00000000
10000000
00000000
01000000
00000000
,
00100000
00000000
00010000
00000000
10000000
00000000
01000000
00100000
00001000
00000000
00001000
00000000
00010000
00000000
00010000
00000000
,
00010010
00000000
00000000
00000000
00010000
00000000
00000010
00001000
00000010
00000000
00000100
00000000
00000001
00000000
00000010
00000000
,
00000100
00000000
00001000
00000000
00000001
00000000
00000010
00000100
00010000
00000000
00010000
00000000
00001000
00000000
00001000
00000000
,
00101000
00000000
00001000
00100000
00010000
00000000
00110000
00000000
00010000
10000000
00100000
00000000
10100000
00000000
10100000
00000000
,
00000000
00000000
10010000
00000000
00010000
00100000
01000000
10000000
00010000
00100000
01000000
10000000
00100000
00000000
01000000
00000000
,
20000000
00000000
31000000
01010000
00000000
01001000
00000000
00011000
,
00000000
00000000
00001000
00000000
00010000
00000000
00000100
00000000
00010100
00000000
00000000
00001100
00000000
00000000
00000210
00000000
,
00000302
00000000
00000103
00000010
00000100
00010000
00001000
00011000
,
00000000
00000000
00010000
00000000
00001000
00000000
01000000
00000000
01001000
00000000
00000000
01010000
00000000
00000000
02100000
00000000
,
23000000
00000000
31000000
00100000
01000000
00001000
00010000
00011000
,
00000000
00001000
00010000
00010000
00000100
00001100
00000000
00000011
,
00000000
00000001
00000001
00000001
00000001
00000100
00000010
00002000
,
00000000
00003100
00000010
00000001
00001000
00000001
00000100
00000010
,
00000002
00000000
00000013
00001010
00000000
00010010
00000000
00011000
,
00000000
00000000
00010000
00000000
00001000
00000000
00100000
00000000
00101000
00000000
00000000
00110000
00000000
00000000
01200000
00000000
,
20300000
00000000
30100000
01000000
00100000
00001000
00010000
00011000
,
00000000
00000000
00001000
00000000
00010000
00000000
00000010
00000000
00010010
00000000
00000000
00001010
00000000
00000000
00000120
00000000
,
00000032
00000000
00000013
00000100
00000010
00010000
00001000
00011000
,
00000000
00010000
00001000
00001000
00100000
00110000
00000000
11000000
,
00000000
10000000
10000000
10000000
10000000
00100000
01000000
01020000
,
00000000
10030000
02000000
00000000
03100000
00000000
01000000
10000000
,
00100000
00000000
01000000
00010000
10000000
00000000
10010000
00000000
00000000
00000000
01001000
00000000
00000000
00000000
00011000
00000000
,
00010000
00000000
00001000
00000000
00010000
00000100
00010000
00000000
00001000
00010000
00001000
00000000
00000010
00000000
00000001
00000000
,
00000100
00000000
00000010
00001000
00000001
00000000
00001001
00000000
00000000
00000000
00010010
00000000
00000000
00000000
00011000
00000000
,
00001000
00000000
00010000
00000000
00001000
00100000
00001000
00000000
00010000
00001000
00010000
00000000
01000000
00000000
10000000
00000000
,
00100000
00000000
01000000
00010000
10000000
00000000
10010000
00000000
00000000
00000000
01001000
00000000
00000000
00000000
00011000
00000000
,
00010000
00000000
00001000
00000000
00010000
00000100
00010000
00000000
00001000
00010000
00001000
00000000
00000010
00000000
00000001
00000000
,
00000100
00000000
00000010
00001000
00000001
00000000
00001001
00000000
00000000
00000000
00010010
00000000
00000000
00000000
00022000
00000000
,
00000000
00000000
00000000
00033000
,
01001000
00000000
01000000
00010000
01000000
00100000
10000000
01000000
,
00000000
11000000
00000000
00000000
00110000
00000000
00011000
00000000
,
00010100
00000000
00000100
00001000
00000100
00000010
00000001
00000100
,
00000000
00000000
00000101
00000000
00000000
00000000
00001001
00000000
00001001
00000000
00000000
00001100
00000000
00000000
00011000
00000000
,
00101000
00000000
00000000
00000000
00100000
00000000
00010000
00100000
01000000
00100000
00010000
00000000
10000000
00100000
01000000
00100000
,
10000000
00000000
00010000
00100000
01000000
00100000
00010000
00000000
10000000
00010000
01000000
00000000
00001000
00000000
00010000
00000000
,
00010010
00000000
00010000
00000010
00001000
00000000
00001010
00000000
00001000
00000001
00000010
00000000
00000011
00000000
00000011
00000000
,
00000000
00000000
00001001
00000000
00001000
00000010
00000100
00000000
00000001
00001000
00000100
00000000
00010000
00000000
00001000
00000000
,
01001000
00000000
00000000
00000000
01000000
00000000
00010000
01000000
00100000
10000000
00010000
00000000
10000000
01000000
00100000
00010000
,
10000000
00000000
00010000
01000000
00100000
10000000
00010000
00000000
10000000
00000000
01000000
00000000
00010000
00000000
00001000
00000000
,
00010100
00000000
00000000
00000000
00000100
00000000
00001000
00000100
00000010
00000001
00001000
00000000
00000001
00000100
00000010
00001000
,
00000001
00000000
00001000
00000100
00000010
00000001
00001000
00000000
00000001
00000000
00000100
00000000
00001000
00000000
00010000
00000000
,
00101000
00000000
00000000
00000000
00100000
00000000
00010000
00100000
01000000
10000000
00010000
00000000
10000000
00100000
01000000
00010000
,
10000000
00000000
00010000
00100000
01000000
10000000
00010000
00000000
10000000
00000000
00100000
00000000
00010000
00000000
00001000
00000000
,
00010010
00000000
00010000
00000010
00001000
00000000
00001010
00000000
00001000
00000001
00000010
00000000
00000011
00000000
00000011
00000000
,
00000000
00000000
00001001
00000000
00001000
00000010
00000100
00000001
00001000
00000010
00000100
00000001
00000020
00000000
00000000
00000000
,
00000032
00000000
00000000
00000000
00000000
00000000
00000000
00000023
,
00000000
00000000
00000230
00000000
,
00020300
00000000
00000000
00000000
00000000
00000000
00000000
00032000
,
00000000
00000000
02003000
00000000
,
03020000
00000000
00000000
00000000
00000000
00000000
00030000
20000000
,
00000000
00000000
00000000
00000000
30020000
00000000
00000000
10030000
,
00000000
10000000
10000000
10000000
10000000
01000000
00000000
00200000
,
00000000
00310000
02000000
00000000
03100000
10000000
00010000
10000000
,
01000000
10000000
01000000
10000000
00010000
00100000
00010000
00100000
,
00001000
00100000
00001000
00100000
00001000
00010000
00001000
00010000
,
00000010
00010000
00000010
00010000
00000010
00001000
00000010
00001000
,
00000001
00000100
00000001
00000100
00000001
00001000
00000001
00001000
,
00000001
00000010
00000001
00000010
00000001
00000010
00000001
00000010
00000100
00001000
00000100
00001000
00000100
00001000
00000100
00001000
,
00000001
00000100
00000001
00000100
00000001
00000100
00000001
00000100
00000010
00000000
00010000
00000000
00000000
00000000
00022000
00000000
,
00000000
00000000
00000000
00000000
,
00000000
00000000
00000000
00033000
,
MMMMMMMM
00000000
MMMMMMMM
00000000
MMMMMMMM
00000000
MMMMMMMM
00000000
00010000
00001000
00010000
00000000
00000100
00010000
00001000
00000000
,
01000000
00001000
00010000
00000000
00001000
00000000
00011000
00000000
00001000
00100000
00010000
00100000
01000000
10000000
00010000
00000000
,
10000000
00000000
00010000
01000000
00000000
00100000
01000000
00000000
10000000
01000000
00100000
00000000
01000000
00001000
00010000
00000000
,
00000100
00010000
00001000
00000000
00010000
00000000
00011000
00000000
00010000
00000010
00001000
00000010
00000100
00000001
00001000
00000000
,
00000001
00000000
00001000
00000100
00000000
00000010
00000100
00000000
00000001
00000000
00000100
00000010
00000001
00000000
00001000
00000000
,
00000010
00010000
00001000
00000000
00010000
00000000
00011000
00000000
00001000
00100000
00010000
00100000
01000000
10000000
00010000
10000000
,
00100000
00000000
00100000
00000000
00000000
00000000
10100000
00000000
00000000
00000000
10000000
00100000
10000000
00010000
10000000
01000000
,
10000000
01000000
00100000
00000000
00001000
00000000
01000000
00000000
00001000
00000000
00010000
00000000
00000100
00000000
00010000
00000000
,
00001000
00000000
00100000
00000000
00010000
00000000
00100000
00000000
10000000
00100000
01000000
00000000
00100000
00001000
00010000
00000000
,
00000010
00010000
00001000
00000000
00010000
00000000
00011000
00000000
00010000
00000100
00001000
00000100
00000010
00000001
00001000
00000000
,
00000001
00000000
00001000
00000010
00000000
00000100
00000010
00000000
00000001
00000010
00000100
00000000
00000010
00010000
00001000
00000000
,
00100000
00001000
00010000
00000000
00001000
00000000
00011000
00000000
00001000
01000000
00010000
01000000
00100000
10000000
00010000
00000000
,
10000000
00000000
00010000
00100000
00000000
01000000
00100000
00000000
10000000
00000000
00100000
01000000
10000000
00000000
00010000
00000000
,
01000000
00001000
00010000
00000000
00001000
00000000
00011000
00000000
00010000
00000100
00001000
00000100
00000010
00000001
00001000
00000001
,
00000100
00000000
00000100
00000000
00000000
00000000
00000101
00000000
00000000
00000000
00000001
00000100
00000001
00001000
00000001
00000010
,
00000001
00000010
00000100
00000000
00010000
00000000
00000010
00000000
00010000
00000000
00001000
00000000
00200000
00000000
00000000
00000000
,
00310000
00000000
00100000
00000000
01000000
00000000
10000000
00000000
00100000
00000000
10000000
00100000
01000000
00000000
00010000
00000000
,
00001000
00000000
00000010
00000000
00000100
00000000
00000101
00000000
00000000
00000000
00000001
00000100
00000001
00000100
00000010
00001000
,
00000010
00001000
00000001
00000100
00000001
00000100
00000001
00000000
00000010
00000000
00000001
00000010
00000100
00000000
00001000
00000000
,
00010000
00000000
00100000
00000000
01000000
00000000
11000000
00000000
00000000
00000000
10000000
01000000
10000000
01000000
00100000
00010000
,
00100000
00010000
10000000
01000000
10000000
01000000
10000000
00000000
00100000
00000000
10000000
00100000
01000000
00000000
00010000
00000000
,
00001000
00000000
00000010
00000000
00000100
00000000
00000101
00000000
00000000
00000000
00000001
00000100
00000001
00000100
00000010
00001000
,
00000010
00001000
00000001
00000100
00000001
00000100
00000001
00000000
00000010
00000000
00000001
00000010
00000100
00000000
00001000
00000000
,
00010000
00100000
01000000
22000000
00000000
00000000
00000000
00000000
,
33000000
00000000
10010000
00000000
00011000
00001000
00010000
00000010
,
00000000
00000010
00000000
00001000
00000000
00001000
00000000
00000100
,
00000000
00000100
00001000
00020000
00000000
00000000
00000000
00000000
,
00000000
00000000
00000000
00000000
,
00000000
00000000
00030000
00000000
;
