#VERSION:0.83;
#TITLE:LIGHTNING THUNDERBOLT;
#SUBTITLE:;
#ARTIST:TAG;
#TITLETRANSLIT:;
#SUBTITLETRANSLIT:;
#ARTISTTRANSLIT:;
#GENRE:;
#CREDIT:;
#MUSIC:LIGHTNING THUNDERBOLT.ogg;
#BANNER:lightning thunderbolt-bn.png;
#BACKGROUND:b4u-bg.png;
#CDTITLE:;
#SAMPLESTART:89.806;
#SAMPLELENGTH:15.000;
#SELECTABLE:YES;
#OFFSET:0.000;
#BPMS:0.000=155.000;
#STOPS:;
#TIMESIGNATURES:0.000=4=4;
#BGCHANGES:;
#FGCHANGES:;

//--------------- dance-single - forcednature ----------------
#NOTEDATA:;
#STEPSTYPE:dance-single;
#DESCRIPTION:forcednature;
#DIFFICULTY:Beginner;
#METER:3;
#RADARVALUES:0,0,0,0,0;
#CREDIT:forcednature;
#NOTES:
0000
0000
0000
0000
,
0000
0000
0000
0000
,
0000
0000
0000
0000
,
0000
0000
0000
0000
,
0000
0000
0000
0000
,
1000
0000
0000
0000
,
0001
0000
0000
0000
,
0100
0000
0100
0000
,
0000
0000
0000
0000
,
0001
0000
0000
0000
,
0000
0000
0010
0000
,
0001
0000
0000
0000
,
0000
0000
1000
0000
,
0001
0000
0000
0000
,
0000
0000
0100
0000
,
0001
0000
0000
0000
,
1000
0000
0000
0000
,
1001
0000
0000
0000
,
0000
0000
0000
0000
,
0110
0000
0000
0000
,
0000
0000
0000
0000
,
1001
0000
0000
0000
,
0000
0000
0000
0000
,
0110
0000
0000
0000
,
0000
0000
0000
0000
,
1000
0000
0000
0000
,
0100
0000
0000
0000
,
0010
0000
0000
0000
,
0001
0000
0000
0000
,
0100
0000
0000
0000
,
0010
0000
0000
0000
,
0100
0000
0010
0000
,
0200
0000
0300
0000
,
0001
0000
0000
0000
,
1000
0000
0001
0000
,
1000
0000
0000
0000
,
0100
0000
1000
0000
,
0100
0000
0000
0000
,
0010
0000
0001
0000
,
0010
0000
0000
0000
,
0002
0000
0003
0000
,
1000
0000
0000
0000
,
0000
0000
0000
0000
,
0001
0000
0000
0000
,
0000
0000
0000
0000
,
0010
0000
0000
0000
,
0000
0000
0000
0000
,
0100
0000
0000
0000
,
0000
0000
0000
0000
,
2002
0000
3003
0000
,
1000
0000
0000
0000
,
0001
0000
0000
0000
,
1000
0000
0000
0000
,
0001
0000
0000
0000
,
1000
0000
0001
0000
,
1000
0000
0001
0000
,
1000
0001
1000
0001
,
0000
0000
0000
0000
,
1001
0000
0000
0000
,
1000
0000
0000
0000
,
0010
0000
0000
0000
,
0100
0000
0000
0000
,
0001
0000
0000
0000
,
1000
0000
0000
0000
,
0001
0000
0000
0000
,
0010
0000
0000
0000
,
0200
0000
0000
0000
,
0300
0000
0100
0000
,
2000
0000
0000
0000
,
3000
0000
1000
0000
,
0001
0000
0001
0000
,
0100
0000
0100
0000
,
0010
0000
1000
0000
,
0020
0000
0030
0000
,
1001
0000
0000
0000
;

//--------------- dance-single - forcednature ----------------
#NOTEDATA:;
#STEPSTYPE:dance-single;
#DESCRIPTION:forcednature;
#DIFFICULTY:Easy;
#METER:7;
#RADARVALUES:0,0,0,0,0;
#CREDIT:forcednature;
#NOTES:
0000
0000
0000
0000
,
0000
0000
0000
0000
,
0000
0000
0000
0000
,
0000
0000
0000
0000
,
0000
0000
0000
0000
,
1000
1000
0000
1000
,
0001
0001
0000
0001
,
0100
0100
0010
0010
,
0000
0000
0000
0000
,
1000
0100
1000
0100
,
0000
1000
0001
0010
,
0001
1000
0001
1000
,
0000
0010
0100
0001
,
1000
0100
1000
0100
,
0000
0010
0001
1000
,
0001
0100
0001
0100
,
0000
0010
1000
0001
,
2000
0000
0000
0000
,
3100
0000
0010
0000
,
0002
0000
0000
0000
,
0103
0000
0010
0000
,
0200
0000
0000
0000
,
0301
0000
1000
0000
,
0200
0000
0000
0000
,
0320
0000
0030
0000
,
0001
0000
0001
0000
,
0100
0000
0100
0000
,
0010
0000
0010
0000
,
1000
0000
1000
0000
,
0001
0001
0001
0000
,
0100
0100
0100
0000
,
0010
0010
0010
0010
,
2000
0000
3000
0000
,
0001
0010
0001
0010
,
0100
1000
0100
1000
,
0001
0010
0100
1000
,
0100
0010
0001
0000
,
1000
0010
1000
0010
,
0100
0001
0100
0001
,
1000
0010
0100
0001
,
0200
0000
0300
0000
,
0001
0000
0000
0000
,
1000
0000
0000
0000
,
0001
0000
0000
0000
,
0010
0000
0000
0000
,
0100
0000
0000
0000
,
1000
0000
0000
0000
,
0001
0000
0000
0000
,
0100
0000
0000
0000
,
2002
0000
3003
0000
,
1000
0000
1000
0000
,
0100
0000
0100
0000
,
0010
0000
0010
0000
,
0001
0000
0001
0000
,
2000
3000
0200
0300
,
0020
0030
0002
0003
,
0100
0100
0100
0100
,
0020
0000
0030
0000
,
1000
0001
1000
0001
,
0010
0100
0010
0100
,
1000
0001
0010
0100
,
1000
0100
0010
0000
,
0001
1000
0001
1000
,
0010
0100
0010
0100
,
0001
1000
0010
0100
,
0001
0100
0010
0000
,
2000
0000
0100
3100
,
0200
0000
0310
0001
,
0200
0000
0001
0301
,
0002
0000
0013
0100
,
1000
0000
0000
1000
0000
0000
1000
0000
,
0001
0000
0000
0001
0000
0000
0001
0000
,
1000
0100
0010
0001
,
0200
0000
0300
0000
,
1001
0000
0000
0000
;

//--------------- dance-single - forcednature ----------------
#NOTEDATA:;
#STEPSTYPE:dance-single;
#DESCRIPTION:forcednature;
#DIFFICULTY:Medium;
#METER:11;
#RADARVALUES:0,0,0,0,0;
#CREDIT:forcednature;
#NOTES:
0000
0000
0000
0000
,
0000
0000
0000
0000
,
0000
0000
0000
0000
,
0000
0000
0000
0000
,
0000
0000
0000
0000
,
1000
0000
1000
0000
1000
0000
1000
0100
,
0001
0000
0001
0000
0001
0000
0001
0100
,
1000
0100
1000
0100
0010
0001
0010
0001
,
0200
0000
0000
0300
,
0010
0000
0010
1000
0100
1000
0010
0000
,
0000
0010
1000
0100
,
0010
0000
0010
0001
0100
0001
0010
0000
,
0000
0010
0001
0100
,
0001
0000
0001
0010
1000
0010
0001
0000
,
0000
0001
0010
0100
,
1000
0000
1000
0010
0001
0010
1000
0000
,
0000
0000
1000
0000
0000
0001
0000
0000
0010
0000
0000
0100
0000
0000
1000
0000
,
0001
0000
0100
0001
0100
0001
1000
0010
,
1000
0010
0100
0001
1000
0000
0001
0000
,
1000
0000
0100
1000
0100
1000
0001
0010
,
0001
0010
0100
1000
0001
0000
1000
0000
,
1001
0000
0001
1000
0001
1000
0010
0100
,
0010
0100
0001
1000
0010
0100
0001
0000
,
1001
0000
1000
0001
1000
0001
0010
0100
,
0020
0000
0031
0001
0002
0000
0003
0000
,
1000
0000
1000
0100
0000
0100
0010
0000
,
0001
0000
0001
0100
0000
0100
0010
0000
,
1000
0000
1000
0001
0000
0001
0010
0000
,
0100
0000
0100
1000
0000
1000
0001
0000
,
0100
0000
0000
0100
0000
0000
0100
0000
0000
0001
0000
0000
0010
0000
0000
0000
,
0100
0000
0000
0100
0000
0000
0100
0000
0000
1000
0000
0000
0010
0000
0000
0000
,
1000
0000
0000
1000
0000
0000
1000
0000
0001
0000
0000
0001
0000
0000
0001
0000
,
0020
0000
0130
1000
0100
0010
0001
0000
,
1000
0000
0000
0010
0000
0000
0100
0000
0000
0010
0000
0000
1000
0000
0010
0000
,
0100
0000
0000
0001
0000
0000
1000
0000
0000
0001
0000
0000
0010
0000
0001
0000
,
1000
0000
0000
0100
0000
0000
0010
0000
0000
0100
0000
0000
1000
0000
0100
0000
,
0010
0000
0000
0001
0000
0000
1000
0000
0000
0001
0000
0000
0100
0000
0100
0000
,
0001
0000
0000
1000
0000
0000
0010
0000
0000
1000
0000
0000
0001
0000
0010
0000
,
0100
0000
0000
1000
0000
0000
0001
0000
0000
1000
0000
0000
0010
0000
0010
0000
,
0100
0000
0000
0001
0000
0000
1000
0000
0000
0001
0000
0000
0010
0000
0100
0000
,
0020
0000
0000
0000
0031
1000
0001
1000
,
0002
0000
0003
0200
0000
0300
0020
0000
,
0030
2000
0000
3000
0001
1000
0001
1000
,
0002
0000
0003
0020
0000
0030
0200
0000
,
0300
2000
0000
3000
0001
1000
0010
0100
,
0002
0000
0003
0200
0000
0300
0020
0000
,
0030
2000
0000
3000
0100
0010
0001
0010
,
0002
0000
0003
0200
0000
0300
0020
0000
,
0030
2000
0000
3000
0100
1000
0001
0000
,
2002
0000
3003
0000
,
1000
0000
0000
0100
0000
0000
1000
0000
0000
0100
0000
0000
1000
0000
0100
0000
,
1000
0000
0000
0001
0000
0000
1000
0000
0000
0001
0000
0000
1000
0000
0001
0000
,
0010
0000
0000
0001
0000
0000
0010
0000
0000
0001
0000
0000
0010
0000
0001
0000
,
0010
0000
0000
0100
0000
0000
0010
0000
0000
0100
0000
0000
0010
0000
0100
0000
,
1000
0000
0000
1000
0000
0000
0010
0000
0100
0000
0000
0100
0000
0000
0001
0000
,
0010
0000
0000
0010
0000
0000
0100
0000
1000
0000
0000
1000
0000
0000
0001
0000
,
0100
0010
0100
0010
1000
0001
1000
0001
,
0000
0000
0000
1001
,
1000
0000
0000
0100
0000
0000
0010
0000
0000
0100
0000
0000
1000
0000
0001
0000
,
0010
0000
0000
1000
0000
0000
0010
0000
0000
0001
0000
0000
1000
0000
0001
0000
,
0100
0000
0000
0010
0000
0000
1000
0000
0000
0010
0000
0000
0100
0000
0001
0000
,
1000
0000
0000
0100
0000
0000
0001
0000
0000
0100
0000
0000
1000
0000
1000
0000
,
0001
0000
0000
0010
0000
0000
0100
0000
0000
0010
0000
0000
0001
0000
1000
0000
,
0001
0000
0000
0100
0000
0000
1000
0000
0000
0100
0000
0000
0001
0000
1000
0000
,
0001
0000
0000
0010
0000
0000
0100
0000
0000
1000
0000
0000
0010
0000
0100
0000
,
0001
0000
0000
0001
0000
0000
0001
0000
1000
0000
0000
0010
0000
0000
1000
0000
,
0200
0000
0010
0000
1300
0100
0010
0002
,
1000
0000
0010
0000
1003
0001
0100
0010
,
2000
0000
0010
0000
3001
1000
0010
0200
,
0001
0000
0010
0000
0301
1000
0001
0000
,
1000
0000
0000
1100
0000
0000
0001
0000
0000
0011
0000
0000
1000
0000
0000
0000
,
0001
0000
0000
0101
0000
0000
1000
0000
0000
1010
0000
0000
0001
0000
0000
0000
,
1000
0100
1000
0100
0010
0001
0010
0001
,
2000
0000
0000
0000
3010
1000
0100
0000
,
1001
0000
0000
0000
;

//--------------- dance-single - Extraordiberry ----------------
#NOTEDATA:;
#STEPSTYPE:dance-single;
#DESCRIPTION:Extraordiberry;
#DIFFICULTY:Hard;
#METER:15;
#RADARVALUES:0,0,0,0,0;
#CREDIT:Extraordiberry;
#NOTES:
0000
0000
0000
0000
,
0000
0000
0000
0000
,
0000
0000
0000
0000
,
0000
0000
0000
0000
,
0000
0000
0000
0000
,
1000
0000
0000
0010
0000
0000
0100
0000
0000
0010
0000
0000
1000
0000
0100
0010
,
0001
0000
0000
0100
0000
0000
0010
0000
0000
0100
0000
0000
0001
0000
0010
0100
,
1000
0001
1000
0001
0100
0010
0100
0010
1000
0001
1000
0001
0010
0100
0010
0100
,
1000
0000
0000
0001
0000
0000
0000
0000
0110
0000
0000
0000
0000
0000
0000
0000
,
1000
0000
0000
0100
0000
0100
0000
0100
1000
0000
1000
0000
0000
0000
0000
0000
,
0000
0000
0100
0000
1000
0100
0000
0100
1000
0000
1000
0000
0010
0000
0010
0000
,
0100
0000
0000
0001
0000
0001
0000
0001
0100
0000
0100
0000
0000
0000
0000
0000
,
0000
0000
0001
0000
0100
0001
0000
0001
0100
0000
0100
0000
0001
0000
1000
0000
,
0100
0000
0000
0010
0000
0010
0000
0010
0100
0000
0100
0000
0000
0000
0000
0000
,
0000
0000
0010
0000
0100
0010
0000
0010
0100
0000
0100
0000
1000
0000
1000
0000
,
0010
0000
0000
0100
0000
0100
0000
0100
0010
0000
0010
0000
0000
0000
0000
0000
,
0000
0000
1010
0000
0000
0110
0000
0000
0101
0000
0000
1001
0000
0000
1100
0000
,
0110
0001
1000
0010
0100
0001
0010
1000
,
0001
0100
1000
0001
0100
0010
1000
1010
,
1001
0001
1000
0100
0010
0001
1000
0010
,
0001
1000
0100
0001
1000
0100
0010
0001
,
0011
0010
0001
1000
0010
0100
0001
0010
,
1000
0001
0100
1000
0001
0100
0010
0110
,
1010
1000
0100
0010
0001
1000
0010
0001
,
0000
0000
0000
0000
0000
0000
0010
0000
0100
0000
0010
0000
0100
0000
0000
0001
0000
0000
1000
0000
0000
0001
0000
0000
1000
0000
0000
0000
0000
0000
0000
0000
0000
1000
0000
0000
0000
0000
0000
0000
0000
0000
1000
0000
0000
0000
0000
0000
,
1001
0000
0000
0001
0000
0000
0010
0000
0000
0100
0000
0000
0010
0000
0001
0000
,
1000
0000
0000
0010
0000
0000
0100
0000
0000
0010
0000
0000
1000
0000
0001
0000
,
0010
0000
0000
0100
0000
0000
0001
0000
0000
0100
0000
0000
0010
0000
0001
0000
,
0100
0000
0000
0010
0000
0000
0001
0000
0000
0010
0000
0000
0100
0000
0001
0000
,
0101
0000
0000
0101
0000
0000
0110
0000
0000
0110
0000
0000
1010
0000
1000
0000
,
1100
0000
0000
1100
0000
0000
0110
0000
0000
0110
0000
0000
0011
0000
0001
0000
,
1000
0010
0100
0001
1000
0100
1000
0100
0010
0001
1000
0010
0100
0001
0100
0001
,
2000
0000
0000
0000
,
3001
0010
0000
0010
0100
0000
1000
0001
0000
0001
0100
0000
0010
0000
1000
0000
,
0100
0010
0000
0010
0001
0000
1000
0010
0000
0010
0100
0000
0001
0000
0010
0000
,
0100
1000
0000
1000
0001
0000
0100
0010
0000
0010
1000
0000
0100
0000
0010
0000
,
0011
0000
0000
0101
0000
0000
1100
0000
0000
1010
0000
0000
0010
1000
0001
0000
,
1000
0100
0000
0100
0010
0000
0001
1000
0000
1000
0010
0000
0100
0000
0001
0000
,
0010
0100
0000
0100
1000
0000
0001
0100
0000
0100
0010
0000
1000
0000
0100
0000
,
0010
0001
0000
0001
1000
0000
0010
0100
0000
0100
0001
0000
0010
0000
0100
0000
,
2100
0000
0000
0000
0000
0000
0000
0000
3001
0100
0001
0100
0010
1000
0010
1000
,
0001
0000
0000
0000
0010
0000
0100
1000
,
0000
1000
0001
0000
0100
0000
0000
0000
,
0001
0000
0000
0000
0010
0000
0100
1000
,
0000
1000
0001
0000
0100
0000
0000
0000
,
0001
0000
1000
0000
0100
0000
0010
0001
,
0000
0001
1000
0000
0010
0000
0100
0000
,
0001
1000
0001
0000
1000
0100
0010
0001
,
0000
0001
1000
0000
0010
0100
0001
1000
,
2002
0000
3003
0000
,
1000
0000
0000
0100
0000
0000
0001
0000
0000
1000
0000
0000
0010
0000
0010
0000
,
0001
0000
0000
0100
0000
0000
1000
0000
0000
0001
0000
0000
0010
0000
0010
0000
,
1000
0000
0000
0001
0000
0000
0010
0000
0000
1000
0000
0000
0001
0000
0001
0000
,
0100
0000
0000
1000
0000
0000
0010
0000
0000
0001
0000
0000
1000
0000
1000
0000
,
0110
0000
0000
0001
0000
0000
0001
0000
0110
0000
0000
1000
0000
0000
1000
0000
,
1100
0000
0000
0001
0000
0000
0001
0000
0011
0000
0000
1000
0000
0000
1000
0000
,
0010
0100
0001
1000
0100
0010
0100
0010
0001
1000
0010
0100
0001
1000
0001
1000
,
0100
0000
0000
1001
,
1000
0010
0000
0010
0100
0000
0001
1000
0000
1000
0100
0000
0010
0000
0001
0000
,
0100
0010
0000
0010
1000
0000
0001
0010
0000
0010
0100
0000
1000
0000
0010
0000
,
0100
0001
0000
0001
1000
0000
0100
0010
0000
0010
0001
0000
0100
0000
0010
0000
,
1010
0000
0000
1100
0000
0000
0101
0000
0000
0011
0000
0000
0010
0001
1000
0000
,
0010
0100
0000
0100
0001
0000
1000
0100
0000
0100
0010
0000
0001
0000
0100
0000
,
0010
1000
0000
1000
0001
0000
0010
0100
0000
0100
1000
0000
0010
0000
0100
0000
,
0001
0010
0000
0010
0100
0000
1000
0010
0000
0010
0100
0000
0001
0000
0010
0000
,
0110
0000
0000
1100
0000
0000
1000
0001
1001
0000
0000
0110
0000
0000
1001
0000
,
1000
0100
0000
0100
0010
0000
0001
0100
0000
0100
1000
0000
0100
0000
0001
0000
,
1000
0100
0000
0100
0001
0000
1000
0010
0000
0010
0001
0000
0100
0000
0010
0000
,
1000
0001
0000
0001
0010
0000
1000
0001
0000
0001
0100
0000
1000
0000
0010
0000
,
0100
0001
0000
0001
1000
0000
0100
0001
0000
0001
1000
0000
0010
0000
0001
0000
,
0101
0000
0000
0110
0000
0000
1100
0000
0000
1001
0000
0000
0011
0000
0010
0000
,
1010
0000
0000
1001
0000
0000
1100
0000
0000
0110
0000
0000
0011
0000
0001
0000
,
1000
0010
1000
0010
0100
0010
0100
0010
0001
0010
0001
0010
0001
1000
0001
1000
,
0200
0000
0000
0000
0000
0000
0000
0000
0301
1000
0001
1000
0001
0000
1000
0000
,
1001
0000
0000
0000
;

//--------------- dance-single - Extraordiberry ----------------
#NOTEDATA:;
#STEPSTYPE:dance-single;
#DESCRIPTION:Extraordiberry;
#DIFFICULTY:Challenge;
#METER:16;
#RADARVALUES:0,0,0,0,0;
#CREDIT:Extraordiberry;
#NOTES:
0000
0000
0000
0000
,
0000
0000
0000
0000
,
0000
0000
0000
0000
,
0000
0000
0000
0000
,
0000
0000
0000
0000
,
1000
0000
0000
0100
0000
0000
0010
0000
0000
0100
0000
0000
1000
0000
0100
1000
,
0001
0000
0000
0100
0000
0000
0010
0000
0000
0100
0000
0000
0001
0000
0100
0001
,
1000
0100
1000
0100
0010
0001
0010
0001
1000
0010
1000
0010
0100
0001
0100
0001
,
1000
0000
0000
0100
0000
0000
0000
0000
MMMM
0000
MMMM
0000
MMMM
0000
0000
0000
,
1001
0000
0000
0001
0000
0001
0000
0001
0100
0000
0100
0000
0000
0000
0000
0000
,
0000
0000
0001
0000
0001
0100
0000
0100
0010
0000
0010
0000
1000
0000
0100
0000
,
1100
0000
0000
1000
0000
1000
0000
1000
0100
0000
0100
0000
0000
0000
0000
0000
,
0000
0000
1000
0000
1000
0100
0000
0100
0010
0000
0010
0000
0100
0000
1000
0000
,
1100
0000
0000
0001
0000
0001
0000
0001
0100
0000
0100
0000
MMMM
0000
MMMM
0000
,
0000
0000
0100
0000
0100
0010
0000
0010
1000
0000
1000
0000
0100
0000
0100
0000
,
1100
0000
0000
1000
0000
1000
0000
1000
0100
0000
0100
0000
0000
0000
0000
0000
,
0000
0000
0000
0000
0000
0000
1000
0000
0001
0000
1000
0000
0001
0000
0000
0100
0000
0000
0000
0000
0000
0000
0000
0000
0010
0000
0000
0000
0000
0000
0000
0000
0000
1000
0000
0000
0000
0000
0000
0000
0000
0000
0001
0000
0000
0000
0000
0000
,
1001
1000
0100
0010
0001
1000
0010
0100
,
0001
0100
0001
0000
0100
0010
0100
0000
0010
1000
0010
0000
1000
0000
1010
0000
,
1001
0001
0010
0100
1000
0001
0100
0010
,
1000
0010
1000
0000
0010
0100
0010
0000
0100
0001
0100
0000
0001
0000
1000
0000
,
1100
0100
0010
0001
1000
0010
0001
0010
,
0100
0010
0100
0000
0001
0100
0001
0000
1000
0001
1000
0000
0100
0000
1100
0000
,
1001
0001
1000
0010
0100
0100
0100
0100
,
0000
0000
0000
0000
0000
0000
0001
0000
1000
0000
0001
0000
1000
0000
0000
0100
0000
0000
0010
0000
0000
0100
0000
0000
0010
0000
0000
0000
0000
0000
0000
0000
0000
0001
0000
0000
0000
0000
0000
0000
0000
0000
0001
0000
0000
0000
0000
0000
,
0101
0000
0000
0100
0000
0000
0010
0000
0000
0100
0000
0000
0001
0000
1000
0000
,
1100
0000
0000
0100
0000
0000
0010
0000
0000
0100
0000
0000
1000
0000
0001
0000
,
0101
0000
0000
0100
0000
0000
1000
0000
0000
0100
0000
0000
0001
0000
1000
0000
,
1100
0000
0000
0100
0000
0000
0001
0000
0000
0100
0000
0000
1000
0000
0001
0000
,
0101
0000
0000
0101
0000
0000
1010
0000
0000
1010
0000
0000
1001
0000
1000
0000
,
1100
0000
0000
1100
0000
0000
0011
0000
0000
0011
0000
0000
1001
0000
0001
0000
,
0100
0001
0100
0001
0100
0001
0100
0001
1000
0010
1000
0010
1000
0010
1000
0010
,
MMMM
MMMM
MMMM
MMMM
MMMM
0000
0000
0000
,
0001
0100
0000
0100
0010
0000
1000
0001
0000
0001
0010
0000
0100
0000
MMMM
0000
,
0100
1000
0000
1000
0001
0000
0100
0010
0000
0010
1000
0000
0001
1000
0001
0000
,
1000
0100
0000
0100
0010
0000
0001
1000
0000
1000
0010
0000
0100
0000
MMMM
0000
,
0100
0001
0000
0001
1000
0000
0100
0010
0000
0010
0001
0000
1000
0001
0100
0000
,
0010
1000
0000
1000
0001
0000
0010
0100
0000
0100
1000
0000
0001
0000
MMMM
0000
,
0010
0100
0000
0100
0001
0000
1000
0100
0000
0100
0010
0000
0001
1000
0010
0000
,
0100
0001
0000
0001
1000
0000
0100
0010
0000
0010
0001
0000
1000
0000
MMMM
0000
,
0020
0000
0000
0000
1000
0000
0000
0000
0031
1000
0001
1000
0001
1000
0001
1000
,
0100
0000
0000
0000
0010
0000
0001
1000
,
0000
1000
0001
0000
0200
0000
0010
0000
,
0301
0000
0000
0000
1000
0000
0100
0010
,
0000
0010
0001
0000
1000
0000
0001
0100
,
0010
0000
1000
0000
0001
0000
0010
0100
,
0000
0100
0001
0000
0100
0000
0010
0001
,
1000
0000
0001
0000
0100
0010
0001
0010
,
0000
0010
1000
0000
0001
0010
0100
1000
,
0020
0000
0000
0030
MMMM
MMMM
MMMM
0000
,
1100
0000
0000
0100
0000
0000
0110
0000
0000
0001
0000
0000
0011
0000
0001
0000
,
0101
0000
0000
0100
0000
0000
0110
0000
0000
1000
0000
0000
1010
0000
1000
0000
,
1100
0000
0000
0100
0000
0000
0101
0000
0000
0100
0000
0000
0011
0000
0001
0000
,
0101
0000
0000
0100
0000
0000
1100
0000
0000
0100
0000
0000
1010
0000
1000
0000
,
1100
0000
0000
0011
0000
0000
0001
0000
0101
0000
0000
1010
0000
0000
1000
0000
,
1100
0000
0000
0011
0000
0000
0001
0000
0101
0000
0000
1010
0000
0000
1000
0000
,
0100
0010
0100
0010
0001
1000
0001
1000
0010
0100
0010
0100
0001
1000
0001
1000
,
0200
0000
0000
0000
0000
0300
MMMM
0000
,
0001
0100
0000
0100
0010
0000
1000
0100
0000
0100
0010
0000
0001
0000
MMMM
0000
,
0010
0100
0000
0100
0001
0000
1000
0100
0000
0100
0010
0000
0001
1000
0010
0000
,
0100
0001
0000
0001
1000
0000
0100
0010
0000
0010
0001
0000
1000
0000
MMMM
0000
,
0010
0100
0000
0100
1000
0000
0001
0100
0000
0100
0010
0000
1000
0001
0010
0000
,
0100
1000
0000
1000
0010
0000
0100
0001
0000
0001
0010
0000
0100
0000
MMMM
0000
,
0001
0100
0000
0100
0010
0000
1000
0100
0000
0100
0010
0000
0001
1000
0010
0000
,
0100
0001
0000
0001
0010
0000
0100
1000
0000
1000
0010
0000
0100
0000
MMMM
0000
,
1000
0100
0000
0100
0010
0001
0010
0001
1000
0000
0000
0110
0000
0000
1001
0000
,
0001
0100
0000
0100
1000
0000
0100
0001
0000
0001
1000
0000
0100
0000
MMMM
0000
,
0001
0100
0000
0100
0010
0000
1000
0001
0000
0001
0010
0000
1000
0010
0100
0000
,
1000
0001
0000
0001
0100
0000
1000
0100
0000
0100
0001
0000
1000
0000
MMMM
0000
,
0010
0001
0000
0001
0100
0000
1000
0001
0000
0001
0010
0000
1000
0001
1000
0001
,
0010
0100
0000
0100
0001
0000
1000
0010
0000
0010
0001
0000
0100
0000
MMMM
0000
,
1000
0010
0000
0010
0001
0000
1000
0100
0000
0100
0001
0000
1000
0100
0010
0000
,
0001
1000
0001
1000
0001
1000
0001
1000
0010
0100
0010
0100
0010
0100
0010
0100
,
0002
0000
0000
0000
0000
0000
0000
0000
1003
0100
0010
0100
0001
0000
1000
0010
,
0001
0000
0000
0000
;

//--------------- dance-double - forcednature ----------------
#NOTEDATA:;
#STEPSTYPE:dance-double;
#DESCRIPTION:forcednature;
#DIFFICULTY:Easy;
#METER:7;
#RADARVALUES:0,0,0,0,0;
#CREDIT:forcednature;
#NOTES:
00000000
00000000
00000000
00000000
,
00000000
00000000
00000000
00000000
,
00000000
00000000
00000000
00000000
,
00000000
00000000
00000000
00000000
,
00000000
00000000
00000000
00000000
,
00001000
00001000
00000000
00001000
,
00010000
00010000
00000000
00010000
,
00001000
00010000
00001000
00010000
,
00000000
00000000
00000000
00000000
,
00000010
00001000
00000010
00001000
,
00000000
00000010
00000100
00000001
,
00001000
00000100
00001000
00000100
,
00000000
00010000
00001000
00100000
,
00010000
01000000
00010000
01000000
,
00000000
00100000
10000000
00010000
,
00100000
01000000
00100000
01000000
,
00000000
10000000
01000000
00010000
,
00002000
00000000
00000000
00000000
,
00013000
00000000
00001000
00000000
,
00000020
00000000
00000000
00000000
,
00000031
00000000
00000010
00000000
,
00000200
00000000
00000000
00000000
,
00001300
00000000
00000001
00000000
,
00000200
00000000
00000000
00000000
,
00001300
00000000
00010000
00000000
,
00011000
00000000
00000000
00000000
,
00001000
00000000
00001000
00000000
,
00010000
00000000
00010000
00000000
,
00100000
00000000
00100000
00000000
,
10000000
10000000
10000000
00000000
,
01000000
01000000
01000000
00000000
,
00100000
00001000
00100000
00001000
,
00020000
00000000
00030000
00000000
,
00000100
00001000
00000100
00001000
,
00000001
00000010
00000100
00001000
,
00000100
00010000
00001000
00100000
,
00010000
10000000
01000000
00000000
,
10000000
00100000
10000000
00100000
,
01000000
00010000
01000000
00001000
,
00010000
00000010
00001000
00000001
,
00000200
00000000
00000300
00000000
,
00000001
00000000
00000000
00000000
,
00000100
00000000
00000000
00000000
,
00001000
00000000
00000000
00000000
,
00010000
00000000
00000000
00000000
,
00001000
00000000
00000000
00000000
,
00010000
00000000
00000000
00000000
,
00100000
00000000
00000000
00000000
,
10000000
00000000
00000000
00000000
,
20020000
00000000
30030000
00000000
,
10000000
00000000
10000000
00000000
,
01000000
00000000
01000000
00000000
,
00100000
00000000
00100000
00000000
,
00010000
00000000
00010000
00000000
,
00001000
00000000
00001000
00000000
,
00000100
00000000
00000100
00000000
,
00000010
00000001
00000010
00000001
,
00000200
00000000
00000300
00000000
,
00000010
00001000
00000010
00001000
,
00000001
00000100
00000010
00001000
,
00000100
00010000
00000100
00010000
,
00001000
00100000
00010000
00000000
,
10000000
01000000
10000000
01000000
,
00100000
00010000
00100000
00010000
,
10000000
00100000
01000000
00001000
,
00010000
00000010
00010000
00000000
,
00002000
00000000
00010000
00013000
,
00020000
00000000
00031000
00010000
,
00200000
00000000
10000000
10300000
,
20000000
00000000
31000000
00100000
,
00010000
00000000
00000000
00010000
00000000
00000000
00010000
00000000
,
10000000
00000000
00000000
10000000
00000000
00000000
10000000
00000000
,
01000000
00010000
00001000
00000000
,
00022000
00000000
00033000
00000000
,
00011000
00000000
00000000
00000000
;

//--------------- dance-double - forcednature ----------------
#NOTEDATA:;
#STEPSTYPE:dance-double;
#DESCRIPTION:forcednature;
#DIFFICULTY:Medium;
#METER:11;
#RADARVALUES:0,0,0,0,0;
#CREDIT:forcednature;
#NOTES:
00000000
00000000
00000000
00000000
,
00000000
00000000
00000000
00000000
,
00000000
00000000
00000000
00000000
,
00000000
00000000
00000000
00000000
,
00000000
00000000
00000000
00000000
,
00001000
00000000
00010000
00000000
00100000
00000000
00010000
00001000
,
00010000
00000000
00001000
00000000
00000010
00000000
00001000
00010000
,
00001000
00010000
00001000
00010000
01000000
00010000
01000000
00010000
,
02000000
00000000
00000000
03000000
,
10000000
00000000
10000000
01000000
00100000
01000000
10000000
00000000
,
00000000
10000000
01000000
00010000
,
00001000
00000000
00001000
00100000
00001000
00010000
00001000
00000000
,
00000000
00001000
00000010
00000001
,
00000100
00000000
00000100
00000001
00000100
00000010
00000100
00000000
,
00000000
00000100
00001000
00010000
,
00100000
00000000
00100000
10000000
00100000
01000000
00010000
00000000
,
00000000
00000000
10000000
00000000
00000000
00010000
00000000
00000000
00100000
00000000
00000000
01000000
00000000
00000000
10000000
00000000
,
01000000
00010000
00001000
00000100
,
00001000
00000000
00010000
00001000
00010000
00001000
00010000
00000000
,
00011000
00001000
00000010
00001000
,
00010000
00000000
00001000
00010000
00001000
00010000
00001000
00000000
,
00011000
00010000
00100000
10000000
,
01000000
00000000
00100000
01000000
00100000
01000000
00100000
00000000
,
01100000
00000000
01000000
00000000
00010000
00010000
00001000
00001000
,
00000000
00000010
00000100
00000010
00000002
00000000
00000000
00000000
,
00001003
00000000
00001000
00000001
00000000
00000001
00000100
00000000
,
00001000
00000000
00010000
00001000
00000000
00001000
00100000
00000000
,
00010000
00000000
00010000
10000000
00000000
10000000
01000000
00000000
,
00010000
00000000
00001000
00010000
00000000
00010000
00000010
00000000
,
00001010
00000000
00000000
00001000
00000000
00000000
00000100
00000000
00000000
00000010
00000000
00000000
00000001
00000000
00000000
00000000
,
00000011
00000000
00000000
00000010
00000000
00000000
00000100
00000000
00000000
00010000
00000000
00000000
00001000
00000000
00000000
00000000
,
01000000
00000000
00000000
01000000
00000000
00000000
01000000
00000000
00010000
00000000
00000000
00100000
00000000
00000000
01000000
00000000
,
20000000
00000000
00000000
00000000
30000000
00000000
01000000
00000000
00000000
00010000
00000000
00000000
00001000
00000000
00001000
00000000
,
00100000
00000000
00000000
00001000
00000000
00000000
00010000
00000000
00000000
00001000
00000000
00000000
01000000
00000000
00001000
00000000
,
00010000
00000000
00000000
00100000
00000000
00000000
00010000
00000000
00000000
00001000
00000000
00000000
00010000
00000000
00000000
00000000
,
00000010
00000000
00000000
00010000
00000000
00000000
00001000
00000000
00000000
00010000
00000000
00000000
00000100
00000000
00010000
00000000
,
00001000
00000000
00000000
00000010
00000000
00000000
00001000
00000000
00000000
00010000
00000000
00000000
00001000
00000000
00000000
00000000
,
00000010
00000000
00000000
00000100
00000000
00000000
00000010
00000000
00000000
00000001
00000000
00000000
00000100
00000000
00000010
00000000
,
00000100
00000000
00000000
00000001
00000000
00000000
00000100
00000000
00000000
00001000
00000000
00000000
00010000
00000000
00000000
00000000
,
00100000
00000000
00000000
01000000
00000000
00000000
00100000
00000000
00000000
10000000
00000000
00000000
01000000
00000000
00010000
00000000
,
02000000
00000000
00000000
00000000
13000000
00010000
10000000
00010000
,
20000000
00000000
30000000
02000000
00000000
03000000
00020000
00000000
,
00030000
00002000
00000000
00003000
00000010
00000100
00000110
00000000
,
00000002
00000000
00000003
00000200
00000000
00000300
00002000
00000000
,
00003000
00020000
00000000
00030000
00100000
01000000
01100000
00000000
,
20000000
00000000
30000000
00200000
00000000
00300000
00020000
00000000
,
00030000
00002000
00000000
00003000
00000010
00000100
00001001
00000000
,
00000002
00000000
00000003
00000020
00000000
00000030
00002000
00000000
,
00003000
00020000
00000000
00030000
00100000
00000000
01000000
00000000
,
20020000
00000000
30030000
00000000
,
10000000
00000000
00000000
01000000
00000000
00000000
10000000
00000000
00000000
01000000
00000000
00000000
10000000
00000000
01000000
00000000
,
00100000
00000000
00000000
00010000
00000000
00000000
00100000
00000000
00000000
00010000
00000000
00000000
00100000
00000000
00010000
00000000
,
00001000
00000000
00000000
00000100
00000000
00000000
00001000
00000000
00000000
00000100
00000000
00000000
00001000
00000000
00000100
00000000
,
00000010
00000000
00000000
00000001
00000000
00000000
00000010
00000000
00000000
00000001
00000000
00000000
00000010
00000000
00000001
00000000
,
00001000
00000000
00000000
00001000
00000000
00000000
00000010
00000000
00000100
00000000
00000000
00000100
00000000
00000000
00000001
00000000
,
00000010
00000000
00000000
00000010
00000000
00000000
00000100
00000000
00010000
00000000
00000000
00010000
00000000
00000000
00001000
00000000
,
00100000
00010000
10000000
00010000
01000000
00010000
10000000
00010000
,
00000000
00200000
00000000
00320000
00000000
00031000
00000100
00000000
,
00000110
00000000
00000000
00000010
00000000
00000000
00000001
00000000
00000000
00000100
00000000
00000000
00000001
00000000
00000010
00000000
,
00000100
00000000
00000000
00010000
00000000
00000000
00001000
00000000
00000000
00000100
00000000
00000000
00001000
00000000
00010000
00000000
,
00100000
00000000
00000000
01000000
00000000
00000000
00100000
00000000
00000000
10000000
00000000
00000000
01000000
00000000
00100000
00000000
,
00001000
00000000
00000000
00010000
00000000
00000000
00001000
00000000
00000000
01000000
00000000
00000000
00010000
00000000
00010000
00000000
,
10000000
00000000
00000000
01000000
00000000
00000000
00010000
00000000
00000000
00001000
00000000
00000000
00010000
00000000
00001000
00000000
,
00000010
00000000
00000000
00000001
00000000
00000000
00000010
00000000
00000000
00000100
00000000
00000000
00001000
00000000
00001000
00000000
,
00000001
00000000
00000000
00000100
00000000
00000000
00001000
00000000
00000000
00010000
00000000
00000000
00100000
00000000
10000000
00000000
,
00100000
00000000
00000000
01000000
00000000
00000000
00010000
00000000
00100000
00000000
00000000
01000000
00000000
00000000
10000000
00000000
,
02000000
00000000
03100000
01000000
00000000
01000000
10000000
01000000
,
00020000
00000000
00031000
00010000
00000000
00010000
00001000
00000010
,
00000200
00000000
00001300
00000100
00000000
00000100
00000010
00000001
,
00000200
00000000
00000310
00000100
00000000
00000100
00001000
00000000
,
00012000
00000000
00000000
00100000
00000000
00000000
00103000
00000000
00000000
00001000
00000000
00000000
01000000
00000000
00000000
00000000
,
00021000
00000000
00000000
00000010
00000000
00000000
00030010
00000000
00000000
00010000
00000000
00000000
00000100
00000000
00000000
00000000
,
00010000
00001000
00100000
00010000
10000000
01000000
00100000
00010000
,
02000000
00000000
00000000
00000000
03001000
00010000
00001000
00010000
,
00011000
00000000
00000000
00000000
;

//--------------- dance-double - Extraordiberry ----------------
#NOTEDATA:;
#STEPSTYPE:dance-double;
#DESCRIPTION:Extraordiberry;
#DIFFICULTY:Hard;
#METER:15;
#RADARVALUES:0,0,0,0,0;
#CREDIT:Extraordiberry;
#NOTES:
00000000
00000000
00000000
00000000
,
00000000
00000000
00000000
00000000
,
00000000
00000000
00000000
00000000
,
00000000
00000000
00000000
00000000
,
00000000
00000000
00000000
00000000
,
10000000
00000000
00000000
01000000
00000000
00000000
00100000
00000000
00000000
00001000
00000000
00000000
00010000
00000000
00001000
00010000
,
00001000
00000000
00000000
00010000
00000000
00000000
00000100
00000000
00000000
00001000
00000000
00000000
00000001
00000000
00001000
00000010
,
00000100
00000001
00000100
00000001
00001000
00000100
00001000
00000100
00010000
00001000
00010000
00001000
01000000
00010000
01000000
00010000
,
10000000
00000000
00000000
00010000
00000000
00000000
00000000
00000000
10010000
00000000
00000000
00000000
00000000
00000000
00000000
00000000
,
10000000
00000000
00000000
01000000
00000000
01000000
00000000
01000000
00100000
00000000
00100000
00000000
00000000
00000000
00000000
00000000
,
00000000
00000000
01000000
00000000
00100000
01000000
00000000
01000000
00100000
00000000
00100000
00000000
00010000
00000000
00001000
00000000
,
00000100
00000000
00000000
00000010
00000000
00000010
00000000
00000010
00000100
00000000
00000100
00000000
00000000
00000000
00000000
00000000
,
00000000
00000000
00000010
00000000
00000100
00000010
00000000
00000010
00000100
00000000
00000100
00000000
00001000
00000000
00000001
00000000
,
00000100
00000000
00000000
00001000
00000000
00001000
00000000
00001000
00010000
00000000
00010000
00000000
00000000
00000000
00000000
00000000
,
00000000
00000000
00001000
00000000
00010000
00001000
00000000
00001000
00010000
00000000
00010000
00000000
01000000
00000000
10000000
00000000
,
00010000
00000000
00000000
10000000
00000000
10000000
00000000
10000000
00010000
00000000
00010000
00000000
00000000
00000000
00000000
00000000
,
00000000
00000000
01010000
00000000
00000000
01001000
00000000
00000000
00011000
00000000
00000000
00010100
00000000
00000000
00001100
00000000
,
00000110
00000100
00001000
00000001
00000100
00001000
00010000
00001000
,
00000010
00000001
00001000
00000010
00010000
00001000
01000000
01010000
,
10010000
10000000
01000000
10000000
00100000
00010000
00001000
00010000
,
01000000
10000000
00010000
01000000
00001000
00010000
00000010
00001000
,
00001010
00001000
00000100
00000010
00000001
00000100
00001000
00010000
,
01000000
10000000
00010000
01000000
00100000
10000000
00010000
00110000
,
10010000
10000000
00100000
00010000
00001000
00000100
00000001
00001000
,
00000000
00000000
00000000
00000000
00000000
00000000
00000100
00000000
00000010
00000000
00000100
00000000
00000010
00000000
00000000
00000001
00000000
00000000
00001000
00000000
00000000
00000001
00000000
00000000
00001000
00000000
00000000
00000000
00000000
00000000
00000000
00000000
00000000
00000001
00000000
00000000
00000000
00000000
00000000
00000000
00000000
00000000
00001000
00000000
00000000
00000000
00000000
00000000
,
00001001
00000000
00000000
00000001
00000000
00000000
00000100
00000000
00000000
00001000
00000000
00000000
00010000
00000000
00010000
00000000
,
00001000
00000000
00000000
00010000
00000000
00000000
01000000
00000000
00000000
10000000
00000000
00000000
00010000
00000000
00010000
00000000
,
10000000
00000000
00000000
00100000
00000000
00000000
00010000
00000000
00000000
00001000
00000000
00000000
00010000
00000000
00010000
00000000
,
00001000
00000000
00000000
00000010
00000000
00000000
00000001
00000000
00000000
00001000
00000000
00000000
00000001
00000000
00000001
00000000
,
00000101
00000000
00000000
00000101
00000000
00000000
00001010
00000000
00000000
00001010
00000000
00000000
00011000
00000000
00000000
00000000
,
01010000
00000000
00000000
01010000
00000000
00000000
10100000
00000000
00000000
10100000
00000000
00000000
10010000
00000000
00000000
00000000
,
00010000
00100000
01000000
10000000
00010000
01000000
00010000
01000000
00100000
10000000
00010000
00100000
00001000
00010000
00001000
00010000
,
00000200
00000000
00000000
00000000
,
00001300
00000001
00000000
00000001
00000100
00000000
00000010
00001000
00000000
00001000
00000001
00000000
00000010
00000000
00001000
00000000
,
00010000
00001000
00000000
00001000
00010000
00000000
00001000
01000000
00000000
01000000
00010000
00000000
10000000
00000000
01000000
00000000
,
00100000
00010000
00000000
00010000
10000000
00000000
00100000
01000000
00000000
01000000
00010000
00000000
10000000
00000000
01000000
00000000
,
01100000
00000000
00000000
00110000
00000000
00000000
00011000
00000000
00000000
00001100
00000000
00000000
00001000
00000001
00000100
00000000
,
00000001
00000100
00000000
00000100
00000010
00000000
00001000
00000001
00000000
00000001
00000010
00000000
00001000
00000000
00010000
00000000
,
00001000
01000000
00000000
01000000
00010000
00000000
10000000
01000000
00000000
01000000
00100000
00000000
00010000
00000000
10000000
00000000
,
00100000
00010000
00000000
00010000
00001000
00000000
00000100
00000001
00000000
00000001
00001000
00000000
00000100
00000000
00000010
00000000
,
00002000
00000000
00000000
00000000
00000000
00000000
00000000
00000000
00013000
00001000
00010000
00001000
01000000
00010000
01000000
00010000
,
10000000
00000000
00000000
00000000
01000000
00000000
00010000
00001000
,
00000000
00001000
00010000
00000000
00000100
00000000
00000010
00000000
,
00000001
00000000
00000000
00000000
00000100
00000000
00001000
00010000
,
00000000
00010000
00001000
00000000
01000000
00000000
00100000
00000000
,
10000000
00000000
01000000
00000000
00100000
00000000
00001000
00010000
,
00000000
00010000
00001000
00000000
00000010
00000000
00000001
00001000
,
00000001
00000000
00000100
00000000
00001000
00010000
00001000
01000000
,
00000000
01000000
00010000
00000000
10000000
01000000
00100000
00010000
,
20020000
00000000
30030000
00000000
,
10000000
00000000
00000000
01000000
00000000
00000000
00010000
00000000
00000000
00001000
00000000
00000000
00000010
00000000
00000010
00000000
,
00000001
00000000
00000000
00000100
00000000
00000000
00001000
00000000
00000000
00010000
00000000
00000000
00100000
00000000
00100000
00000000
,
10000000
00000000
00000000
01000000
00000000
00000000
00001000
00000000
00000000
00010000
00000000
00000000
00000010
00000000
00000010
00000000
,
00000001
00000000
00000000
00000100
00000000
00000000
00010000
00000000
00000000
00001000
00000000
00000000
00100000
00000000
00100000
00000000
,
01100000
00000000
00000000
10000000
00000000
00000000
00010000
00000000
01100000
00000000
00000000
00010000
00000000
00000000
00001000
00000000
,
00000110
00000000
00000000
00001000
00000000
00000000
00010000
00000000
01100000
00000000
00000000
10000000
00000000
00000000
00010000
00000000
,
00100000
01000000
10000000
00010000
01000000
00100000
01000000
00100000
10000000
00010000
00100000
01000000
00010000
00001000
00010000
00001000
,
01000000
00000000
00000000
10010000
,
10000000
01000000
00000000
01000000
00100000
00000000
00010000
10000000
00000000
10000000
00100000
00000000
00010000
00000000
00001000
00000000
,
00010000
00000100
00000000
00000100
00001000
00000000
00000001
00000100
00000000
00000100
00000010
00000000
00001000
00000000
00000100
00000000
,
00000010
00000001
00000000
00000001
00001000
00000000
00000010
00000100
00000000
00000100
00001000
00000000
00010000
00000000
00100000
00000000
,
10100000
00000000
00000000
11000000
00000000
00000000
01010000
00000000
00000000
00011000
00000000
00000000
00010000
00001000
00010000
00000000
,
00000100
00001000
00000000
00001000
00000001
00000000
00000100
00001000
00000000
00001000
00010000
00000000
00001000
00000000
00100000
00000000
,
00010000
10000000
00000000
10000000
00100000
00000000
01000000
00010000
00000000
00010000
10000000
00000000
01000000
00000000
00010000
00000000
,
00001000
00010000
00000000
00010000
00001000
00000000
00000010
00000001
00000000
00000001
00001000
00000000
00000010
00000000
00000100
00000000
,
00000110
00000000
00000000
00011000
00000000
00000000
00010000
00000000
01100000
00000000
00000000
10100000
00000000
00000000
10010000
00000000
,
10000000
01000000
00000000
01000000
00010000
00000000
00001000
00000010
00000000
00000010
00000001
00000000
00001000
00000000
00000010
00000000
,
00000100
00001000
00000000
00001000
00010000
00000000
00001000
00000010
00000000
00000010
00000001
00000000
00000100
00000010
00001000
00000000
,
00000001
00000010
00000000
00000010
00001000
00000000
00010000
01000000
00000000
01000000
10000000
00000000
00010000
00000000
01000000
00000000
,
00100000
00010000
00000000
00010000
00001000
00000000
00100000
00010000
00000000
00010000
00001000
00000000
00000100
00000010
00000001
00000000
,
00000011
00000000
00000000
00000101
00000000
00000000
00001010
00000000
00000000
00001100
00000000
00000000
00011000
00000000
00010000
00000000
,
01100000
00000000
00000000
10010000
00000000
00000000
01100000
00000000
00000000
10010000
00000000
00000000
11000000
00000000
10000000
00000000
,
00010000
01000000
00010000
01000000
00001000
00010000
00001000
00010000
00000100
00001000
00000100
00001000
00000001
00000100
00000001
00000100
,
00002000
00000000
00000000
00000000
00000000
00000000
00000000
00000000
00013000
00001000
00010000
00001000
00010000
00000000
00001000
00000000
,
00011000
00000000
00000000
00000000
;

//--------------- dance-double - Extraordiberry ----------------
#NOTEDATA:;
#STEPSTYPE:dance-double;
#DESCRIPTION:Extraordiberry;
#DIFFICULTY:Challenge;
#METER:16;
#RADARVALUES:0,0,0,0,0;
#CREDIT:Extraordiberry;
#NOTES:
00000000
00000000
00000000
00000000
,
00000000
00000000
00000000
00000000
,
00000000
00000000
00000000
00000000
,
00000000
00000000
00000000
00000000
,
00000000
00000000
00000000
00000000
,
10000000
00000000
00000000
01000000
00000000
00000000
00100000
00000000
00000000
01000000
00000000
00000000
00010000
00000000
00001000
00010000
,
00001000
00000000
00000000
00000010
00000000
00000000
00000100
00000000
00000000
00000010
00000000
00000000
00000001
00000000
00001000
00000001
,
00000100
00000010
00000100
00000010
00010000
00001000
00010000
00001000
01000000
00010000
01000000
00010000
10000000
01000000
10000000
01000000
,
00100000
00000000
00000000
00001000
00000000
00000000
00000000
00000000
MMMMMMMM
00000000
MMMMMMMM
00000000
MMMMMMMM
00000000
00000000
00000000
,
00011000
00000000
00000000
00010000
00000000
00010000
00000000
00010000
00000010
00000000
00000010
00000000
00000000
00000000
00000000
00000000
,
00000000
00000000
00010000
00000000
00010000
00000010
00000000
00000010
00001000
00000000
00001000
00000000
00000001
00000000
00000001
00000000
,
00000011
00000000
00000000
00000010
00000000
00000010
00000000
00000010
00000100
00000000
00000100
00000000
00000000
00000000
00000000
00000000
,
00000000
00000000
00000010
00000000
00000010
00000100
00000000
00000100
00010000
00000000
00010000
00000000
00001000
00000000
00001000
00000000
,
00011000
00000000
00000000
00010000
00000000
00010000
00000000
00010000
00100000
00000000
00100000
00000000
MMMMMMMM
00000000
MMMMMMMM
00000000
,
00000000
00000000
00100000
00000000
00100000
10000000
00000000
10000000
00010000
00000000
00010000
00000000
00100000
00000000
00100000
00000000
,
00110000
00000000
00000000
00010000
00000000
00010000
00000000
00010000
00100000
00000000
00100000
00000000
00000000
00000000
00000000
00000000
,
00000000
00000000
00000000
00000000
00000000
00000000
00001000
00000000
00010000
00000000
00001000
00000000
00010000
00000000
00000000
00000100
00000000
00000000
00000000
00000000
00000000
00000000
00000000
00000000
00001000
00000000
00000000
00000000
00000000
00000000
00000000
00000000
00000000
00000001
00000000
00000000
00000000
00000000
00000000
00000000
00000000
00000000
00000100
00000000
00000000
00000000
00000000
00000000
,
00000101
00000001
00000100
00001000
00010000
00100000
10000000
00010000
,
00100000
01000000
00010000
00001000
00010000
00100000
10000000
10100000
,
10010000
00010000
10000000
01000000
00010000
00001000
00000010
00000001
,
00000100
00001000
00010000
00001000
00000010
00000001
00001000
00000010
,
00001010
00001000
00000001
00000010
00001000
00010000
00000010
00001000
,
00010000
01000000
00001000
00010000
01000000
10000000
00010000
01010000
,
10010000
10000000
01000000
00010000
00001000
00001000
00001000
00001000
,
00000000
00000000
00000000
00000000
00000000
00000000
00010000
00000000
00001000
00000000
00010000
00000000
00001000
00000000
00000000
01000000
00000000
00000000
00010000
00000000
00000000
01000000
00000000
00000000
00010000
00000000
00000000
00000000
00000000
00000000
00000000
00000000
00000000
10000000
00000000
00000000
00000000
00000000
00000000
00000000
00000000
00000000
01000000
00000000
00000000
00000000
00000000
00000000
,
11000000
00000000
00000000
10000000
00000000
00000000
01000000
00000000
00000000
00010000
00000000
00000000
00001000
00000000
00010000
00000000
,
00011000
00000000
00000000
00001000
00000000
00000000
00000100
00000000
00000000
00000001
00000000
00000000
00001000
00000000
00000001
00000000
,
00000011
00000000
00000000
00000010
00000000
00000000
00001000
00000000
00000000
00010000
00000000
00000000
00100000
00000000
10000000
00000000
,
10100000
00000000
00000000
00010000
00000000
00000000
10000000
00000000
00000000
01000000
00000000
00000000
00010000
00000000
00001000
00000000
,
00011000
00000000
00000000
00001100
00000000
00000000
00000110
00000000
00000000
00000101
00000000
00000000
00001001
00000000
00000001
00000000
,
00000011
00000000
00000000
00000110
00000000
00000000
00001010
00000000
00000000
00011000
00000000
00000000
00011000
00000000
00001000
00000000
,
01000000
00010000
01000000
00010000
01000000
00010000
01000000
00010000
10000000
01000000
10000000
01000000
10000000
01000000
10000000
01000000
,
MMMMMMMM
MMMMMMMM
MMMMMMMM
MMMMMMMM
MMMMMMMM
MMMM0000
MMMM0000
MMMM0000
,
00000001
00000100
00000000
00000100
00000010
00000000
00001000
00000010
00000000
00000010
00010000
00000000
00001000
00000000
00010000
00000000
,
0010MMMM
10000000
00000000
10000000
0001MMMM
00000000
10000000
01000000
0000MMMM
01000000
00010000
00000000
00001000
00010000
00001000
00000000
,
MMMM0010
00000100
00000000
00000100
MMMM1000
00000000
00000001
00000100
MMMM0000
00000100
00000010
00000000
00010000
00000000
00001000
00000000
,
0100MMMM
00010000
00000000
00010000
0010MMMM
00000000
00001000
00010000
0000MMMM
00010000
00001000
00000000
00010000
00000100
00001000
00000000
,
MMMM0001
00000100
00000000
00000100
MMMM0010
00000000
00001000
00000010
MMMM0000
00000010
00001000
00000000
0001MMMM
00000000
01000000
00000000
,
0010MMMM
10000000
00000000
10000000
0001MMMM
00000000
00100000
01000000
0000MMMM
01000000
00010000
00000000
00001000
00010000
00001000
00000000
,
0001MMMM
00100000
00000000
00100000
0100MMMM
00000000
00001000
00100000
0000MMMM
00100000
00010000
00000000
MMMM1000
00000000
00000100
00000000
,
00020000
00000000
00000000
00000000
0010MMMM
00000000
0000MMMM
00000000
1003MMMM
01000000
1000MMMM
01000000
0010MMMM
01000000
00100000
01000000
,
00010000
00000000
00000000
00000000
10000000
00000000
01000000
00100000
,
00000000
00100000
00001000
00000000
00020000
00000000
00000010
00000000
,
00031000
00000000
00000000
00000000
00010000
00000000
00001000
00000010
,
00000000
00000010
00000001
00000000
00001000
00000000
00000010
00001000
,
00000010
00000000
00010000
00000000
00001000
00000000
01000000
00010000
,
00000000
00010000
10000000
00000000
00010000
00000000
00100000
00001000
,
00010000
00000000
00001000
00000000
00000010
00000000
00000001
00001000
,
00000000
00001000
00000010
00000000
00000100
00001000
00010000
00100000
,
20000000
00000000
00000000
30000000
MMMMMMMM
MMMMMMMM
MMMM0000
MMMM0000
,
00000001
00000000
00000000
00000010
00000000
00000000
00000100
00000000
00000000
00000010
00000000
00000000
00001000
00000000
00010000
00000000
,
00011000
00000000
00000000
00010000
00000000
00000000
00100000
00000000
00000000
01000000
00000000
00000000
00100000
00000000
10000000
00000000
,
10100000
00000000
00000000
10000000
00000000
00000000
01000000
00000000
00000000
00100000
00000000
00000000
01000000
00000000
00010000
00000000
,
00011000
00000000
00000000
00001000
00000000
00000000
00000100
00000000
00000000
00000010
00000000
00000000
00000100
00000000
00000001
00000000
,
00000101
00000000
00000000
00000011
00000000
00000000
00000010
00000000
00001010
00000000
00000000
00011000
00000000
00000000
00010000
00000000
,
00110000
00000000
00000000
10100000
00000000
00000000
10000000
00000000
11000000
00000000
00000000
01010000
00000000
00000000
00010000
00000000
,
00001000
00010000
00001000
00010000
00000010
00001000
00000010
00001000
00000001
00000010
00000001
00000010
00000100
00001000
00000100
00001000
,
00000001
MMMMMMMM
MMMMMMMM
MMMMMMMM
MMMMMMMM
0000MMMM
0000MMMM
0000MMMM
,
10000000
01000000
00000000
01000000
00100000
00000000
01000000
00010000
00000000
00010000
00001000
00000000
00010000
00000000
00001000
00000000
,
MMMM0010
00000001
00000000
00000001
MMMM1000
00000000
00000010
00000100
MMMM0000
00000100
00001000
00000000
00010000
00001000
00010000
00000000
,
0010MMMM
01000000
00000000
01000000
0001MMMM
00000000
10000000
00010000
0000MMMM
00010000
00100000
00000000
00001000
00000000
00010000
00000000
,
MMMM1000
00000010
00000000
00000010
MMMM0100
00000000
00010000
00001000
MMMM0000
00001000
00010000
00000000
MMMM0010
00001000
00000010
00000000
,
0001MMMM
00100000
00000000
00100000
1000MMMM
00000000
00010000
10000000
0000MMMM
10000000
01000000
00000000
0010MMMM
00000000
00010000
00000000
,
MMMM1000
00000100
00000000
00000100
MMMM0010
00000000
00000001
00001000
MMMM0000
00001000
00000010
00000000
00010000
00001000
00010000
00000000
,
0010MMMM
01000000
00000000
01000000
0001MMMM
00000000
00001000
00000010
MMMM0000
00000010
00000100
00000000
MMMM0001
00000000
00001000
00000000
,
MMMM0100
00000010
00000000
00000010
MMMM0001
00001000
00000001
00001000
00000010
00000000
MMMMMMMM
00000110
00000000
MMMMMMMM
00011000
00000000
,
00010000
00001000
MMMM0010
00010000
MMMM1000
00000100
0001MMMM
00001000
,
0001MMMM
00100000
0100MMMM
00010000
0010MMMM
01000000
0001MMMM
00001000
,
0100MMMM
00010000
MMMM1000
00000010
0001MMMM
00001000
MMMM0010
00000001
,
MMMM1000
00000010
0001MMMM
00100000
MMMM1000
00000010
0001MMMM
00100000
,
10100000
00000000
MMMMMMMM
11000000
00000000
MMMMMMMM
01100000
00000000
MMMMMMMM
01010000
00000000
00000000
00011000
00000000
00001000
00000000
,
00001100
00000000
MMMMMMMM
00000110
00000000
MMMMMMMM
00000101
00000000
MMMMMMMM
00001001
00000000
00000000
00001010
00000000
00001000
00000000
,
00000001
00000100
00000001
00000100
00000010
00001000
00000010
00001000
00010000
01000000
00010000
01000000
00100000
10000000
00100000
10000000
,
00020000
00000000
00000000
00000000
00000000
00000000
00000000
00000000
10030000
01000000
00100000
00010000
00100000
00000000
00001000
00010000
,
00001000
00000000
00000000
00000000
;
