#VERSION:0.83;
#TITLE:Kiwi;
#SUBTITLE:;
#ARTIST:BEMANI Sound Team "肥塚良彦";
#TITLETRANSLIT:;
#SUBTITLETRANSLIT:;
#ARTISTTRANSLIT:BEMANI Sound Team "Yoshihiko Koezuka";
#GENRE:;
#CREDIT:;
#MUSIC:Kiwi.ogg;
#BANNER:kiwi-bn.png;
#BACKGROUND:b4u-bg.png;
#CDTITLE:;
#SAMPLESTART:8.824;
#SAMPLELENGTH:15.000;
#SELECTABLE:YES;
#OFFSET:-0.001;
#BPMS:0.000=136.000;
#STOPS:;
#TIMESIGNATURES:0.000=4=4;
#BGCHANGES:;
#FGCHANGES:;

//--------------- dance-single - forcednature ----------------
#NOTEDATA:;
#STEPSTYPE:dance-single;
#DESCRIPTION:forcednature;
#DIFFICULTY:Beginner;
#METER:3;
#RADARVALUES:0,0,0,0,0;
#CREDIT:forcednature;
#NOTES:
0000
0000
0000
0000
,
0000
0000
0000
0000
,
0000
0000
0000
0000
,
0000
2002
0000
0000
,
3003
0000
0000
0000
,
1000
0000
0000
0000
,
0001
0000
0000
0000
,
0010
0000
0000
0000
,
0100
0000
1000
0000
,
0001
0000
0000
0000
,
1000
0000
0000
0000
,
0010
0000
0000
0000
,
0100
0000
0001
0000
,
1000
0000
0000
0000
,
0100
0000
0000
0000
,
0010
0000
0010
0000
,
0010
0000
0000
0000
,
0001
0000
0000
0000
,
0100
0000
0000
0000
,
0010
0000
0010
0000
,
0010
0000
0000
0000
,
2000
0000
0000
0000
,
3000
0000
0000
0000
,
0002
0000
0000
0000
,
0003
0000
0000
0000
,
0020
0000
0030
0000
,
1001
0000
0000
0000
,
1000
0000
0001
0000
,
1001
0000
0000
0000
,
1000
0000
0000
0000
,
0001
0000
0000
0000
,
0010
0000
0000
0000
,
0100
0000
1000
0000
,
0001
0000
0000
0000
,
1000
0000
0000
0000
,
0010
0000
0100
0000
,
0001
0000
0000
0000
,
1000
0000
0000
0000
,
0100
0000
0000
0000
,
1000
0000
0000
0000
,
0001
0000
0000
0000
,
0010
0000
0000
0000
,
0100
0000
0000
0000
,
1000
0000
0010
0000
,
0100
0000
0001
0000
,
2000
0000
0000
0000
,
3000
0000
0000
0000
,
0002
0000
0000
0000
,
0003
0000
0000
0000
,
0020
0000
0030
0000
,
0200
0000
0300
0000
,
1000
0000
0000
0000
,
0001
0000
0000
0000
,
0100
0000
0100
0000
,
0010
0000
0010
0000
,
1000
0000
0001
0000
,
1001
0000
0000
0000
,
0001
0000
0000
0000
,
0010
0000
0000
0000
,
0100
0000
0000
0000
,
1000
0000
0001
0000
,
1000
0000
0000
0000
,
0010
0000
0000
0000
,
0100
0000
0000
0000
,
0001
0000
1001
0000
,
1000
0000
0000
0000
,
0001
0000
1001
0000
,
0200
0000
0000
0000
,
0000
0000
0300
0000
;

//--------------- dance-single - forcednature ----------------
#NOTEDATA:;
#STEPSTYPE:dance-single;
#DESCRIPTION:forcednature;
#DIFFICULTY:Easy;
#METER:6;
#RADARVALUES:0,0,0,0,0;
#CREDIT:forcednature;
#NOTES:
0000
0000
0000
0000
,
0000
0000
0000
0000
,
0000
0000
0000
0000
0001
0000
0000
1000
,
0000
2002
0000
0000
,
3003
0000
0000
0000
,
1000
0000
0001
0000
,
0010
0000
0100
0000
,
1000
0000
0001
0000
,
0200
0300
0020
0030
,
1000
0000
0001
0000
,
1000
0000
0100
0000
,
0010
0001
0010
0100
,
1000
0001
1000
0000
,
0001
0001
0100
0000
,
0001
0001
1000
0000
,
0002
0003
2000
3000
,
0200
0300
1001
0000
,
1000
1000
0100
0000
,
1000
1000
0001
0000
,
2000
3000
0002
0003
,
0200
0300
1001
0000
,
1000
0100
0010
0001
,
0020
0030
0200
0300
,
1000
0001
1000
0010
,
0200
0000
0300
0000
,
0001
1000
0001
0010
,
0200
0000
0300
0000
,
1000
1000
0001
0001
,
1001
0000
0000
0000
,
0001
0000
1000
0000
,
0010
0000
0100
0000
,
0001
0000
1000
0000
,
0200
0300
0020
0030
,
0001
0000
1000
0000
,
0001
0000
0100
0000
,
0010
1000
0010
0100
,
0001
1000
0001
0000
,
1000
0000
1000
0100
,
0010
0000
0010
0001
,
1000
0000
1000
0010
,
0200
0300
0002
0003
,
1000
0001
1000
0000
,
0002
0003
0020
0030
,
0100
0100
1000
1000
,
0001
0000
1001
0000
,
1000
0010
0100
0001
,
2000
3000
0002
0003
,
1000
0100
0010
0001
,
0020
0000
0030
0000
,
0001
1000
0002
0003
,
0100
0010
0200
0300
,
0001
1000
0001
0010
,
0200
0300
1000
0001
,
0100
0100
0020
0030
,
1000
1000
0002
0003
,
1000
0100
0001
0100
,
2002
0000
3003
0000
,
0001
0000
1000
0000
,
0001
0000
0010
0000
,
0100
0000
1000
0000
,
0020
0030
1001
0000
,
1000
0000
0001
0000
,
1000
0000
0100
0000
,
0010
0001
0010
0100
,
1000
0001
1001
0000
,
0001
1000
0001
0100
,
0010
1000
1001
0000
,
0200
0000
0000
0000
,
0000
0000
0300
0000
;

//--------------- dance-single - forcednature ----------------
#NOTEDATA:;
#STEPSTYPE:dance-single;
#DESCRIPTION:forcednature;
#DIFFICULTY:Medium;
#METER:11;
#RADARVALUES:0,0,0,0,0;
#CREDIT:forcednature;
#NOTES:
0000
0000
0000
0000
,
0000
0000
0000
0000
,
0000
0000
0000
0000
0000
0000
0000
0000
0001
0000
0000
0100
0000
0000
1000
0000
,
0000
0100
0000
0000
0220
0000
0000
0000
0000
0000
0000
0000
0000
0000
0000
0000
,
0330
0000
0000
0000
1000
0001
0000
0000
,
2000
3200
0302
0203
,
1300
0100
0010
0000
0100
0010
0001
0000
,
1000
0000
0010
1000
0010
0100
0001
0000
,
0020
0030
2002
3003
,
0002
0203
2300
3200
,
0301
0100
0010
0000
0100
0010
1000
0001
,
1000
1010
0001
0011
,
1000
0100
0010
0001
0100
0100
0000
0000
,
0001
0000
1000
0000
0001
1000
0000
0002
0000
0000
0000
0003
0000
0000
0000
0000
,
1000
0000
0100
0000
1000
0100
0000
2000
0000
0000
0000
3000
0000
0000
0000
0000
,
0010
1010
0110
0101
,
0002
0003
2000
3000
,
0001
0000
0010
0000
0100
0010
0000
0110
0000
0000
0000
0000
0000
0000
0000
0000
,
1000
0000
0001
0000
0100
0001
0000
0101
0000
0000
0000
0000
1000
0000
0001
0000
,
1000
0000
0000
1000
0000
0000
0100
0000
0001
0000
0000
0001
0000
0000
0100
0000
,
0010
0000
0000
0010
0000
0000
0001
0000
2000
0000
0000
0000
0000
0000
3000
0000
,
0001
0100
0010
1000
0100
0010
0001
0010
,
0200
0000
0000
0300
2000
0000
0000
3000
,
0001
0010
0100
1000
0010
0100
0001
0010
,
0001
0000
0000
1000
0000
0000
0020
0000
0000
0000
0000
0000
0030
0000
0000
0000
,
0100
0001
1000
0100
0010
0001
1000
0010
,
0100
0000
0000
0001
0000
0000
2002
0000
0000
0000
0000
0000
3003
0000
0000
0000
,
1000
0001
0010
0100
1000
0001
0100
0010
,
2000
0000
3000
0000
,
0002
0023
2030
3020
,
0031
0010
0100
0000
0010
0100
1000
0000
,
1001
0000
0001
0100
0010
1000
0001
0000
,
0200
0300
2002
3003
,
2000
3020
0032
0023
,
1030
0010
0100
0000
0010
0100
0001
1000
,
0001
0011
1000
1010
,
0001
0010
0100
1000
0010
0010
0000
0000
,
0100
0001
0100
0001
0010
0001
0010
0001
,
0100
0000
0000
0010
0000
0000
1000
0000
0000
0000
0000
0000
0001
0000
1000
0000
,
0001
0000
0010
0000
0100
0000
0010
0000
0001
0000
1000
0000
1000
0000
0000
0010
,
0000
0100
0100
0002
0000
0000
0003
0000
,
1000
0000
0100
0000
1000
0000
0100
0000
0010
0000
0000
0001
0000
0001
0000
0000
,
0200
0000
0310
2000
0000
3001
0010
0000
,
0100
0000
0000
1001
0000
0000
0000
0000
0010
0000
0000
1001
0000
0000
0000
0000
,
1001
0000
0000
0110
0000
0000
0000
0000
2000
0000
0000
3002
0000
0000
0003
0000
,
1000
0100
0010
0001
0100
0010
1000
0010
,
0200
0000
0000
0300
0002
0000
0000
0003
,
1000
0010
0100
0001
0010
0100
1000
0010
,
1000
0000
0000
0001
0000
0000
0020
0000
0000
0000
0000
0000
0030
0000
0000
0000
,
0100
0000
0000
1000
0100
0000
0000
0010
0001
0000
0000
0000
1000
0000
0000
0000
,
0010
0000
0000
1000
0010
0000
0000
0100
0001
0000
0000
0000
1000
0000
0000
0000
,
0001
0010
0100
1000
0100
0010
0001
1000
,
0002
0000
0003
0100
0010
1000
0001
1000
,
0100
0000
0100
0000
0010
0100
0000
0110
0000
0000
0000
0000
0000
0000
0000
0000
,
0001
0000
0001
0000
1000
0001
0000
1001
0000
0000
0000
0000
0000
0000
0000
0000
,
1000
0001
0010
1000
0010
0001
1000
0010
,
0200
0000
0300
0000
,
0002
0203
2300
3200
,
0301
0100
0010
0000
0100
0010
1000
0000
,
0001
0000
0010
0001
0010
0100
1000
0000
,
0010
0100
0001
1000
0001
0100
0010
0000
,
2000
3200
0302
0203
,
1300
0100
0010
0000
0100
0010
0001
1000
,
0001
0011
1000
1010
,
0001
0100
0010
1000
0100
0100
0000
0000
,
1000
1010
0001
0011
,
1000
0100
0010
0001
0100
0100
0000
0000
,
0001
1000
0002
0000
0000
0000
0000
0000
,
0000
0000
0003
0000
;

//--------------- dance-single - Extraordiberry ----------------
#NOTEDATA:;
#STEPSTYPE:dance-single;
#DESCRIPTION:Extraordiberry;
#DIFFICULTY:Hard;
#METER:15;
#RADARVALUES:0,0,0,0,0;
#CREDIT:Extraordiberry;
#NOTES:
0000
0000
0000
0000
,
0000
0000
0000
0000
,
0000
0000
0000
0000
0000
0000
0000
0000
1100
0000
0000
0011
0000
0000
0101
0000
,
0000
1010
0000
0000
2002
0000
0000
0000
0000
0000
0000
0000
3003
0000
0000
0000
,
0110
0000
0000
0000
1001
1001
0000
0000
,
1000
0000
1000
0100
0010
0000
0010
0001
1000
0000
1000
0001
0100
0000
0001
1000
,
0100
0000
0010
0001
1000
0000
0010
0100
0001
0000
1000
0100
0010
0000
0001
0000
,
0101
0000
0001
1000
0100
0010
0100
1000
,
0001
0100
0010
1000
0001
0010
0001
0010
0100
1000
0001
0100
0010
1000
0010
1000
,
0001
0000
0001
0010
0100
0000
0100
1000
0001
0000
0001
0100
0010
0000
0100
0001
,
1000
0000
0100
0010
0001
0000
1000
0010
0100
0000
0001
1000
0100
0000
0010
0000
,
0011
0001
0101
0000
1010
1000
1100
0000
,
0001
0100
0001
0100
0010
1000
0001
0000
1001
0000
1001
0000
0000
0000
0000
0000
,
1000
0000
1000
0000
0001
0100
0000
0020
0000
0000
0000
0130
0000
0100
0010
0100
,
0001
0000
0001
0000
1000
0100
0000
0020
0000
0000
0000
0130
1000
0001
1000
0001
,
0200
0000
0320
0000
2030
0100
3002
0100
,
2003
0000
0000
0000
0000
0000
3100
0010
0002
0000
1000
0000
1003
0000
0000
0000
,
0001
0000
0001
0000
0100
0010
0000
1000
0000
0000
1100
0000
0000
0001
0100
0001
,
1000
0000
1000
0000
0100
0010
0000
0001
0000
0000
0100
0000
0001
1000
0100
0010
,
0001
0000
0000
0011
0000
0001
1000
0000
1010
0000
0000
1010
0000
1000
0001
0000
,
1001
0000
0000
1001
0000
0000
1001
0000
0001
0010
0100
1000
0001
0100
0010
0000
,
1000
0100
1000
0100
0010
0001
0010
0001
1000
0100
1000
0100
0010
0000
0001
0000
,
2000
0000
0010
0000
0001
0000
3100
1000
,
0001
0100
0001
0100
0010
1000
0010
1000
0001
0100
0010
1000
0001
0000
0010
0000
,
0200
0000
0000
2300
0000
0000
3002
0000
0000
0000
1000
0000
1003
0000
0000
0000
,
1000
0001
0100
0010
1000
0001
1000
0001
0010
0000
0100
0000
1000
0000
0001
0000
,
0101
0000
1000
0100
0000
0100
0002
0000
0000
0000
0103
0000
1000
0001
1000
0000
,
0001
0100
0010
1000
0001
0010
0001
0010
0100
1000
0001
0100
0010
1000
0001
0010
,
0200
0000
0300
0000
,
1000
0000
1000
0010
0100
0000
0100
0001
1000
0000
1000
0100
0010
0000
0100
1000
,
0001
0000
0100
0010
1000
0000
0001
0010
0100
0000
1000
0001
0100
0000
0010
0000
,
1010
0000
0001
0010
0100
0010
0001
1000
,
0010
0100
0001
1000
0100
0010
0100
0010
0001
1000
0010
0100
0001
1000
0001
1000
,
0100
0000
0100
0010
0001
0000
0001
1000
0010
0000
0010
0100
0001
0000
1000
0100
,
0010
0000
0010
0001
1000
0000
1000
0010
0100
0000
0100
0001
1000
0000
0001
0000
,
0011
0001
0101
0000
1010
1000
1100
0000
,
0001
0010
0001
0010
0100
1000
0001
0000
1001
0000
1001
0000
0000
0000
0000
0000
,
1000
0000
0001
0000
0100
0010
0000
0100
0000
0001
1000
0001
1000
0001
1000
0000
,
0100
0000
0100
0010
0000
0010
0002
0000
0000
0000
0000
0000
1003
0001
1000
0001
,
0100
0010
0100
0010
1000
0001
0010
0200
0000
0000
0310
0000
0011
0000
0000
0001
,
1000
0001
0101
0200
0000
0010
0310
0000
,
1001
0000
1000
0100
1000
0100
1000
0100
0010
0001
0000
1000
0000
0010
1000
0000
,
2010
0000
3001
0012
0000
0103
0101
0000
,
1010
0000
0000
1100
0000
0100
0010
0000
0011
0000
0000
0101
0000
0100
0010
0000
,
0110
0000
0000
0110
0000
1000
0001
0000
1001
0000
0000
2002
0000
3003
0000
0000
,
1000
0100
1000
0100
0010
0001
0010
0001
1000
0010
0100
0001
1000
0000
0100
0000
,
0020
0000
1000
0000
0100
0000
0031
1000
,
0001
0100
0001
0100
0010
1000
0010
1000
0001
0010
0100
1000
0001
0000
0100
0000
,
0020
0000
0000
2030
0000
0000
3200
0000
0000
0000
0010
0000
0310
0000
0000
0000
,
1001
0000
0000
0000
0000
0000
0001
0000
0000
0100
0000
0000
0000
0000
0000
0000
0000
0000
0010
0000
1000
0000
0010
0000
1000
0000
0000
0000
0000
0000
0000
0000
0000
0000
0000
0000
1010
0000
0000
0000
0000
0000
0000
0000
0000
0000
0000
0000
,
1000
0000
0000
0100
0010
0100
0010
0000
0000
0001
1000
0001
1000
0000
0000
0000
0000
0000
1001
0000
0000
0000
0000
0000
,
0001
1000
0010
0100
0001
1000
0001
1000
0100
0010
0100
0010
1000
0001
1000
0001
,
0200
0000
0000
0000
0000
0000
0310
0001
1000
0000
1000
0010
0100
0000
0001
0000
,
1001
0000
1001
0000
1000
0100
0000
0110
0000
0000
0110
0000
0010
0001
0000
0000
,
0011
0000
0011
0000
0001
1000
0000
1010
0000
0000
1010
0000
0010
1000
0000
0000
,
0001
0010
0001
0010
0100
1000
0001
0100
0010
1000
0001
0010
0100
1000
0001
0100
,
0020
0000
0030
0000
,
1000
0000
1000
0100
0010
0000
0010
0001
1000
0000
1000
0010
0100
0000
0001
1000
,
0100
0000
0100
0010
0001
0000
0001
0100
0010
0000
0010
1000
0001
0000
0010
0000
,
0011
0000
0001
0100
1000
0100
0001
1000
,
0100
0010
0001
1000
0010
0100
0010
0100
0001
1000
0100
0010
0001
1000
0001
1000
,
0010
0000
0010
0100
0001
0000
0001
1000
0100
0000
0100
0010
0001
0000
1000
0001
,
0100
0000
0100
0010
0001
0000
0001
1000
0100
0000
0100
0010
1000
0000
0001
0000
,
0011
0001
0101
0000
1010
1000
1100
0000
,
0001
0100
0010
1000
0001
0010
0100
0000
0110
0000
0110
0000
0000
0000
0010
0000
,
0011
0000
0001
0000
0101
0000
0000
0000
1010
0000
1000
0000
1100
0000
0100
0010
,
0001
1000
0010
0100
0001
1000
0001
0000
1001
0000
1001
0000
0000
0000
0000
0000
,
1000
0100
0001
0100
2000
0000
0000
0000
0000
0000
0000
0000
0000
0000
0000
0000
,
0000
0000
3001
0000
;

//--------------- dance-double - forcednature ----------------
#NOTEDATA:;
#STEPSTYPE:dance-double;
#DESCRIPTION:forcednature;
#DIFFICULTY:Easy;
#METER:6;
#RADARVALUES:0,0,0,0,0;
#CREDIT:forcednature;
#NOTES:
00000000
00000000
00000000
00000000
,
00000000
00000000
00000000
00000000
,
00000000
00000000
00000000
00000000
00001000
00000000
00000000
00010000
,
00000000
00022000
00000000
00000000
,
00033000
00000000
00000000
00000000
,
00001000
00000000
00010000
00000000
,
00001000
00000000
00000010
00000000
,
00000001
00000000
00000010
00000000
,
00000200
00000300
00002000
00003000
,
00000001
00000000
00001000
00000000
,
00000010
00000000
00010000
00000000
,
00001000
00010000
00001000
01000000
,
00010000
10000000
00010000
00000000
,
10000000
10000000
01000000
00000000
,
10000000
10000000
00010000
00000000
,
00200000
00300000
00002000
00003000
,
00020000
00030000
00000200
00000300
,
00001000
00001000
00000010
00000000
,
00001000
00001000
00000001
00000000
,
00002000
00003000
00000200
00000300
,
00020000
00030000
00011000
00000000
,
00001000
01000000
00010000
01000000
,
00200000
00300000
20000000
30000000
,
01000000
00100000
01000000
10000000
,
02000000
00000000
03000000
00000000
,
00100000
00001000
00010000
00000100
,
00020000
00000000
00030000
00000000
,
00000010
00000010
00001000
00001000
,
00001001
00000000
00000000
00000000
,
00000001
00000000
00000100
00000000
,
00000001
00000000
00000010
00000000
,
00000100
00000000
00010000
00000000
,
00002000
00003000
00200000
00300000
,
00010000
00000000
10000000
00000000
,
00010000
00000000
01000000
00000000
,
00100000
10000000
00100000
01000000
,
00010000
10000000
01000000
00000000
,
00100000
00000000
00100000
00001000
,
00010000
00000000
00010000
00001000
,
01000000
00000000
00010000
10000000
,
02000000
03000000
00020000
00030000
,
00001000
00001000
00010000
00000000
,
00002000
00003000
00000020
00000030
,
00000001
00000001
00000100
00000100
,
00000010
00000000
00001001
00000000
,
00000001
00000100
00000010
00010000
,
00002000
00003000
00020000
00030000
,
00001000
01000000
00100000
10000000
,
00200000
00000000
00300000
00000000
,
10000000
01000000
00200000
00300000
,
00010000
01000000
00200000
00300000
,
10000000
00010000
10000000
01000000
,
00020000
00030000
00001000
00010000
,
00001000
00001000
00000020
00000030
,
00000001
00000001
00000020
00000030
,
00000100
00010000
00001000
00010000
,
00000020
00000000
00000030
00000000
,
00001000
00000000
00000001
00000000
,
00001000
00000000
00000010
00000000
,
00010000
00000000
00001000
00000000
,
02000000
03000000
10010000
00000000
,
10000000
00000000
01000000
00000000
,
10000000
00000000
00010000
00000000
,
00100000
00001000
01000000
00001000
,
00010000
00001000
00011000
00000000
,
00000010
00010000
00000100
00010000
,
00001000
00010000
00011000
00000000
,
02000000
00000000
00000000
00000000
,
00000000
00000000
03000000
00000000
;

//--------------- dance-double - forcednature ----------------
#NOTEDATA:;
#STEPSTYPE:dance-double;
#DESCRIPTION:forcednature;
#DIFFICULTY:Medium;
#METER:12;
#RADARVALUES:0,0,0,0,0;
#CREDIT:forcednature;
#NOTES:
00000000
00000000
00000000
00000000
,
00000000
00000000
00000000
00000000
,
00000000
00000000
00000000
00000000
00000000
00000000
00000000
00000000
00001000
00000000
00000000
00001000
00000000
00000000
00010000
00000000
,
00000000
00010000
00000000
00000000
00022000
00000000
00000000
00000000
00000000
00000000
00000000
00000000
00000000
00000000
00000000
00000000
,
00033000
00000000
00000000
00000000
00010000
00001000
00000000
00000000
,
00020000
00230000
20300000
30200000
,
00320000
00032000
00003020
00000032
,
00000013
00000000
00000100
00001000
00000100
00000010
00000001
00000000
,
00000100
00001000
00010000
00000000
00022000
00000000
00033000
00000000
,
00002000
00003020
00000032
00000023
,
00002030
00023000
00230000
20300000
,
30100000
01000000
00010000
00000000
00100000
01000000
10000000
00000000
,
01000000
00010000
00001000
00010000
00001000
00001000
00000000
00000000
,
00010000
00000000
00000100
00000000
00010000
00000100
00000000
00020000
00000000
00000000
00000000
00030000
00000000
00000000
00000000
00000000
,
00000010
00000000
00001000
00000000
00000010
00001000
00000000
00000020
00000000
00000000
00000000
00000030
00000000
00000000
00000000
00000000
,
00000100
00000101
00000011
00000110
,
00000200
00000000
00000300
00010000
00002000
00000000
00003000
00000000
,
00100000
00000000
00010000
00000000
01000000
00010000
00000000
01010000
00000000
00000000
00000000
00000000
00000000
00000000
00000000
00000000
,
01000000
00000000
00100000
00000000
10000000
00100000
00000000
10100000
00000000
00000000
00000000
00000000
10000000
00000000
00010000
00000000
,
10000000
00000000
00000000
10000000
00000000
00000000
01000000
00000000
00010000
00000000
00000000
00010000
00000000
00000000
00001000
00000000
,
00000010
00000000
00000000
00000010
00000000
00000000
00000001
00000000
00000200
00000000
00000000
00000000
00000000
00000000
00000300
00000000
,
00000001
00000100
00000010
00001000
00010000
01000000
00100000
10000000
,
02000000
00000000
00000000
13000000
00020000
00000000
00000000
00030000
,
10000000
01000000
00100000
00001000
00010000
00000100
00000010
00000100
,
00001000
00000000
00000000
00000001
00000000
00000000
00000200
00000000
00000000
00000000
00000000
00000000
00000300
00000000
00000000
00000000
,
00001000
00000100
00000001
00000100
00000010
00010000
00001000
00010000
,
00100000
00000000
00000000
01000000
00000000
00000000
02020000
00000000
00000000
00000000
00000000
00000000
03030000
00000000
00000000
00000000
,
00010000
10000000
00010000
00100000
01000000
10000000
01000000
00010000
,
00002000
00000000
00003000
00000000
,
00020000
02030000
23000000
32000000
,
03020000
00032000
00003200
00000302
,
00000103
00000000
00000010
00001000
00000010
00000100
00000001
00000000
,
00000010
00001000
00010000
00000000
00022000
00000000
00033000
00000000
,
00002000
00003200
00000302
00000203
,
00002300
00023000
02030000
23000000
,
31000000
10100000
01000000
00110000
,
00010000
00100000
01000000
00010000
00001000
00001000
00000000
00000000
,
00100000
00001000
00010000
00001000
01000000
00001000
00010000
00001000
,
00100000
00000000
00000000
00010000
00000000
00000000
00110000
00000000
00000000
00000000
00000000
00000000
00001000
00000000
00010000
00000000
,
00001000
00000000
00000100
00000000
00000010
00000000
00000100
00000000
00001000
00000000
00010000
00000000
00010000
00000000
00000000
00100000
,
00000000
10000000
10000000
02000000
00000000
03000000
00000000
00000000
,
10000000
00000000
01000000
00000000
00100000
00000000
00001000
00000000
00010000
00000000
00000000
00001000
00000000
00001000
00000000
00000000
,
00000020
00000000
00000031
00000200
00000000
00000310
00001000
00000000
,
00001010
00000000
00000000
00001010
00000000
00000000
00000000
00000000
00011000
00000000
00000000
00011000
00000000
00000000
00000000
00000000
,
00110000
00000000
00000000
00110000
00000000
00000000
00000000
00000000
20000000
00000000
00000000
30020000
00000000
00000000
00030000
00000000
,
10000000
01000000
00100000
00010000
00001000
00000100
00000010
00000001
,
00002000
00000000
00000000
00003010
00000200
00000000
00000000
00000300
,
00000001
00000100
00000010
00010000
00001000
01000000
00100000
01000000
,
00010000
00000000
00000000
10000000
00000000
00000000
02000000
00000000
00000000
00000000
00000000
00000000
03000000
00000000
00000000
00000000
,
10000000
00000000
00000000
10000000
01000000
00000000
00000000
00010000
01000000
00000000
00000000
00000000
00010000
00000000
00000000
00000000
,
00001000
00000000
00000000
00001000
00010000
00000000
00000000
00001000
00000010
00000000
00000000
00000000
00000001
00000000
00000000
00000000
,
00000100
00000001
00000100
00000010
00010000
00001000
01000000
00010000
,
20000000
00000000
30000000
01000000
00100000
00010000
00100000
01000000
,
00010000
00000000
00010000
00000000
00001000
00010000
00000000
00011000
00000000
00000000
00000000
00000000
00000000
00000000
00000000
00000000
,
00001000
00000000
00001000
00000000
00010000
00001000
00000000
00011000
00000000
00000000
00000000
00000000
00000000
00000000
00000000
00000000
,
00001000
00010000
00001000
00000100
00000001
00000010
00001000
00100000
,
00002000
00000000
00003000
00000000
,
00020000
02030000
23000000
32000000
,
03020000
00032000
00003200
00000302
,
00000103
00000000
00000010
00001000
00000010
00010000
00001000
00000000
,
00000100
00001000
00010000
00010000
00001000
00000000
00011000
00000000
,
00002000
00003200
00000302
00000203
,
00002300
00023000
02030000
23000000
,
31000000
00110000
01000000
10100000
,
10000000
00010000
00100000
01000000
00010000
00010000
00000000
00000000
,
00001000
00010010
00001000
00010100
,
00001000
00010000
00001000
00000010
00000100
00000100
00000000
00000000
,
00001000
00000001
00000200
00000000
00000000
00000000
00000000
00000000
,
00000000
00000000
00000300
00000000
;

//--------------- dance-double - Extraordiberry ----------------
#NOTEDATA:;
#STEPSTYPE:dance-double;
#DESCRIPTION:Extraordiberry;
#DIFFICULTY:Hard;
#METER:15;
#RADARVALUES:0,0,0,0,0;
#CREDIT:Extraordiberry;
#NOTES:
00000000
00000000
00000000
00000000
,
00000000
00000000
00000000
00000000
,
00000000
00000000
00000000
00000000
00000000
00000000
00000000
00000000
11000000
00000000
00000000
01100000
00000000
00000000
00110000
00000000
,
00000000
00101000
00000000
00000000
00022000
00000000
00000000
00000000
00000000
00000000
00000000
00000000
00033000
00000000
00000000
00000000
,
00010100
00000000
00000000
00000000
00001001
00001001
00000000
00000000
,
00000001
00000000
00001000
00000100
00000010
00000000
00000010
00000001
00001000
00000000
00001000
00000010
00001000
00000000
00010000
01000000
,
00010000
00000000
01000000
00100000
10000000
00000000
00010000
00100000
01000000
00000000
10000000
00010000
01000000
00000000
00100000
00000000
,
10100000
00000000
10000000
01000000
00100000
01000000
10000000
00010000
,
01000000
00100000
01000000
00100000
00010000
00001000
00010000
00001000
00100000
00010000
00100000
00010000
10000000
00100000
10000000
00100000
,
01000000
00000000
00010000
01000000
00100000
00000000
00100000
10000000
00010000
00000000
00010000
00100000
00010000
00000000
00001000
00000100
,
00001000
00000000
00000100
00000010
00000001
00000000
00001000
00000010
00000100
00000000
00000001
00001000
00000100
00000000
00000010
00000000
,
00001010
00001000
00011000
00000000
00011000
00010000
00110000
00000000
,
00100000
10000000
00010000
00100000
00001000
00010000
00001000
00000000
00011000
00000000
00011000
00000000
00000000
00000000
00000000
00000000
,
00010000
00000000
00010000
00000000
00001000
00010000
00000000
00000200
00000000
00000000
00000000
00001300
00000000
00001000
00000100
00010000
,
00001000
00000000
00001000
00000000
00010000
00001000
00000000
02000000
00000000
00000000
00000000
03010000
10000000
01000000
10000000
01000000
,
00200000
00000000
00320000
00000000
00032000
00003200
00000320
00000032
,
00002003
00000000
00000000
00000000
00000000
00000000
00003001
00000100
00000020
00000000
00010000
00000000
00010030
00000000
00000000
00000000
,
00001000
00000000
00001000
00000000
01000000
00010000
00000000
10000000
00000000
00000000
10100000
00000000
00000000
00010000
00100000
00001000
,
00010000
00000000
00010000
00000000
00000100
00001000
00000000
00000001
00000000
00000000
00000010
00000000
00000001
00001000
00000010
00001000
,
00000010
00000000
00000000
00001010
00000000
00010000
00001000
00000000
00011000
00000000
00000000
00011000
00000000
01000000
00010000
00000000
,
01010000
00000000
00000000
01010000
00000000
10000000
00010000
00000000
00100000
01000000
10000000
00000000
00100000
01000000
00010000
00000000
,
10000000
01000000
10000000
01000000
00100000
01000000
00100000
01000000
00100000
00010000
00100000
00001000
00010000
00000000
00001000
00000000
,
00000020
00001000
00000100
00000031
,
00000001
00000100
00000001
00000100
00000010
00000100
00000010
00000100
00000010
00001000
00000010
00010000
00001000
00000000
00010000
00000000
,
00200000
00000000
00000000
20300000
00000000
00000000
30020000
00000000
00000000
00000000
10000000
00000000
10030000
00000000
00000000
00000000
,
10000000
01000000
10000000
01000000
00100000
01000000
00100000
01000000
00010000
00000000
00001000
00000000
00000010
00000000
00000001
00000000
,
00000011
00000000
00001000
00000010
00000000
00010000
00002000
00000000
00000000
00000000
01003000
00000000
00010000
01000000
00010000
00000000
,
10000000
01000000
10000000
01000000
00100000
00010000
00100000
00010000
00001000
00000100
00001000
00000100
00000010
00000001
00000010
00000001
,
00002000
00000000
00003000
00000000
,
00000001
00000000
00001000
00000010
00000100
00000000
00000100
00000001
00001000
00000000
00001000
00000100
00001000
00000000
00010000
00100000
,
00010000
00000000
00100000
01000000
10000000
00000000
00010000
01000000
00100000
00000000
10000000
00010000
00100000
00000000
00010000
00000000
,
00110000
00000000
10000000
00100000
01000000
00100000
10000000
00010000
,
00100000
01000000
00100000
01000000
00010000
00001000
00010000
00001000
01000000
00010000
01000000
00010000
10000000
01000000
10000000
01000000
,
00100000
00000000
00010000
10000000
00100000
00000000
00100000
01000000
00010000
00000000
00010000
01000000
00010000
00000000
00001000
00000010
,
00001000
00000000
00001000
00000001
00000010
00000000
00000010
00000100
00001000
00000000
00001000
00000001
00000100
00000000
00001000
00000000
,
00001100
00001000
00011000
00000000
00011000
00010000
01010000
00000000
,
01000000
00100000
00010000
10000000
00100000
01000000
00010000
00000000
10010000
00000000
10010000
00000000
00000000
00000000
00000000
00000000
,
10000000
00000000
01000000
00000000
00100000
00010000
00000000
00100000
00000000
00001000
00010000
00001000
00010000
00001000
00010000
00000000
,
00000010
00000000
00000010
00001000
00000000
00001000
00000002
00000000
00000000
00000000
00000000
00000000
00000013
00000100
00000010
00000100
,
00001000
00000001
00001000
00000001
00000100
00000010
00001000
00000002
00000000
00000000
00000013
00000000
00000110
00000000
00000000
00010000
,
00001000
00010000
00011000
02000000
00000000
00010000
03010000
00000000
,
10010000
00000000
10000000
01000000
10000000
01000000
10000000
01000000
00100000
00010000
00000000
00100000
00000000
00100000
00001000
00000000
,
00012000
00000000
00003010
00001020
00000000
00000031
00000011
00000000
,
00000101
00000000
00000000
00000110
00000000
00000100
00000010
00000000
00001010
00000000
00000000
00010010
00000000
00010000
00001000
00000000
,
00011000
00000000
00000000
00110000
00000000
00010000
00100000
00000000
01100000
00000000
00000000
20020000
00000000
30030000
00000000
00000000
,
10000000
01000000
10000000
01000000
00100000
01000000
00100000
01000000
00100000
00010000
00100000
00001000
00010000
00000000
00001000
00000000
,
00000020
00010000
00001000
00000130
,
00001000
00000001
00001000
00000001
00000100
00000010
00000100
00000010
00010000
00001000
00010000
00001000
01000000
00010000
01000000
00010000
,
20000000
00000000
00000000
32000000
00000000
00000000
03020000
00000000
00000000
00000000
00001000
00000000
00031000
00000000
00000000
00000000
,
00011000
00000000
00000000
00000000
00000000
00000000
00010000
00000000
00000000
00000010
00000000
00000000
00000000
00000000
00000000
00000000
00000000
00000000
00000100
00000000
00000010
00000000
00000100
00000000
00000010
00000000
00000000
00000000
00000000
00000000
00000000
00000000
00000000
00000000
00000000
00000000
00000110
00000000
00000000
00000000
00000000
00000000
00000000
00000000
00000000
00000000
00000000
00000000
,
00001000
00000000
00000000
00000100
00000010
00000100
00000010
00000000
00000000
00000001
00001000
00000001
00001000
00000000
00000000
00000000
00000000
00000000
00001001
00000000
00000000
00000000
00000000
00000000
,
00000001
00000010
00000100
00001000
00000001
00000100
00000001
00000100
00000010
00001000
00000010
00001000
00000010
00010000
00001000
00010000
,
00200000
00000000
00000000
00000000
00000000
00000000
01300000
00010000
10000000
00000000
00100000
10000000
00010000
00000000
10000000
00000000
,
10010000
00000000
10010000
00000000
10000000
01000000
00000000
01100000
00000000
00000000
01100000
00000000
00100000
00010000
00000000
00000000
,
00110000
00000000
00110000
00000000
00100000
00001000
00000000
00011000
00000000
00000000
00011000
00000000
00010000
00000100
00000000
00000000
,
00001000
00000001
00001000
00000001
00000100
00000010
00001000
00000010
00010000
00001000
00010000
00001000
01000000
00010000
10000000
01000000
,
00200000
00000000
00300000
00000000
,
00010000
00000000
00010000
01000000
00100000
00000000
00100000
10000000
00010000
00000000
00010000
00100000
00010000
00000000
00001000
00010000
,
00001000
00000000
00001000
00000100
00000010
00000000
00000010
00000001
00001000
00000000
00001000
00000010
00000100
00000000
00000010
00000000
,
00001010
00000000
00000001
00000010
00000100
00000010
00000001
00001000
,
00000010
00001000
00000010
00010000
00001000
00010000
00001000
00010000
00000100
00001000
00000001
00000100
00000010
00001000
00000010
00001000
,
00000001
00000000
00001000
00000001
00000010
00000000
00000010
00000100
00001000
00000000
00001000
00010000
00001000
00000000
00010000
00100000
,
01000000
00000000
01000000
10000000
00010000
00000000
00010000
01000000
00100000
00000000
00100000
00010000
00001000
00000000
00010000
00000000
,
00011000
00001000
00001010
00000000
00001010
00000010
00000011
00000000
,
00000001
00000100
00000010
00001000
00000010
00010000
00001000
00000000
00011000
00000000
00011000
00000000
00000000
00000000
00010000
00000000
,
00011000
00001000
00001010
00000000
00001010
00000010
00000011
00000000
,
00000001
00000100
00000010
00000100
00001000
00010000
00001000
00000000
00011000
00000000
00011000
00000000
00000000
00000000
00000000
00000000
,
00010000
00100000
01000000
00001000
00020000
00000000
00000000
00000000
00000000
00000000
00000000
00000000
00000000
00000000
00000000
00000000
,
00000000
00000000
00031000
00000000
;
