#VERSION:0.83;
#TITLE:Going My Way;
#SUBTITLE:;
#ARTIST:BONUS;
#TITLETRANSLIT:;
#SUBTITLETRANSLIT:;
#ARTISTTRANSLIT:;
#GENRE:;
#CREDIT:;
#MUSIC:Going My Way.ogg;
#BANNER:Going My Way.png;
#BACKGROUND:b4u-bg.png;
#CDTITLE:;
#SAMPLESTART:69.176;
#SAMPLELENGTH:15.000;
#SELECTABLE:YES;
#OFFSET:0.000;
#BPMS:0.000=170.000;
#STOPS:;
#JACKET:;
#DISCIMAGE:;
#CDIMAGE:;
#BGCHANGES:;
#FGCHANGES:;

//--------------- dance-single - KAYSTAR ----------------
#NOTEDATA:;
#STEPSTYPE:dance-single;
#DESCRIPTION:KAYSTAR;
#DIFFICULTY:Beginner;
#METER:2;
#RADARVALUES:0,0,0,0,0;
#CHARTNAME:;
#CHARTSTYLE:;
#CREDIT:KAYSTAR;
#METERF:2;
#NOTES:
0000
0000
0000
0000
,
0000
0000
0000
0000
,
0000
0000
0000
0000
,
0000
0000
0000
0000
,
0000
0000
0000
0000
,
1000
0000
0000
0000
,
0000
0000
0000
0000
,
0001
0000
0000
0000
,
0000
0000
0000
0000
,
1000
0000
0000
0000
,
0001
0000
0000
0000
,
0010
0000
0000
0000
,
0000
0000
0000
0000
,
0001
0000
0000
0000
,
1000
0000
0000
0000
,
0010
0000
0000
0000
,
0000
0000
0000
0000
,
1000
0000
0000
0000
,
0100
0000
0000
0000
,
0010
0000
0000
0000
,
0000
0000
0000
0000
,
0001
0000
0000
0000
,
0100
0000
0000
0000
,
0010
0000
0000
0000
,
0000
0000
0000
0000
,
2000
0000
0000
0000
,
0000
0000
0000
0000
,
0000
0000
0000
0000
,
3000
0000
0000
0000
,
0002
0000
0000
0000
,
0000
0000
0000
0000
,
0000
0000
0000
0000
,
0003
0000
0000
0000
,
1000
0000
0000
0000
,
0001
0000
0000
0000
,
0010
0000
0000
0000
,
0010
0000
0000
0000
,
0001
0000
0000
0000
,
1000
0000
0000
0000
,
0010
0000
0000
0000
,
0010
0000
0000
0000
,
1000
0000
0000
0000
,
0000
0000
0000
0000
,
0000
0000
0000
0000
,
0000
0000
0000
0000
,
0001
0000
0000
0000
,
0000
0000
0000
0000
,
0000
0000
0000
0000
,
0000
0000
0000
0000
,
1000
0000
0000
0000
,
0100
0000
0000
0000
,
0010
0000
0000
0000
,
0000
0000
0000
0000
,
0001
0000
0000
0000
,
0100
0000
0000
0000
,
0010
0000
0000
0000
,
0000
0000
0000
0000
,
1000
0000
0000
0000
,
0001
0000
0000
0000
,
0010
0000
0000
0000
,
0010
0000
0000
0000
,
0001
0000
0000
0000
,
1000
0000
0000
0000
,
0010
0000
0000
0000
,
0010
0000
0000
0000
,
1000
0000
0000
0000
,
0100
0000
0000
0000
,
0010
0000
0000
0000
,
0001
0000
0000
0000
,
0200
0000
0000
0000
0000
0000
0000
0000
0000
0000
0000
0000
0000
0000
0000
0000
0000
0000
0000
0000
0000
0000
0000
0000
0000
0000
0000
0000
0000
0000
0000
0000
0000
0000
0000
0000
0000
0000
0000
0000
0000
0000
0000
0000
0000
0000
0000
0000
0000
0000
0000
0000
0000
0000
0000
0000
0000
0000
0000
0000
0000
0000
0000
0000
0000
0000
0000
0000
0000
0000
0000
0000
0000
0000
0000
0000
0000
0000
0000
0000
0000
0000
0000
0000
0000
0000
0000
0000
0000
0000
0000
0000
0000
0000
0000
0300
,
0000
0000
0000
0000
,
2002
0000
0000
0000
0000
0000
0000
3003
;

//--------------- dance-single - KAYSTAR ----------------
#NOTEDATA:;
#STEPSTYPE:dance-single;
#DESCRIPTION:KAYSTAR;
#DIFFICULTY:Easy;
#METER:6;
#RADARVALUES:0,0,0,0,0;
#CHARTNAME:;
#CHARTSTYLE:;
#CREDIT:KAYSTAR;
#METERF:6;
#NOTES:
0000
0000
0000
0000
,
0000
0000
0000
0000
,
0000
0000
0000
0000
,
0000
0000
0000
0000
,
0000
0000
0000
0000
,
0001
1000
0100
0000
,
1000
0001
0100
0000
,
0001
0010
0100
1000
,
2002
0000
0000
3003
,
0001
0001
0100
0010
,
1000
0000
1000
0000
0100
1000
0100
0000
,
0010
0001
2000
3000
,
0010
0100
0002
0003
,
1000
1000
0100
0010
,
0001
0000
0001
0000
0100
0001
0100
0000
,
0010
1000
0002
0003
,
2002
0000
0000
3003
,
1000
0001
0010
0000
,
0001
0100
0010
0000
,
2000
0000
3100
0010
,
0002
0000
1003
1001
,
0001
1000
0010
0000
,
1000
0100
0010
0000
,
0002
0000
0103
0010
,
2000
0000
0002
3003
,
2000
0000
0000
3000
,
0200
0000
0000
0000
0000
0000
0000
0000
0000
0000
0000
0000
0000
0000
0000
0000
0000
0000
0000
0000
0000
0000
0000
0000
0000
0000
0000
0000
0000
0000
0000
0000
0000
0000
0000
0000
0000
0000
0000
0000
0000
0000
0000
0000
0000
0000
0000
0000
0000
0000
0000
0000
0000
0000
0000
0000
0000
0000
0000
0000
0000
0000
0000
0000
0000
0000
0000
0000
0000
0000
0000
0300
0000
0000
0000
0000
0000
0000
0000
0000
0000
0000
0000
0000
0000
0000
0000
0000
0000
0000
0000
0000
0000
0000
0000
0000
,
0020
0000
0000
0030
,
0000
0000
0000
0000
,
0002
0000
0000
0000
0000
0000
0000
0000
0000
0000
0000
0000
0000
0000
0000
0000
0000
0000
0000
0000
0000
0000
0000
0000
0000
0000
0000
0000
0000
0000
0000
0000
0000
0000
0000
0000
0000
0000
0000
0000
0000
0000
0000
0000
0000
0000
0000
0000
0000
0000
0000
0000
0000
0000
0000
0000
0000
0000
0000
0000
0000
0000
0000
0000
0000
0000
0000
0000
0000
0000
0000
0000
0000
0000
0000
0000
0000
0000
0000
0000
0000
0000
0000
0000
0000
0000
0000
0000
0000
0000
0000
0000
0000
0000
0000
0000
0000
0000
0000
0000
0000
0000
0000
0000
0000
0000
0000
0000
0000
0000
0000
0000
0000
0000
0000
0000
0000
0000
0000
0000
0000
0000
0000
0000
0000
0000
0000
0000
0000
0000
0000
0000
0000
0000
0000
0000
0000
0000
0000
0000
0000
0000
0000
0000
0000
0000
0000
0000
0000
0003
0000
0000
0000
0000
0000
0000
0000
0000
0000
0000
0000
0000
0000
0000
0000
0000
0000
0000
0000
0000
0000
0000
0000
0000
0000
0000
0000
0000
0000
0000
0000
0000
0000
0000
0000
0000
0000
0000
0000
0000
0000
0000
,
0200
0000
0000
0300
,
0020
0000
0000
0000
0000
0000
0000
0000
0000
0000
0000
0000
0000
0000
0000
0000
0000
0000
0000
0000
0000
0000
0000
0030
0000
0000
0000
0000
0000
0000
0000
0000
,
0000
0000
0000
0000
,
1000
0100
0010
0010
,
0001
1000
0010
0000
,
0100
0001
1000
1000
,
0200
0000
0310
0000
,
0001
0100
0010
0010
,
1000
0001
0010
0000
,
0100
1000
0001
0001
,
0100
0010
1000
0000
,
0002
0000
0023
0000
,
0230
0000
0300
0000
,
1000
1000
1000
0000
,
0001
0001
0001
0000
,
2000
0000
3020
0000
,
0230
0000
0300
0000
,
0001
0001
0001
0000
,
2002
0000
0000
3003
,
1000
0001
0010
0010
,
0001
1000
0010
0010
,
1000
0000
0100
1000
0100
0000
0010
0000
,
0002
0000
0000
0003
,
1000
0010
0100
0000
,
0001
1000
0100
0000
,
0020
0000
0031
1000
,
2002
0000
0000
3003
,
0001
1000
0010
0010
,
1000
0001
0010
0010
,
0001
0000
0100
0001
0100
0000
0010
0000
,
2000
0000
0000
3000
,
0001
0010
0100
0000
,
1000
0001
0100
0000
,
0020
0000
0000
0000
0000
0000
0000
0000
0000
0000
0000
0000
0000
0000
0000
0000
0000
0000
0000
0000
0000
0000
0000
0000
0000
0000
0000
0000
0000
0000
0000
0000
0000
0000
0000
0000
0000
0000
0000
0000
0000
0000
0000
0000
0000
0000
0000
0000
0000
0000
0000
0000
0000
0000
0000
0000
0000
0000
0000
0000
0000
0000
0000
0000
0000
0000
0000
0000
0000
0000
0000
0000
0000
0000
0000
0000
0000
0000
0000
0000
0000
0000
0000
0000
0000
0000
0000
0000
0000
0000
0000
0000
0000
0000
0000
0030
1000
0000
0000
0000
0000
0000
0000
0000
0000
0000
0000
0000
0000
0000
0000
0000
0000
0000
0000
0000
0000
0000
0000
0000
0000
0000
0000
0000
0000
0000
0000
0000
0000
0000
0000
0000
0000
0000
0000
0000
0000
0000
0000
0000
0000
0000
0000
0000
0001
0000
0000
0000
0000
0000
0000
0000
0000
0000
0000
0000
0000
0000
0000
0000
0000
0000
0000
0000
0000
0000
0000
0000
0000
0000
0000
0000
0000
0000
0000
0000
0000
0000
0000
0000
0000
0000
0000
0000
0000
0000
0000
0000
0000
0000
0000
0000
,
2002
0000
0000
3003
,
1000
0100
0001
0100
,
1000
0100
0001
0100
,
1000
0000
0001
1000
0001
0000
0100
0000
,
0010
1000
0100
0010
,
0002
0000
1000
0000
1003
0000
0000
2002
,
0000
0000
0000
0000
0000
0000
0000
0000
0000
0000
0000
0000
0000
0000
0000
0000
0000
0000
0000
0000
0000
0000
0000
0003
3000
0000
0000
0000
0000
0000
0000
0000
0000
0000
0000
0000
0000
0000
0000
0000
0000
0000
0000
0000
0000
0000
0000
0000
0000
0000
0000
0000
0000
0000
0000
0000
0000
0000
0000
0000
0000
0000
0000
0000
0000
0000
0000
0000
0000
0000
0000
0000
0000
0000
0000
0000
0000
0000
0000
0000
0000
0000
0000
0000
0000
0000
0000
0000
0000
0000
0000
0000
0000
0000
0000
0000
,
1001
0000
0000
0110
0000
0000
1001
0000
;

//--------------- dance-single - KAYSTAR ----------------
#NOTEDATA:;
#STEPSTYPE:dance-single;
#DESCRIPTION:KAYSTAR;
#DIFFICULTY:Medium;
#METER:10;
#RADARVALUES:0,0,0,0,0;
#CHARTNAME:;
#CHARTSTYLE:;
#CREDIT:KAYSTAR;
#METERF:10;
#NOTES:
0000
0000
0000
0000
,
0000
0000
0000
0000
,
0000
0000
0000
0000
,
0000
0000
0000
0000
,
0000
0000
0000
0000
,
1000
0001
0010
0010
,
0001
1000
0010
0010
,
0100
0001
1000
0000
0100
1000
0001
0000
,
0200
0010
0310
1001
,
1000
0100
1000
0000
0001
0000
0100
0001
,
0100
0000
0010
0000
1000
0001
0010
0000
,
0002
0203
0320
0030
,
2000
3200
0320
0030
,
0001
0100
0001
0000
1000
0000
0100
1000
,
0100
0000
0010
0000
0001
1000
0010
0000
,
2000
3200
0320
0031
,
1001
0000
2002
3003
,
1000
0000
1000
0000
1000
0000
0010
1000
,
0010
0000
0100
0001
0100
0000
0001
0000
,
2000
0000
3100
0000
0020
0000
0031
1000
,
0000
1001
0000
0001
1000
0001
1000
0000
,
0001
0000
0001
0000
0001
0000
0100
0001
,
0100
0000
0010
1000
0010
0000
1000
0000
,
0002
0000
0013
0000
0200
0000
1300
0001
,
0000
1001
0000
1000
0001
1000
0001
0000
,
2000
0000
3010
1010
,
0002
0000
0103
0101
,
2000
0000
3100
1100
,
0002
0000
0013
0011
,
0000
0000
1000
0000
0000
0010
0000
0000
1000
0000
0000
0010
0000
0000
1000
0000
,
0000
0000
0001
0000
0000
0100
0000
0000
0001
0000
0000
0100
0000
0000
0001
0000
,
0000
0000
1000
0000
0000
0100
0000
0000
1000
0000
0000
0100
0000
0000
1000
0000
,
0002
0000
0003
1001
,
1000
0000
0010
1000
0001
0000
0010
0100
,
2000
3020
0230
0301
,
1000
0000
0001
1000
0001
0000
1000
0001
,
1000
0200
0320
0030
,
0001
0000
0100
0001
1000
0000
0100
0010
,
0002
0203
0320
1030
,
0001
0000
1000
0001
1000
0000
0001
0000
,
1000
0100
0010
0002
0000
1003
0000
0000
,
0001
0100
1000
0010
,
0001
0100
1000
0010
,
0002
0203
0320
0030
,
2000
3200
0320
0030
,
0001
0100
1000
0010
,
0001
0100
1000
0010
,
0002
0203
0320
1030
,
2002
0000
0000
0000
0000
0000
0000
0000
0000
0000
0000
0000
0000
0000
0000
0000
0000
0000
0000
0000
0000
0000
0000
0000
0000
0000
0000
0000
0000
0000
0000
0000
0000
0000
0000
0000
0000
0000
0000
0000
0000
0000
0000
0000
0000
0000
0000
0000
0000
0000
0000
0000
0000
0000
0000
0000
0000
0000
0000
0000
0000
0000
0000
0000
0000
0000
0000
0000
0000
0000
0000
0000
0000
0000
0000
0000
0000
0000
0000
0000
0000
0000
0000
0000
0000
0000
0000
0000
0000
0000
0000
0000
0000
0000
0000
0000
3000
0003
0000
0000
0000
0000
0000
0000
0000
0000
0000
0000
0000
0000
0000
0000
0000
0000
0000
0000
0000
0000
0000
0000
0000
0000
0000
0000
0000
0000
0000
0000
0000
0000
0000
0000
0000
0000
0000
0000
0000
0000
0000
0000
0000
0000
0000
0000
1001
0000
0000
0000
0000
0000
0000
0000
0000
0000
0000
0000
0000
0000
0000
0000
0000
0000
0000
0000
0000
0000
0000
0000
0000
0000
0000
0000
0000
0000
0000
0000
0000
0000
0000
0000
0000
0000
0000
0000
0000
0000
0000
0000
0000
0000
0000
0000
,
0001
0010
0001
0000
0100
0010
1000
0000
,
0100
1000
0100
0000
1000
0010
0100
0000
,
0002
0000
1003
0000
0100
0010
0001
0000
,
1000
0000
0000
1000
0000
0000
1000
0000
0000
1000
0000
0000
1000
0000
0000
0000
,
0001
0100
0010
0000
2000
0000
3100
0000
,
0020
0031
0200
0310
,
2002
0000
3003
0000
0001
0010
0100
0000
,
1000
0000
0000
0001
0000
0000
1000
0000
0000
0001
0000
0000
1001
0000
0000
0000
,
1000
0010
1000
0000
0100
0010
0001
0000
,
0100
0001
0100
0000
0001
0010
0100
0000
,
2000
0000
3001
0000
0100
0010
1000
0000
,
0001
0000
0000
0001
0000
0000
0001
0000
0000
0001
0000
0000
0001
0000
0000
0000
,
1000
0100
0010
0000
0002
0000
0103
0000
,
0020
1030
0200
0310
,
2002
0000
3003
0000
1000
0010
0100
0000
,
0001
0000
0000
1000
0000
0000
0001
0000
0000
1000
0000
0000
1001
0000
0000
0000
,
0001
1000
0100
0000
0010
0001
1000
0010
,
0100
0101
0001
1001
,
1000
0001
0010
0000
0100
1000
0001
0100
,
0010
1010
1000
1001
,
0001
0000
0000
0001
0000
0000
0010
0000
0100
0000
0000
0100
0000
0000
2000
0000
,
0000
0000
3000
0000
0000
0001
1000
0001
,
2000
0000
3010
0200
0000
0301
1000
1001
;

//--------------- dance-single - KAYSTAR ----------------
#NOTEDATA:;
#STEPSTYPE:dance-single;
#DESCRIPTION:KAYSTAR;
#DIFFICULTY:Hard;
#METER:14;
#RADARVALUES:0,0,0,0,0;
#CHARTNAME:;
#CHARTSTYLE:;
#CREDIT:KAYSTAR;
#METERF:14;
#NOTES:
0000
0000
0000
0000
,
0000
0000
0000
0000
,
0000
0000
0000
0000
,
0000
0000
0000
0000
,
0000
0000
0000
0000
,
1000
0000
0001
0000
1000
0000
0001
0010
0000
0010
0100
0000
1000
0001
1000
0000
,
0001
0000
1000
0000
0001
0000
1000
0010
0000
0010
0100
0000
0002
0000
0000
0000
,
1003
0100
1000
0100
0010
0001
0010
0001
,
1000
0000
0010
0000
0100
0000
0001
1000
0000
1000
0100
0000
0010
0001
0000
0001
,
1000
0010
0100
0000
0102
0000
1003
0200
,
0000
0310
0001
1000
0010
0100
0010
1000
,
0001
0010
0001
0000
0201
0000
0310
1000
,
0001
0000
0010
0000
0001
0000
0000
0000
0201
0000
0000
0000
0310
0000
1000
0001
,
1000
0100
0010
0000
0001
0100
0010
2000
,
0000
3010
0100
0001
0010
0100
0010
0001
,
1000
0010
1000
0000
1200
0000
0310
0001
,
1001
0000
0000
0000
0000
0000
0000
0000
1000
0001
1000
0000
0001
1000
0001
0000
,
1000
0010
0100
0000
0102
0000
1003
0200
,
0000
0310
0001
2000
0000
3010
0100
0001
,
0020
0000
0130
1000
0020
0000
0130
0110
,
0000
0000
1001
0000
0000
0000
0002
0003
0020
0030
0200
0300
2000
3000
0000
0000
,
0001
0100
0010
0000
2010
0000
3001
0020
,
0000
0000
0130
0000
1000
0000
0010
0000
0100
0000
0001
0000
1000
0001
1000
0000
,
2001
0000
3100
0010
0001
0100
0010
0110
,
0000
0000
1001
0000
0000
0000
1000
0000
0100
1000
0100
0000
0010
0001
0010
0000
,
0002
0000
0010
0000
0000
0010
0000
0000
1000
0000
0000
1000
0000
0000
0203
0000
,
0000
0000
0001
0000
0000
0010
0000
0000
1000
0000
0000
0010
0000
0000
0302
0000
,
0000
0000
1000
0000
0000
1000
0000
0000
0010
0000
0000
0010
0000
0000
2003
0000
,
0000
0000
3010
0000
0000
0100
0000
0000
0001
1000
0001
0000
1001
0000
0000
0000
,
2000
0000
0010
0000
0000
0010
0000
0000
0001
0000
0000
0001
0000
0000
3200
0000
,
0000
0000
1000
0000
0000
0010
0000
0000
0001
0000
0000
0010
0000
0000
2300
0000
,
0000
0000
0001
0000
0000
0001
0000
0000
0010
0000
0000
0010
0000
0000
3001
0000
,
1001
0000
1000
1001
0000
0001
1001
0000
,
1000
0100
0010
0001
0010
0100
1000
0001
,
0100
0000
0010
0000
0100
0000
1000
0000
0100
0000
0010
0000
0100
0000
0001
1000
,
0001
1000
0100
0100
0001
0100
0100
2000
,
0000
3010
0100
0002
0000
0013
0100
1000
,
0001
0100
0010
1000
0100
1000
0010
0100
,
0001
1000
0100
0001
0100
1000
0010
0100
,
0002
0000
0000
0000
1003
0000
0100
1000
0100
0000
0010
0001
0010
0000
0001
0000
,
0100
0010
0001
1000
0100
0010
1000
0000
,
0002
0000
0010
0000
2003
0000
3010
0200
,
0000
0301
1000
0001
2000
3200
0310
0001
,
2000
0000
3010
0000
1200
0000
0310
0001
,
2000
0000
3010
0000
1200
0000
0310
0001
,
2000
0010
0010
0000
3002
0000
0013
0020
,
0000
0000
0130
0000
1000
0000
0001
0000
0200
0302
0203
0300
0010
0000
1000
0000
,
0002
0010
0013
0000
0201
0000
0310
1000
,
2002
0000
3003
1001
,
0001
0010
0000
0001
0010
0000
0100
0000
1000
0001
0000
1000
0001
0000
0100
0000
,
1000
0000
0100
0000
0001
0000
1000
0000
0100
0000
0001
0000
0100
0000
0010
0001
,
2000
0000
3010
0100
0001
1000
0001
1000
,
1100
0000
0000
0110
0000
0000
0101
0000
0000
0110
0000
0000
1100
0000
0000
0000
,
0001
0100
0000
0001
0100
0000
0010
0000
1000
0001
0000
1000
0001
0000
0010
0000
,
0110
0000
0000
0100
1000
0000
0010
0000
0110
0000
0000
0100
0001
0000
0010
0000
,
0220
0330
0001
1000
0001
1000
0100
0010
,
0001
1000
0000
1000
0010
0000
0100
0001
0000
0001
1000
0000
1001
0000
0000
0000
,
1000
0100
0000
1000
0100
0000
0010
0000
0001
1000
0000
0001
1000
0000
0010
0000
,
0001
0000
0010
0000
1000
0000
0001
0000
0010
0000
1000
0000
0010
0000
0100
1000
,
0002
0000
0103
0010
1000
0001
1000
0001
,
0011
0000
0000
0110
0000
0000
1010
0000
0000
0110
0000
0000
0011
0000
0000
0000
,
1000
0010
0000
1000
0010
0000
0100
0000
0001
1000
0000
0001
1000
0000
0100
0000
,
0110
0000
0000
0010
0001
0000
0100
0000
0110
0000
0000
0010
1000
0000
0100
0000
,
0220
0000
0330
0000
1000
0000
0001
1000
0001
0000
1000
0000
0001
0000
1000
0000
,
0010
0100
0000
0100
0001
0000
0010
0100
0000
0100
1000
0000
0001
0000
1000
0001
,
2000
0000
3001
0100
0010
0001
0010
0100
,
1000
0100
0010
1000
0001
0010
0100
1000
,
0010
0100
0001
0010
0100
0001
1000
0010
,
0100
1000
0010
0100
0002
0000
1003
0000
,
1100
0000
0000
0100
0010
0000
0001
0000
0101
0000
0000
0100
0010
0000
2000
0000
,
0000
0000
0000
0000
3000
0000
0000
0000
0000
0000
0001
0000
1000
0001
1000
0000
,
1001
0001
0010
0110
0100
1000
1001
1001
;

//--------------- dance-double - KAYSTAR ----------------
#NOTEDATA:;
#STEPSTYPE:dance-double;
#DESCRIPTION:KAYSTAR;
#DIFFICULTY:Easy;
#METER:6;
#RADARVALUES:0,0,0,0,0;
#CHARTNAME:;
#CHARTSTYLE:;
#CREDIT:;
#METERF:6;
#NOTES:
00000000
00000000
00000000
00000000
,
00000000
00000000
00000000
00000000
,
00000000
00000000
00000000
00000000
,
00000000
00000000
00000000
00000000
,
00000000
00000000
00000000
00000000
,
10000000
00010000
00100000
00000000
,
00001000
00010000
00001000
00000000
,
00010000
00000100
00001000
00000000
,
00002002
00000000
00000000
00003003
,
00000001
00000001
00001000
00000010
,
00010000
00000000
00010000
00000000
00001000
00010000
00001000
00000000
,
01000000
00100000
20000000
30000000
,
00100000
01000000
00020000
00030000
,
10000000
10000000
00010000
00100000
,
00001000
00000000
00001000
00000000
00010000
00001000
00010000
00000000
,
00000100
00000010
00000002
00000003
,
00002002
00000000
00000000
00003003
,
00000001
00000001
00000001
00000000
,
00001000
00000010
00010000
00000000
,
00002000
00000000
01003000
00010000
,
20000000
00000000
00000000
00000000
00000000
00000000
00000000
00000000
00000000
00000000
00000000
00000000
00000000
00000000
00000000
00000000
00000000
00000000
00000000
00000000
00000000
00000000
00000000
00000000
00000000
00000000
00000000
00000000
00000000
00000000
00000000
00000000
00000000
00000000
00000000
00000000
00000000
00000000
00000000
00000000
00000000
00000000
00000000
00000000
00000000
00000000
00000000
00000000
00000000
00000000
00000000
00000000
00000000
00000000
00000000
00000000
00000000
00000000
00000000
00000000
00000000
00000000
00000000
00000000
00000000
00000000
00000000
00000000
00000000
00000000
00000000
00000000
00000000
00000000
00000000
00000000
00000000
00000000
00000000
00000000
00000000
00000000
00000000
00000000
00000000
00000000
00000000
00000000
00000000
00000000
00000000
00000000
00000000
00000000
00000000
00000000
00010000
30000000
00000000
00000000
00000000
00000000
00000000
00000000
00000000
00000000
00000000
00000000
00000000
00000000
00000000
00000000
00000000
00000000
00000000
00000000
00000000
00000000
00000000
00000000
00000000
00000000
00000000
00000000
00000000
00000000
00000000
00000000
00000000
00000000
00000000
00000000
00000000
00000000
00000000
00000000
00000000
00000000
00000000
00000000
00000000
00000000
00000000
00000000
10010000
00000000
00000000
00000000
00000000
00000000
00000000
00000000
00000000
00000000
00000000
00000000
00000000
00000000
00000000
00000000
00000000
00000000
00000000
00000000
00000000
00000000
00000000
00000000
00000000
00000000
00000000
00000000
00000000
00000000
00000000
00000000
00000000
00000000
00000000
00000000
00000000
00000000
00000000
00000000
00000000
00000000
00000000
00000000
00000000
00000000
00000000
00000000
,
10000000
10000000
10000000
00000000
,
00010000
00100000
00001000
00000000
,
00020000
00000000
00030100
00001000
,
00000002
00000000
00002000
00003003
,
00000002
00000000
00000000
00000003
,
00000200
00000000
00000000
00000300
,
00002000
00000000
00000000
00003000
,
00000000
00000000
00000000
00000000
,
00020000
00000000
00000000
00000000
00000000
00000000
00000000
00000000
00000000
00000000
00000000
00000000
00000000
00000000
00000000
00000000
00000000
00000000
00000000
00000000
00000000
00000000
00000000
00000000
00000000
00000000
00000000
00000000
00000000
00000000
00000000
00000000
00000000
00000000
00000000
00000000
00000000
00000000
00000000
00000000
00000000
00000000
00000000
00000000
00000000
00000000
00000000
00000000
00000000
00000000
00000000
00000000
00000000
00000000
00000000
00000000
00000000
00000000
00000000
00000000
00000000
00000000
00000000
00000000
00000000
00000000
00000000
00000000
00000000
00000000
00000000
00000000
00000000
00000000
00000000
00000000
00000000
00000000
00000000
00000000
00000000
00000000
00000000
00000000
00000000
00000000
00000000
00000000
00000000
00000000
00000000
00000000
00000000
00000000
00000000
00000000
00000000
00000000
00000000
00000000
00000000
00000000
00000000
00000000
00000000
00000000
00000000
00000000
00000000
00000000
00000000
00000000
00000000
00000000
00000000
00000000
00000000
00000000
00000000
00000000
00000000
00000000
00000000
00000000
00000000
00000000
00000000
00000000
00000000
00000000
00000000
00000000
00000000
00000000
00000000
00000000
00000000
00000000
00000000
00000000
00000000
00000000
00000000
00000000
00000000
00000000
00000000
00000000
00000000
00030000
00000000
00000000
00000000
00000000
00000000
00000000
00000000
00000000
00000000
00000000
00000000
00000000
00000000
00000000
00000000
00000000
00000000
00000000
00000000
00000000
00000000
00000000
00000000
00000000
00000000
00000000
00000000
00000000
00000000
00000000
00000000
00000000
00000000
00000000
00000000
00000000
00000000
00000000
00000000
00000000
00000000
00000000
,
00200000
00000000
00000000
00300000
,
20000000
00000000
00000000
30000000
,
00000000
00000000
00000000
00000000
,
10000000
00010000
00100000
00100000
,
00001000
00010000
00100000
00000000
,
00010000
00001000
00010000
00010000
,
00000200
00000000
00000310
00000000
,
00000001
00001000
00000010
00000010
,
00010000
00001000
00000010
00000000
,
00001000
00010000
00001000
00001000
,
02000000
00000000
03100000
00000000
,
20000000
00000000
30020000
00000000
,
00230000
00000000
00300000
00000000
,
00001000
00001000
00001000
00000000
,
00010000
00010000
00010000
00000000
,
00002000
00000000
00023000
00000000
,
00030200
00000000
00000300
00000000
,
00001000
00001000
00001000
00000000
,
00002002
00000000
00000000
00003003
,
00000001
00001000
00000010
00000010
,
00010000
00001000
01000000
01000000
,
00010000
00000000
10000000
00010000
10000000
00000000
01000000
00000000
,
00200000
00000000
00000000
00300000
,
00001000
00010000
00000100
00001000
,
00000001
00000100
00000010
00010000
,
00022000
00033000
00001000
01000000
,
00020000
00000000
00000000
00030000
,
10000000
00010000
00100000
00100000
,
00001000
00010000
00000100
00000100
,
00001000
00000000
00000001
00001000
00000001
00000000
00000100
00000000
,
00000020
00000000
00000000
00000030
,
00010000
00001000
01000000
00010000
,
10000000
01000000
00100000
00001000
,
00022000
00033000
00010000
00000100
,
00002000
00000000
00000000
00003000
,
00000001
00000100
00001000
00000100
,
00000001
00000100
00001000
00001000
,
00010000
00000000
00001000
00010000
00001000
00000000
00010000
00000000
,
01000000
00100000
00001000
00010000
,
00002000
00000000
00010000
00000000
00013000
00000000
00000000
00022000
,
00000000
00000000
00000000
00000000
00000000
00000000
00000000
00000000
00000000
00000000
00000000
00000000
00000000
00000000
00000000
00000000
00000000
00000000
00000000
00000000
00000000
00000000
00000000
00030000
00003000
00000000
00000000
00000000
00000000
00000000
00000000
00000000
00000000
00000000
00000000
00000000
00000000
00000000
00000000
00000000
00000000
00000000
00000000
00000000
00000000
00000000
00000000
00000000
00000000
00000000
00000000
00000000
00000000
00000000
00000000
00000000
00000000
00000000
00000000
00000000
00000000
00000000
00000000
00000000
00000000
00000000
00000000
00000000
00000000
00000000
00000000
00000000
00000000
00000000
00000000
00000000
00000000
00000000
00000000
00000000
00000000
00000000
00000000
00000000
00000000
00000000
00000000
00000000
00000000
00000000
00000000
00000000
00000000
00000000
00000000
00000000
,
00011000
00000000
00000000
01100000
00000000
00000000
10010000
00000000
;

//--------------- dance-double - KAYSTAR ----------------
#NOTEDATA:;
#STEPSTYPE:dance-double;
#DESCRIPTION:KAYSTAR;
#DIFFICULTY:Medium;
#METER:10;
#RADARVALUES:0,0,0,0,0;
#CHARTNAME:;
#CHARTSTYLE:;
#CREDIT:;
#METERF:10;
#NOTES:
00000000
00000000
00000000
00000000
,
00000000
00000000
00000000
00000000
,
00000000
00000000
00000000
00000000
,
00000000
00000000
00000000
00000000
,
00000000
00000000
00000000
00000000
,
10000000
00010000
00100000
00100000
,
00001000
00010000
00000100
00000100
,
00001000
00000100
00000010
00000000
00000001
00001000
00000010
00000000
,
00020000
00001000
00031000
00011000
,
00001000
00010000
00001000
00000000
00100000
00000000
00001000
00010000
,
00001000
00000000
01000000
00000000
00010000
01000000
00100000
00000000
,
20000000
30020000
00230000
00300000
,
00002000
00023000
00032000
00003000
,
00010000
00001000
00010000
00000000
00000010
00000000
00010000
00001000
,
00010000
00000000
00000100
00000000
00001000
00000100
00000010
00000000
,
00000002
00000203
00002300
00013000
,
00011000
00000000
00022000
00033000
,
00001000
00001000
00001000
01000000
,
00010000
00000000
10000000
01000000
00100000
00000000
00001000
00000000
,
00020000
00000000
00031000
00000000
00020000
00000000
00031000
00001000
,
00000000
00011000
00000000
00010000
00001000
00010000
00001000
00000000
,
00010000
00010000
00010000
00000100
,
00001000
00000000
00000001
00000100
00000010
00000000
00010000
00000000
,
00002000
00000000
00013000
00000000
00002000
00000000
00013000
00010000
,
00000000
00011000
00000000
00001000
00010000
00001000
00010000
00000000
,
00002000
00000000
00013000
00100000
,
00020000
00000000
00031000
00000010
,
00002000
00000000
00013000
00100000
,
00020000
00000000
00031000
00011000
,
00000000
00000000
00010000
00000000
00000000
00000100
00000000
00000000
00001000
00000000
00000000
00000100
00000000
00000000
00010000
00000000
,
00000000
00000000
00001000
00000000
00000000
01000000
00000000
00000000
00010000
00000000
00000000
01000000
00000000
00000000
00001000
00000000
,
00000000
00000000
00010000
00000000
00000000
00000100
00000000
00000000
00001000
00000000
00000000
00000100
00000000
00000000
00010000
00000000
,
00002000
00000000
00003000
00011000
,
00010000
00000000
00001000
01000000
00010000
00000000
10000000
00010000
,
20000000
32000000
03200000
00310000
,
10000000
00000000
00100000
01000000
00010000
00000000
10000000
01000000
,
00100000
00002000
00023000
00030000
,
00001000
00000000
00010000
00000100
00001000
00000000
00000001
00001000
,
00000002
00000203
00000320
00001030
,
00000001
00000000
00000010
00000100
00001000
00000000
00000010
00000000
,
00010000
00001000
00010000
00002000
00000000
00013000
00000000
00000000
,
00001000
01000000
00010000
10000000
,
01000000
00100000
00001000
00010000
,
00002000
00023000
00230000
00300000
,
00200000
00320000
00032000
00003000
,
00010000
00000100
00001000
00000001
,
00000100
00000010
00010000
00001000
,
00020000
00000000
00032000
00000000
00003020
00000000
00000230
00000300
,
00020000
00000000
00030000
00011000
,
00001000
00010000
00001000
00000000
00010000
00001000
01000000
00000000
,
00010000
10000000
00010000
00000000
10000000
01000000
00100000
00000000
,
00020000
00000000
10030000
00000000
00100000
01000000
00010000
00000000
,
00100000
00000000
00000000
00100000
00000000
00000000
00100000
00000000
00000000
00100000
00000000
00000000
00100000
00000000
00000000
00000000
,
00001000
00010000
00001000
00000000
00020000
00000000
00031000
00000000
,
00000200
00000310
00020000
00031000
,
00022000
00000000
00033000
00000000
00001000
00010000
00001000
00000000
,
00010000
00000000
00000000
00010000
00000000
00000000
00001000
00000000
00000000
00001000
00000000
00000000
00011000
00000000
00000000
00000000
,
00010000
00001000
00010000
00000000
00001000
00010000
00000100
00000000
,
00001000
00000001
00001000
00000000
00000001
00000100
00000010
00000000
,
00002000
00000000
00003001
00000000
00000010
00000100
00001000
00000000
,
00000010
00000000
00000000
00000010
00000000
00000000
00000010
00000000
00000000
00000010
00000000
00000000
00000010
00000000
00000000
00000000
,
00010000
00001000
00010000
00000000
00002000
00000000
00013000
00000000
,
02000000
03100000
00002000
00013000
,
00022000
00000000
00033000
00000000
00001000
00010000
00001000
00000000
,
00010000
00000000
00000000
00010000
00000000
00000000
00001000
00000000
00000000
00001000
00000000
00000000
00011000
00000000
00000000
00000000
,
00010000
00001000
01000000
00000000
00010000
10000000
00010000
10000000
,
01000000
01100000
00010000
00011000
,
00001000
00010000
00000100
00000000
00001000
00000001
00001000
00000001
,
00000100
00000110
00001000
00011000
,
00010000
00000000
00000000
00010000
00000000
00000000
00001000
00000000
01000000
00000000
00000000
01000000
00000000
00000000
00020000
00000000
,
00000000
00000000
00030000
00000000
00000000
00010000
10000000
00010000
,
20000000
00000000
31000000
00200000
00000000
00310000
10000000
10010000
;

//--------------- dance-double - KAYSTAR ----------------
#NOTEDATA:;
#STEPSTYPE:dance-double;
#DESCRIPTION:KAYSTAR;
#DIFFICULTY:Hard;
#METER:14;
#RADARVALUES:0,0,0,0,0;
#CHARTNAME:;
#CHARTSTYLE:;
#CREDIT:;
#METERF:14;
#NOTES:
00000000
00000000
00000000
00000000
,
00000000
00000000
00000000
00000000
,
00000000
00000000
00000000
00000000
,
00000000
00000000
00000000
00000000
,
00000000
00000000
00000000
00000000
,
00000001
00000000
00001000
00000000
00000001
00000000
00001000
00000010
00000000
00000010
00010000
00000000
00001000
00010000
00001000
00000000
,
00010000
00000000
00001000
00000000
00010000
00000000
00001000
01000000
00000000
01000000
00010000
00000000
20000000
00000000
00000000
00000000
,
31000000
00100000
00010000
00100000
00001000
00010000
00000100
00001000
,
00000100
00000000
00000010
00000000
00000001
00000000
00001000
00000010
00000000
00000010
00010000
00000000
00001000
01000000
00000000
01000000
,
00010000
10000000
01000000
00000000
00120000
00000000
10030000
00200000
,
00000000
01300000
00010000
10000000
01000000
00100000
00010000
01000000
,
00001000
00010000
00001000
00000000
00012000
00000000
00003010
00000100
,
00010000
00001000
00010000
00000000
00012000
00000000
00003010
00000100
,
00001000
00000001
00000100
00000000
00000010
00001000
00000001
00000020
,
00000000
00000130
00001000
00000001
00000100
00000010
00001000
00000100
,
00010000
00001000
00010000
00000000
00021000
00000000
00130000
01000000
,
00020000
00000000
20000000
30030000
,
10000000
01000000
00100000
00000000
00120000
00000000
10030000
00200000
,
00000000
01300000
00010000
20000000
00000000
31000000
00100000
00001000
,
00020000
00000000
00031000
00000100
00002000
00000000
00013000
00011000
,
00000000
00000000
00011000
00000000
00000000
00000000
00020000
00030000
00000200
00000300
00002000
00003000
00000002
00000003
00000000
00000000
,
00000001
00000100
00000010
00000000
00002010
00000000
00003001
00000020
,
00000000
00000000
00000130
00000000
00001000
00000000
00000001
00000000
00000100
00000000
00001000
00000000
00010000
00001000
00010000
00000000
,
00002000
00000000
00013000
01000000
00100000
00001000
00010000
00011000
,
00000000
00000000
01100000
00000000
00000000
00000000
10010000
00000000
10000000
00010000
10000000
00000000
00010000
10000000
00010000
00000000
,
20000000
00000000
00100000
00000000
00000000
00100000
00000000
00000000
00010000
00000000
00000000
00010000
00000000
00000000
32000000
00000000
,
00000000
00000000
00100000
00000000
00000000
00010000
00000000
00000000
00001000
00000000
00000000
00010000
00000000
00000000
03200000
00000000
,
00000000
00000000
00001000
00000000
00000000
00010000
00000000
00000000
01000000
00000000
00000000
00010000
00000000
00000000
00301000
00000000
,
00000000
00000000
00010000
00000000
00000000
00000100
00000000
00000000
00001000
00000001
00001000
00000000
00001001
00000000
00000000
00000000
,
00000002
00000000
00000010
00000000
00000000
00000010
00000000
00000000
00001000
00000000
00000000
00001000
00000000
00000000
00000203
00000000
,
00000000
00000000
00000010
00000000
00000000
00001000
00000000
00000000
00010000
00000000
00000000
00001000
00000000
00000000
00000320
00000000
,
00000000
00000000
00010000
00000000
00000000
00001000
00000000
00000000
00000100
00000000
00000000
00001000
00000000
00000000
00010030
00000000
,
00011000
00000000
00001000
00011000
00000000
00010000
00011000
00000000
,
00010000
00001000
00010000
00000100
00000010
00000001
00001000
00000010
,
00010000
00000000
00000100
00000000
00001000
00000000
00000010
00000000
00010000
00000000
00001000
00000000
00010000
00000000
00001000
00010000
,
00001000
00010000
00100000
00010000
00001000
00100000
01000000
20000000
,
00000000
30100000
01000000
00020000
00000000
10030000
01000000
00100000
,
00001000
00010000
00001000
01000000
00100000
10000000
00010000
00100000
,
00001000
01000000
00010000
00100000
00001000
00010000
00000100
00000010
,
00000002
00000000
00000000
00000000
00001003
00000000
00000001
00001000
00000001
00000000
00001000
00000001
00001000
00000000
00000010
00000000
,
00010000
00001000
00010000
01000000
00010000
00001000
00011000
00000000
,
00002000
00000000
00010000
00000000
02003000
00000000
03010000
20000000
,
00000000
31000000
00100000
00010000
00200000
00302000
00013000
00000000
,
00020000
00000000
00001000
00000000
00230000
00000000
01300000
00001000
,
00020000
00000000
00001000
00000000
00230000
00000000
01300000
00001000
,
00020000
00001000
00001000
00000000
00030200
00000000
00001300
00000002
,
00000000
00000000
00000103
00000000
00000010
00000000
00001000
00000000
00000020
00002030
00003020
00000030
00010000
00000000
00000000
00000000
,
00002000
00010000
00010000
00000000
00003020
00000000
00000130
00010000
,
00022000
00000000
00033000
00011000
,
00010000
00001000
00000000
00010000
00001000
00000000
01000000
00000000
00010000
10000000
00000000
00010000
10000000
00000000
01000000
00000000
,
00200000
00000000
00000000
00000000
00301000
00000000
00010000
00000000
00100000
00000000
00010000
00000000
00001000
00000000
00010000
00001000
,
00020000
00000000
00030100
00001000
00000100
00000010
00000001
00001000
,
00001001
00000000
00000000
00010010
00000000
00000000
00011000
00000000
00000000
00010100
00000000
00000000
00001001
00000000
00000000
00000000
,
00000001
00001000
00000000
00001000
00000010
00000000
00010000
00000000
00001000
01000000
00000000
01000000
00010000
00000000
10000000
00000000
,
11000000
00000000
00000000
01000000
00100000
00000000
00010000
00000000
01010000
00000000
00000000
01000000
00100000
00000000
10000000
00000000
,
12000000
00000000
03100000
00010000
00100000
00001000
00010000
00002000
,
00000100
00000000
00000000
00010000
00000000
00000000
00000100
00000000
00000000
00013000
00000000
00000000
00011000
00000000
00000000
00000000
,
00001000
00010000
00000000
00001000
00010000
00000000
00000100
00000000
00001000
00000001
00000000
00001000
00000001
00000000
00000100
00000000
,
00000020
00000000
00000000
00000000
00010030
00000000
00001000
00000000
00000010
00000000
00000100
00000000
00010000
00000000
00001000
00010000
,
00002000
00000000
01003000
00010000
01000000
00100000
10000000
00010000
,
10010000
00000000
00000000
00101000
00000000
00000000
00011000
00000000
00000000
01001000
00000000
00000000
10010000
00000000
00000000
00000000
,
10000000
00010000
00000000
00010000
00100000
00000000
00001000
00000000
00010000
00000100
00000000
00000100
00001000
00000000
00000001
00000000
,
00000101
00000000
00000000
00000100
00000010
00000000
00001000
00000000
00001100
00000000
00000000
00000100
00000010
00000000
00000001
00000000
,
00000201
00000000
00000310
00001000
00000010
00010000
00001000
00020000
,
01000000
00000000
00000000
00001000
00000000
00000000
01000000
00000000
00000000
00031000
00000000
00000000
00011000
00000000
00010000
00001000
,
00010000
00001000
01000000
00100000
00010000
10000000
01000000
10000000
,
00010000
00100000
01000000
00010000
10000000
01000000
00100000
00001000
,
00010000
00001000
00000100
00001000
00010000
00001000
00100000
00010000
,
00001000
00000100
00010000
00001000
00000100
00000010
00000100
00001000
,
00010000
00000000
00000000
00011000
00000000
00000000
00001000
00000000
00010000
00000000
00000000
00000100
00000000
00000000
00002002
00000000
,
00000000
00000000
00000000
00000000
00003003
00000000
00000000
00000000
00000000
00000000
00000001
00000000
00001000
00000001
00001000
00000000
,
00001001
00000001
00001000
00001010
00000010
00010000
00011000
00011000
;
