#VERSION:0.83;
#TITLE:幻影ノ消失;
#SUBTITLE:;
#ARTIST:Xceon feat. Mayumi Morinaga;
#TITLETRANSLIT:Genei no shoushitsu;
#SUBTITLETRANSLIT:;
#ARTISTTRANSLIT:;
#GENRE:;
#CREDIT:;
#MUSIC:Genei no shoushitsu.ogg;
#BANNER:Genei no shoushitsu.png;
#BACKGROUND:b4u-bg.png;
#CDTITLE:./CDTitles/REFLEC BEAT VOLZZA.png;
#SAMPLESTART:14.008;
#SAMPLELENGTH:15.000;
#SELECTABLE:YES;
#OFFSET:0.570;
#BPMS:0.000=160.000;
#STOPS:250.500=0.375;
#TIMESIGNATURES:0.000=4=4,
248.000=7=4,
255.000=4=4
;
#BGCHANGES:0.000=../BGAs/19po.mp4=1.000=0=0=0=StretchNoLoop====,
99999.000=-nosongbg-=1.000=0=0=0=StretchNoLoop====
;
#FGCHANGES:;

//--------------- dance-single - forcednature ----------------
#NOTEDATA:;
#STEPSTYPE:dance-single;
#DESCRIPTION:forcednature;
#DIFFICULTY:Beginner;
#METER:2;
#RADARVALUES:0,0,0,0,0;
#OFFSET:0.570;
#BPMS:0.000=160.000;
#TIMESIGNATURES:0.000=4=4;
#CREDIT:forcednature;
#NOTES:
0000
0000
0000
0000
,
0000
0000
0000
0000
,
0000
0000
0000
0000
,
0000
0000
0000
0000
,
0000
0000
0000
0000
,
0001
0000
0000
0000
,
0000
0000
0000
0000
,
1000
0000
0000
0000
,
0000
0000
0000
0000
,
0000
0000
0000
0000
,
1001
0000
0000
0000
,
0000
0000
0000
0000
,
0001
0000
0000
0000
,
0000
0000
0000
0000
,
0010
0000
0000
0000
,
0000
0000
0000
0000
,
0100
0000
0000
0000
,
0000
0000
0000
0000
,
2000
0000
0000
0000
,
0000
0000
0000
0000
,
0000
0000
0000
0000
,
3000
0000
0000
0000
,
0001
0000
0000
0000
,
0000
0000
0000
0000
,
0001
0000
0000
0000
,
0000
0000
0000
0000
,
0100
0000
0000
0000
,
0000
0000
0000
0000
,
0010
0000
0000
0000
,
0000
0000
0000
0000
,
1000
0000
0000
0000
,
0001
0000
0000
0000
,
0001
0000
0000
0000
,
1000
0000
0000
0000
,
0010
0000
0000
0000
,
0100
0000
0000
0000
,
0100
0000
0000
0000
,
0020
0000
0000
0000
,
0000
0000
0000
0000
,
0030
0000
0000
0000
,
1001
0000
0000
0000
,
0000
0000
0000
0000
,
1000
0000
0000
0000
,
0000
0000
0000
0000
,
0100
0000
0000
0000
,
0000
0000
0000
0000
,
0010
0000
0000
0000
,
0000
0000
0000
0000
,
0002
0000
0000
0000
,
0000
0000
0000
0000
,
0000
0000
0000
0000
,
0003
0000
0000
0000
,
1000
0000
0000
0000
,
1000
0000
0000
0000
,
0010
0000
0000
0000
,
0100
0000
0000
0000
,
0001
0000
0001
0000
,
0001
0000
0000
0000
,
1000
0000
1000
0000
,
1000
0000
0000
0000
,
0002
0000
0000
0000
,
0003
0000
0000
0000
,
2000
0000
0000
3000
,
0000
1001
0000
0000
,
0000
0000
0000
0000
,
0001
0000
0000
0000
,
0000
0000
0000
0000
,
0010
0000
0000
0000
,
0000
0000
0000
0000
,
0001
0000
0000
0000
,
1000
0000
0000
0000
,
0002
0000
0000
0000
,
0003
0000
0000
0000
,
2000
0000
0000
0000
,
3000
0000
0000
0000
,
0001
0000
0000
0000
,
0100
0000
0000
0000
,
0010
0000
0000
0000
,
1000
0000
0000
0000
,
2002
0000
0000
0000
,
0000
0000
0000
0000
,
3003
0000
0000
0000
;

//--------------- dance-single - forcednature ----------------
#NOTEDATA:;
#STEPSTYPE:dance-single;
#DESCRIPTION:forcednature;
#DIFFICULTY:Easy;
#METER:6;
#RADARVALUES:0,0,0,0,0;
#OFFSET:0.570;
#BPMS:0.000=160.000;
#TIMESIGNATURES:0.000=4=4;
#CREDIT:forcednature;
#NOTES:
0000
0000
0000
0000
,
0000
0000
0000
0000
,
0000
0000
0000
0000
,
0000
0000
0000
0000
,
0000
0000
0000
0000
,
2000
0000
3000
0000
,
0001
0000
0100
0000
,
0002
0000
0003
0000
,
1000
0000
0100
0000
,
1001
0000
0000
0000
,
1000
1000
1000
0000
,
0001
0000
0010
0000
,
0001
0001
0001
0000
,
1000
0000
0010
0000
,
0100
0100
0100
0000
,
0001
0000
1000
0000
,
0100
0100
0100
0000
,
0010
0000
0100
0000
,
2002
0000
0000
0000
,
3003
0000
0000
0000
,
0220
0000
0000
0000
,
0330
0000
0000
0000
,
0001
0000
0000
0000
,
0001
0000
0000
0000
,
0100
0000
0000
0000
,
0010
0000
0000
0000
,
1000
0000
1000
0000
,
0001
0000
0000
0000
,
0001
0000
0001
0000
,
1000
0000
0000
0000
,
1001
0000
0000
0000
,
0001
0000
0100
0000
,
0110
0000
0000
0000
,
0010
0000
1000
0000
,
1001
0000
0000
0000
,
1000
0000
0100
0000
,
0110
0000
0000
0000
,
0010
0000
0001
0000
,
1001
0000
0000
0000
,
0220
0000
0330
0000
,
0001
0001
0001
0000
,
0100
0010
0100
0000
,
0001
0001
0001
0000
,
0010
0000
0100
0000
,
1000
1000
1000
0000
,
0001
0100
0001
0000
,
1000
1000
1000
0000
,
0100
0000
0010
0000
,
2002
0000
0000
0000
,
3003
0000
0000
0000
,
0220
0000
0000
0000
,
0000
0000
0330
0000
,
0001
1000
0001
1000
,
0001
0100
0001
0000
,
1000
0100
0010
0100
,
1000
0100
0010
0000
,
0001
0001
1000
1000
,
0001
1000
1000
0001
,
0100
0100
0010
0010
,
0100
0001
1000
0002
,
0000
0000
0003
0000
,
0010
0001
1000
0002
,
0000
0000
0000
0003
,
0000
1001
0000
0000
,
1000
0010
1000
0000
,
0001
0001
0001
0000
,
0010
0000
0100
0000
,
1000
1000
1000
0000
,
0001
0010
0001
0000
,
1000
1000
1000
0000
,
0010
0000
0100
0000
,
0220
0000
0000
0000
,
0330
0000
0000
0000
,
2002
0000
0000
0000
,
3003
0000
0000
0000
,
0001
0000
0001
1000
,
0001
0000
0010
0000
,
0100
0000
0100
1000
,
0100
0000
0010
0000
,
2002
0000
0000
0000
,
0000
0000
0000
0000
,
3003
0000
0000
0000
;

//--------------- dance-single - forcednature ----------------
#NOTEDATA:;
#STEPSTYPE:dance-single;
#DESCRIPTION:forcednature;
#DIFFICULTY:Medium;
#METER:10;
#RADARVALUES:0,0,0,0,0;
#CREDIT:forcednature;
#NOTES:
0000
0000
0000
0000
,
0000
0000
0000
0000
,
0000
0000
0000
0000
,
0000
0000
0000
0000
,
0000
0000
0000
0000
,
0001
0000
0001
1000
0000
1000
0001
0000
,
0010
0010
0100
0000
,
1000
0000
1000
0001
0000
0001
1000
0000
,
0010
0010
0100
0000
,
2002
0000
3003
0000
,
1000
0100
1000
0000
0001
0000
0010
0000
,
0100
0110
1001
0000
,
0001
0100
0001
0000
1000
0000
0010
0000
,
0001
0010
1000
0000
,
0100
0010
0100
0000
1000
0000
0001
0000
,
0100
0110
1001
0000
,
0001
1000
0001
0000
0010
0000
0100
0000
,
0001
0100
1000
0100
,
0020
0000
0000
0001
0000
0001
0000
0000
,
0130
1000
0001
0100
,
0020
0000
0000
1000
0000
1000
0000
0000
,
0130
0001
1000
0100
,
0110
0000
0000
0010
0000
0010
0000
0000
,
0001
0000
0000
0100
0000
0100
0000
0000
,
0010
0000
0000
1000
0000
0001
0000
0000
,
0100
0000
0000
0001
0000
1000
0000
0000
,
1001
0000
0001
0100
0001
0000
1000
0000
,
0100
0010
0001
0100
,
0010
0000
1000
0010
1000
0000
0001
0000
,
0010
0000
0200
0000
0300
1000
1000
0000
,
0002
0000
0100
0100
0000
0103
0000
0000
,
0001
0010
0100
1000
,
2000
0000
0100
3100
0000
0100
0000
0000
,
1000
0010
1000
0001
,
0020
0000
0100
0100
0000
0130
0000
0000
,
0010
0001
1000
0010
,
0200
0000
0010
0010
0000
0310
0000
0000
,
1000
0000
0001
1000
0001
0000
0010
0000
,
0220
0000
0000
0330
,
2002
0000
0000
3003
,
0001
0100
0001
0000
1000
0000
0010
0000
,
0100
0110
1001
0000
,
1000
0100
1000
0000
0001
0000
0010
0000
,
1000
0010
0001
0000
,
0100
0010
0100
0000
0001
0000
1000
0000
,
0100
0110
1001
0000
,
1000
0001
1000
0000
0010
0000
0100
0000
,
1000
0100
0001
0100
,
0020
1000
0100
1000
,
0130
0001
1000
0100
,
0020
0001
0100
0001
,
0130
1000
0001
0100
,
0220
0000
0000
0330
,
0001
1000
0001
0000
0010
0000
0100
0000
,
2002
0000
0000
3003
,
1000
0001
1000
0000
0010
0000
0100
0000
,
0220
0030
0002
0303
,
0001
0010
0100
1000
,
2200
0300
0002
3003
,
0001
1000
0001
0000
0100
0000
0010
0000
,
2000
0000
0000
3000
,
1000
0001
1000
0000
0100
0000
0010
0000
,
2002
0000
0000
0000
0000
3003
0000
0000
,
0101
0001
0010
0100
,
0110
0000
1001
0000
0000
0000
0001
0100
,
0001
1000
0010
0001
,
0010
0000
1000
0000
0000
0000
0100
0010
,
0100
1000
0001
0100
,
0110
0000
1001
0000
0000
0000
0001
1000
,
0001
0010
0100
0001
,
0100
1000
0100
0020
,
0000
0001
0000
0001
0000
0000
0130
0000
,
1000
0001
0100
0020
,
0000
1000
0000
1000
0000
0000
0130
0000
,
0001
1000
0100
0010
,
0001
0010
0001
0000
0100
0000
0010
0000
,
1000
0100
1000
0010
,
1000
0001
1000
0000
0010
0000
0100
0000
,
0001
0010
0001
2002
,
0000
0000
0000
0000
,
0000
0000
0000
3003
;

//--------------- dance-single - forcednature ----------------
#NOTEDATA:;
#STEPSTYPE:dance-single;
#DESCRIPTION:forcednature;
#DIFFICULTY:Hard;
#METER:13;
#RADARVALUES:0,0,0,0,0;
#CREDIT:forcednature;
#NOTES:
0000
0000
0000
0000
,
0000
0000
0000
0000
,
0000
0000
0000
0000
,
0000
0000
0000
0000
,
0000
0000
0000
0000
,
0001
1000
0001
0010
0000
0100
1000
0001
,
0000
0000
0100
0000
0010
0000
1000
0000
0100
0000
0010
0000
0001
0010
0001
0000
,
1000
0001
1000
0010
0000
0100
0001
1000
,
0000
0001
0001
0010
0000
0100
1000
0001
,
2002
0000
3003
0000
,
1000
0010
0001
1000
0001
0010
1000
0000
,
0001
0000
1000
0100
0000
0000
1000
0000
0002
0000
0000
0000
0013
0000
0000
0000
,
0001
0100
1000
0001
0010
1000
0001
0000
,
1000
0000
0000
0010
0000
0000
0100
0000
0001
0000
0001
0000
1000
0000
0000
0000
,
0001
0010
1000
0001
1000
0010
0001
0000
,
1000
0000
0001
0100
0000
0000
0001
0000
2000
0000
0000
0000
3010
0000
0000
0000
,
1000
0100
0001
1000
0010
0001
1000
0000
,
0010
0000
0000
0100
0000
0000
0010
0000
1000
0000
1000
0000
0001
0000
1000
0000
,
0002
0000
0010
0010
0000
1003
0001
1000
,
0000
0010
0100
0001
1000
0001
0100
0010
,
2000
0000
0100
0100
0000
3001
1000
0001
,
0000
0100
0010
1000
0000
0001
0010
1000
,
0010
0000
0000
0011
0000
1001
0000
0000
,
1000
0000
0000
1100
0000
1001
0000
0000
,
0001
0000
0000
0101
0000
1100
0000
0000
,
1000
0000
0000
1010
0000
0011
0000
0000
,
0001
1000
0001
0010
0100
1000
0001
1000
,
0010
0100
0001
1000
0001
0010
0100
1000
,
0001
1000
0010
0100
0010
0001
1000
0100
,
0010
0100
0001
1000
0000
1001
1001
0000
,
0001
0000
1000
0001
0010
0000
0100
0000
0000
0000
2000
0000
3002
0000
0003
0000
,
1000
0000
0001
1000
0010
0000
0100
0000
0000
0000
0002
0000
2003
0000
3000
0000
,
0100
0000
1000
0100
1000
0000
0001
0000
0000
0000
2000
0000
3020
0000
0230
0000
,
0301
0000
1000
0001
1000
0000
0100
0000
0000
0000
0020
0000
0032
0000
2003
0000
,
3010
0000
0100
0001
1000
0000
0010
0000
0000
0000
2000
0000
3200
0000
0302
0000
,
0103
0000
1000
0100
0010
0000
0001
0000
0000
0000
0020
0000
2030
0000
3020
0000
,
0031
0000
0010
0001
1000
0000
0001
0000
0000
0000
0200
0000
0320
0000
2030
0000
,
3001
1000
0100
0001
0100
1000
0001
0100
,
2000
0000
0000
0000
,
3200
0000
0000
0000
0000
0000
0300
0000
0001
0000
0100
0000
0001
1000
0001
1000
,
0001
0010
1000
0001
1000
0010
0001
0000
,
1000
0000
0001
0010
0000
0000
0100
0000
1000
0001
1000
0000
0001
0000
0000
0000
,
1000
0010
0001
1000
0001
0010
1000
0000
,
0001
0000
0000
0010
0000
0000
0100
0000
1100
0000
0000
0000
0011
0000
0000
0000
,
0001
0100
1000
0001
0010
1000
0100
0000
,
0010
0000
0001
1000
0000
0000
0010
0000
0100
0001
0100
0000
0001
0000
0000
0000
,
1000
0100
0001
1000
0010
0001
1000
0000
,
0010
0000
0000
1000
0000
0000
0010
0000
1000
0001
1000
0000
0100
0000
0010
0000
,
0002
0010
1000
0013
,
1000
0010
0100
0001
1000
0001
0010
0100
,
2000
0000
0200
0300
0002
0003
0020
0030
,
3001
0100
1000
0100
0010
0001
0010
1000
,
0200
0000
0000
0000
0000
0000
0300
1000
,
0001
1000
0001
1000
0001
0000
0010
0000
0100
1000
0001
0000
0200
0000
0000
0000
,
0320
0000
0000
0000
0000
0030
1000
0010
1000
0000
0010
0000
0100
0000
0002
0000
,
0000
0003
0010
0001
0010
0000
0100
0010
0100
0000
1000
0100
1000
0000
0001
0000
,
0100
0000
0010
0000
1000
0000
0001
0000
0100
0001
0100
0001
2000
0000
0000
0000
,
3100
0000
0010
0000
0001
0000
1000
0000
0100
1000
0100
1000
0002
0000
0000
0000
,
1003
0010
0100
0010
0001
0010
1000
0100
,
0010
0000
0001
0010
0001
0000
1000
0010
1000
0000
0001
1000
0001
0000
0200
0000
,
0000
0000
0000
0000
0000
0000
0000
0300
,
0010
0000
1000
0010
1000
0000
0001
0010
0001
0000
1000
0001
1000
0000
0200
0000
,
0000
0000
0000
0000
0000
0300
0000
0000
,
0001
0000
0100
0000
1000
0000
0001
0000
0100
0000
0000
0000
0010
0000
1000
0010
,
1000
0001
0010
0000
1001
0000
0001
0100
,
1000
0000
0100
0000
0001
0000
1000
0000
0100
0000
0000
0000
0010
0000
0001
0010
,
0001
1000
0010
0000
1001
0000
1000
0010
,
0001
0000
1000
0000
0001
0000
0010
0000
1000
0000
0000
0000
0001
0000
0100
0001
,
1000
0100
0010
0000
1001
0000
0001
0010
,
1000
0000
0001
0000
1000
0000
0010
0000
0001
0000
0000
0000
1000
0000
0100
1000
,
0001
0100
0010
0000
1001
0000
1000
0001
,
1000
0100
0000
0010
0001
1000
0000
0010
,
0100
0001
0010
0100
1000
0000
1001
1000
,
0001
0100
0000
0010
1000
0001
0000
1000
,
0100
0000
0010
0000
0001
0000
0100
0000
0010
0000
0000
0000
1010
0000
0010
1000
,
0001
0000
0100
0000
0001
0000
1000
0000
0100
0000
1000
0000
0001
0000
0010
0100
,
1000
0000
0010
0100
0001
0000
1000
0000
0100
0000
0000
0000
1100
0000
0100
1000
,
0001
0100
0010
1000
0100
0010
0001
0100
,
1000
0000
0100
0000
0001
0000
1000
0000
0100
0010
0001
0000
0020
0000
0000
0000
,
0000
0000
0000
0000
,
0000
0000
0000
0030
;

//--------------- dance-double - forcednature ----------------
#NOTEDATA:;
#STEPSTYPE:dance-double;
#DESCRIPTION:forcednature;
#DIFFICULTY:Easy;
#METER:6;
#RADARVALUES:0,0,0,0,0;
#OFFSET:0.570;
#BPMS:0.000=160.000;
#TIMESIGNATURES:0.000=4=4;
#CREDIT:forcednature;
#NOTES:
00000000
00000000
00000000
00000000
,
00000000
00000000
00000000
00000000
,
00000000
00000000
00000000
00000000
,
00000000
00000000
00000000
00000000
,
00000000
00000000
00000000
00000000
,
00002000
00000000
00003000
00000000
,
00010000
00000000
00001000
00000000
,
00020000
00000000
00030000
00000000
,
00001000
00000000
00100000
00000000
,
00010000
00000000
00000000
00000000
,
10000000
10000000
10000000
00000000
,
00010000
00000000
00100000
00000000
,
00001000
00001000
00001000
00000000
,
00010000
00000000
00001000
00000000
,
00010000
00010000
00010000
00000000
,
00000010
00000000
00001000
00000000
,
00000001
00000001
00000001
00000000
,
00000100
00000000
00001000
00000000
,
00022000
00000000
00000000
00000000
,
00033000
00000000
00000000
00000000
,
00200000
00000000
00000000
00000000
,
00300000
00000000
00000000
00000000
,
00010000
00000000
00000000
00000000
,
00010000
00000000
00000000
00000000
,
01000000
00000000
00000000
00000000
,
00100000
00000000
00000000
00000000
,
10000000
00000000
10000000
00000000
,
00010000
00000000
00000000
00000000
,
00010000
00000000
00010000
00000000
,
00100000
00000000
00000000
00000000
,
00011000
00000000
00000000
00000000
,
00001000
00000000
00010000
00000000
,
00011000
00000000
00000000
00000000
,
00010000
00000000
00001000
00000000
,
00000010
00000000
00000000
00000000
,
00000010
00000000
00000100
00000000
,
00000110
00000000
00000000
00000000
,
00000100
00000000
00001000
00000000
,
00001001
00000000
00000000
00000000
,
00000220
00000000
00000330
00000000
,
00000001
00000001
00000001
00000000
,
00001000
00000010
00001000
00000000
,
00000001
00000001
00000001
00000000
,
00000010
00000000
00001000
00000000
,
00010000
00010000
00010000
00000000
,
00001000
00010000
00001000
00000000
,
01000000
01000000
01000000
00000000
,
00010000
00000000
10000000
00000000
,
20020000
00000000
00000000
00000000
,
30030000
00000000
00000000
00000000
,
02200000
00000000
00000000
00000000
,
00000000
00000000
03300000
00000000
,
00010000
00100000
00010000
00100000
,
00001000
00010000
00001000
00000000
,
00010000
00000010
00001000
00000010
,
00010000
00000010
00001000
00000000
,
00000001
00000001
00001000
00001000
,
00000001
00001000
00000001
00000000
,
00000100
00001000
00010000
00001000
,
00010000
00010000
00001000
00020000
,
00000000
00000000
00030000
00000000
,
00001000
00001000
00010000
00000020
,
00000000
00000000
00000000
00000030
,
00000000
00001001
00000000
00000000
,
00000001
00000010
00000001
00000000
,
00001000
00001000
00001000
00000000
,
00000100
00000000
00010000
00000000
,
00001000
00001000
00001000
00000000
,
00100000
00010000
00100000
00000000
,
01000000
01000000
01000000
00000000
,
10000000
00000000
00010000
00000000
,
20020000
00000000
00000000
00000000
,
30030000
00000000
00000000
00000000
,
02200000
00000000
00000000
00000000
,
03300000
00000000
00000000
00000000
,
00010000
00000000
00010000
01000000
,
00010000
00000000
00100000
00000000
,
00001000
00000000
00001000
00010000
,
00001000
00000000
00010000
00000000
,
00022000
00000000
00000000
00000000
,
00000000
00000000
00000000
00000000
,
00033000
00000000
00000000
00000000
;

//--------------- dance-double - forcednature ----------------
#NOTEDATA:;
#STEPSTYPE:dance-double;
#DESCRIPTION:forcednature;
#DIFFICULTY:Medium;
#METER:10;
#RADARVALUES:0,0,0,0,0;
#CREDIT:forcednature;
#NOTES:
00000000
00000000
00000000
00000000
,
00000000
00000000
00000000
00000000
,
00000000
00000000
00000000
00000000
,
00000000
00000000
00000000
00000000
,
00000000
00000000
00000000
00000000
,
00001000
00000000
00001000
00010000
00000000
00010000
00001000
00000000
,
00100000
00100000
00001000
00000000
,
00010000
00000000
00010000
00001000
00000000
00001000
00010000
00000000
,
00000010
00000010
00001000
00000000
,
00002002
00000000
00003003
00000000
,
00000001
00001000
00000001
00000000
00000100
00000000
00001000
00000000
,
00010000
00001000
00011000
00000000
,
00010000
00001000
00010000
00000000
00001000
00000000
00010000
00000000
,
00100000
10000000
01000000
00000000
,
00100000
01000000
00100000
00000000
01000000
00000000
10000000
00000000
,
01000000
00010000
00011000
00000000
,
00001000
00010000
00001000
00000000
00000010
00000000
00001000
00000000
,
00010000
00001000
00000100
00000001
,
00000200
00000000
00000000
00000010
00000000
00000010
00000000
00000000
,
00000301
00000100
00001000
00010000
,
00200000
00000000
00000000
01000000
00000000
01000000
00000000
00000000
,
10300000
01000000
00010000
00001000
,
00011000
00000000
00000000
00010000
00000000
00010000
00000000
00000000
,
00001000
00000000
00000000
00000010
00000000
00000010
00000000
00000000
,
00000001
00000000
00000000
00000010
00000000
00000100
00000000
00000000
,
00001000
00000000
00000000
00000010
00000000
00000100
00000000
00000000
,
00000110
00000000
00000010
00001000
00000010
00000000
00000100
00000000
,
00000001
00000010
00001000
00010000
,
00001000
00000000
00010000
00001000
00010000
00000000
00100000
00000000
,
10000000
00000000
02000000
00000000
03000000
10000000
10000000
00000000
,
00020000
00000000
01000000
01000000
00000000
01030000
00000000
00000000
,
00001000
00010000
00010000
00001000
,
00020000
00000000
00000100
00000100
00000000
00030100
00000000
00000000
,
00010000
00001000
00000010
00000001
,
00000020
00000000
00000100
00000100
00000000
00000130
00000000
00000000
,
00000010
00000001
00000100
00001000
,
00020000
00000000
00001000
00001000
00000000
00031000
00000000
00000000
,
00010000
00000000
00001000
00010000
00001000
00000000
00100000
00000000
,
02000000
00000000
00000000
03000000
,
20020000
00000000
00000000
30030000
,
00010000
01000000
00010000
00000000
10000000
00000000
00100000
00000000
,
00010000
00001000
00011000
00000000
,
00010000
00001000
00010000
00000000
00001000
00000000
00000010
00000000
,
00000001
00000100
00001000
00000000
,
00000100
00000010
00000100
00000000
00000001
00000000
00000010
00000000
,
00001000
00010000
00011000
00000000
,
00001000
00010000
00001000
00000000
00010000
00000000
00100000
00000000
,
10000000
01000000
00010000
00001000
,
00020000
00000010
00001000
00000010
,
00031000
00010000
00000100
00010000
,
00002000
00010000
00100000
00010000
,
00103000
00010000
01000000
00100000
,
20020000
00000000
00000000
30030000
,
10000000
00010000
10000000
00000000
00100000
00000000
00010000
00000000
,
00002000
00000000
00013000
00001000
,
00010000
00001000
00010000
00000000
00001000
00000000
00000010
00000000
,
00000002
00000010
00001000
00000103
,
00000001
00000100
00001000
00010000
,
00200000
00000000
01000000
01300000
,
00010000
10000000
00010000
00000000
00100000
00000000
01000000
00000000
,
20000000
00000000
00000000
30000000
,
10000000
00010000
10000000
00000000
01000000
00000000
00010000
00000000
,
00022000
00000000
00000000
00000000
00000000
00033000
00000000
00000000
,
00011000
00001000
00000010
00000001
,
00001001
00000000
00000110
00000000
00000000
00000000
00000001
00001000
,
00000001
00000010
00000100
00000001
,
00000100
00000000
00001000
00000000
00000000
00000000
00000001
00000100
,
00000001
00000100
00001000
00010000
,
00011000
00000000
00101000
00000000
00000000
00000000
00100000
00010000
,
00100000
01000000
00010000
01000000
,
10000000
00100000
00010000
00022000
,
00000000
00000000
00033000
00010000
,
00001000
00000010
00000001
00002002
,
00000000
00000000
00003003
00000001
,
00000100
00001000
00010000
00011000
,
00001000
00010000
00001000
00000000
00010000
00000000
00100000
00000000
,
10000000
01000000
00010000
00001000
,
00010000
00001000
00010000
00000000
00001000
00000000
00000010
00000000
,
00000001
00000100
00001000
00022000
,
00000000
00000000
00000000
00000000
,
00000000
00000000
00000000
00033000
;

//--------------- dance-double - forcednature ----------------
#NOTEDATA:;
#STEPSTYPE:dance-double;
#DESCRIPTION:forcednature;
#DIFFICULTY:Hard;
#METER:13;
#RADARVALUES:0,0,0,0,0;
#CREDIT:forcednature;
#NOTES:
00000000
00000000
00000000
00000000
,
00000000
00000000
00000000
00000000
,
00000000
00000000
00000000
00000000
,
00000000
00000000
00000000
00000000
,
00000000
00000000
00000000
00000000
,
00001000
00010000
00001000
00100000
00000000
00010000
10000000
01000000
,
00000000
00100000
00010000
10000000
00010000
01000000
00001000
00000000
,
00010000
00001000
00010000
00000010
00000000
00001000
00000001
00000100
,
00000000
00000010
00001000
00000001
00001000
00000100
00010000
00000000
,
00022000
00000000
00033000
00000000
,
00001000
00010000
01000000
10000000
00010000
00100000
00001000
00000000
,
00010000
00000000
00001000
00010000
00000000
00000000
00001000
00000000
00000020
00000000
00000000
00000000
00000130
00000000
00000000
00000000
,
00001000
00000001
00000100
00001000
00010000
00000010
00001000
00000000
,
00000001
00000000
00000000
00000010
00000000
00000000
00001000
00000000
00010000
00000000
00000000
00000000
00011000
00000000
00000000
00000000
,
00001000
00010000
01000000
00100000
00010000
01000000
10000000
00000000
,
01000000
00000000
00010000
01000000
00000000
00000000
00010000
00000000
00200000
00000000
00000000
00000000
00301000
00000000
00000000
00000000
,
00010000
00000010
00001000
00010000
00001000
00000010
00000100
00000000
,
00000001
00000000
00000000
00000001
00000000
00000000
00000010
00000000
00000100
00000000
00001000
00000000
00000001
00000000
00000100
00000000
,
00002000
00000000
00010000
00010000
00000000
00000010
00003010
00000000
,
00001000
00010000
00001000
01000000
00010000
00100000
01000000
00000000
,
00020000
00000000
00001000
00001000
00000000
00100000
00130000
00000000
,
00010000
00001000
01000000
00010000
00100000
01000000
10000000
00100000
,
01000000
00000000
00000000
01010000
00000000
10010000
00000000
00000000
,
10000000
00000000
00000000
11000000
00000000
00110000
00000000
00000000
,
00001000
00000000
00000000
00011000
00000000
00010010
00000000
00000000
,
00000010
00000000
00000000
00001010
00000000
00000011
00000000
00000000
,
00000001
00001000
00000001
00000100
00000010
00000100
00000001
00000010
,
00000100
00010000
00001000
00010000
00000010
00001000
00000100
00010000
,
00001000
00100000
01000000
00100000
00010000
01000000
00001000
00010000
,
00100000
00010000
00100000
01000000
10000000
01000000
01010000
00000000
,
00010000
00000000
01000000
00010000
01000000
00000000
00001000
00000000
00000000
00000000
00020000
00000000
00032000
00000000
00003000
00000000
,
00000010
00000100
00001000
00000010
00000000
00000200
00000302
00000003
,
00000010
00000000
00000001
00000010
00000001
00000000
00001000
00000000
00000000
00000000
00000200
00000000
00000320
00000000
00000032
00000000
,
00000003
00000100
00001000
00010000
00100000
20000000
32000000
03200000
,
00310000
00000000
00100000
00010000
00100000
00000000
00001000
00000000
00000000
00000000
00020000
00000000
00230000
00000000
00320000
00000000
,
00031000
00000000
00010000
00001000
00010000
00000000
00000010
00000000
00000000
00000000
00002000
00000000
00003200
00000000
00000320
00000000
,
00000031
00000000
00000100
00000001
00001000
00000000
00000100
00000000
00000000
00000000
00000002
00000000
00000203
00000000
00002300
00000000
,
00003100
00000010
00001000
00010000
01000000
00010000
00001000
00010000
,
00002000
00010000
00010000
00010000
,
00200000
00000000
00000000
00000000
00000000
00000000
00000000
00000000
00303000
00000000
00000000
00000000
00001000
00010000
00001000
00000000
,
00010000
00001000
00000100
00000001
00001000
00000010
00010000
00000000
,
00001000
00000000
00010000
00001000
00000000
00000000
00010000
00000000
00200000
00000000
00000000
00000000
01300000
00000000
00000000
00000000
,
00010000
10000000
01000000
00010000
00001000
00100000
00010000
00000000
,
10000000
00000000
00000000
00100000
00000000
00000000
00010000
00000000
00001000
00000000
00000000
00000000
00011000
00000000
00000000
00000000
,
00010000
00001000
00000100
00000010
00001000
00000100
00000001
00000000
,
00000100
00000000
00001000
00000100
00000000
00000000
00001000
00000000
00000020
00000000
00000000
00000000
00010030
00000000
00000000
00000000
,
00001000
00100000
00010000
00001000
00010000
00100000
01000000
00000000
,
10000000
00000000
00000000
10000000
00000000
00000000
00100000
00000000
01000000
00000000
00010000
00000000
10000000
00000000
01000000
00000000
,
00020000
00000000
00001000
00001000
00000000
00100000
00130000
00000000
,
00010000
00001000
00010000
00000100
00001000
00000010
00000100
00000000
,
00002000
00000000
00020000
00030000
00000020
00000030
00020000
00033000
,
00001000
00010000
00000100
00001000
00000010
00000100
00000001
00000010
,
00002000
00000000
00000000
00000000
00000000
00000000
00003000
00000010
,
00000001
00000010
00000001
00000010
00000001
00000000
00000100
00000000
00000010
00000000
00000100
00000000
00001000
00000000
00010000
00000000
,
00002000
00000000
00000000
00000000
00000000
00003000
00010000
00001000
00010000
00000000
00100000
00000000
01000000
00000000
00200000
00000000
,
00000000
00300000
10000000
00100000
10000000
00000000
00010000
10000000
00010000
00000000
00100000
00010000
00100000
00000000
01000000
00000000
,
00010000
00000000
00001000
00010000
00001000
00000000
00010000
00000000
00000010
00001000
00000010
00001000
00000010
00000000
00000100
00000000
,
00000001
00000000
00000010
00000000
00000100
00000000
00001000
00000000
00000001
00001000
00000001
00001000
00000002
00000000
00000000
00000000
,
00000103
00000010
00000100
00001000
00010000
01000000
10000000
01000000
,
00010000
00000000
00001000
00010000
00001000
00000000
00100000
00010000
00100000
00000000
00001000
00010000
00001000
00000000
02000000
00000000
,
00000000
00000000
00000000
00000000
00000000
00000000
00000000
03000000
,
00001000
00000000
00010000
00001000
00010000
00000000
00000010
00001000
00000010
00000000
00010000
00001000
00010000
00000000
00000200
00000000
,
00000000
00000000
00000000
00000000
00000000
00000300
00000000
00000000
,
00001001
00000000
00000001
00000000
00001000
00000000
00000010
00000000
00010000
00000000
00000000
00000000
00001000
00000000
00010000
00001000
,
00000000
00010000
00200000
00000000
01300000
01000000
00010000
10000000
,
01000000
00000000
00010000
00000000
00001000
00000000
00100000
00000000
00010000
00000000
00000000
00000000
10000000
00000000
00000000
00100000
,
00000000
00010000
00001000
00000000
00011000
00000000
00010000
00001000
,
00000100
00000000
00000010
00000000
00001000
00000000
00000100
00000000
00000001
00000000
00000000
00000000
00000100
00000000
00001000
00000100
,
00000000
00001000
00000020
00000000
00010030
00010000
00001000
00100000
,
00010000
00000000
01000000
00000000
00001000
00000000
00010000
00000000
00100000
00000000
00000000
00000000
10000000
00000000
00000000
10000000
,
00000000
00100000
01000000
00010000
10000000
00100000
00020000
00000000
,
00001000
00001000
00000000
01000000
01030000
00000000
00010000
00001000
,
00010000
00000010
00001000
00000100
00000010
00000000
00002000
00000000
,
00010000
00010000
00000000
00000100
00003100
00000000
00001000
00010000
,
00000010
00000000
00000100
00000000
00000001
00000000
00000010
00000000
00000200
00000000
00000000
00000000
00001300
00000000
00000001
00001000
,
00000001
00000010
00000100
00001000
00000010
00010000
00001000
01000000
,
00010000
00000000
00100000
00000000
01000000
00000000
10000000
00000000
00100000
00000000
01000000
00000000
00010000
00000000
00100000
00010000
,
00100000
00001000
00010000
00000010
00001000
00000100
00000010
00000001
,
00000100
00000010
00010000
00001000
00100000
01000000
20000000
00000000
,
00000000
00000000
00000000
00000000
,
00000000
00000000
00000000
30000000
;
