#VERSION:0.83;
#TITLE:Bigbang Faker;
#SUBTITLE:;
#ARTIST:BlackY;
#TITLETRANSLIT:;
#SUBTITLETRANSLIT:;
#ARTISTTRANSLIT:;
#GENRE:;
#CREDIT:;
#MUSIC:bigbang_faker.ogg;
#BANNER:bigbang_faker-bn.png;
#BACKGROUND:b4u-bg.png;
#CDTITLE:;
#SAMPLESTART:51.647;
#SAMPLELENGTH:15.484;
#SELECTABLE:YES;
#OFFSET:-0.550;
#BPMS:0.000=155.000;
#STOPS:;
#JACKET:;
#DISCIMAGE:;
#CDIMAGE:;
#BGCHANGES:;
#FGCHANGES:;

//--------------- dance-single - kaya ----------------
#NOTEDATA:;
#STEPSTYPE:dance-single;
#DESCRIPTION:kaya;
#DIFFICULTY:Beginner;
#METER:2;
#RADARVALUES:0,0,0,0,0;
#CHARTNAME:;
#CHARTSTYLE:;
#CREDIT:kaya;
#METERF:2;
#NOTES:
0000
0000
0000
0000
,
0000
0000
0000
0000
,
0000
0000
0000
0000
,
0000
0000
0000
0000
,
0000
0000
0000
0000
,
0000
0000
0000
0000
,
0000
0000
0000
0000
,
0000
0000
0000
0000
,
0001
0000
0000
0000
,
0001
0000
0000
0000
,
1000
0000
0000
0000
,
1000
0000
0000
0000
,
0100
0000
0000
0000
,
0100
0000
0000
0000
,
0010
0000
0000
0000
,
0010
0000
0000
0000
,
0002
0000
0000
0000
,
0003
0000
0000
0000
,
2000
0000
0000
0000
,
3000
0000
0000
0000
,
0200
0000
0000
0000
,
0300
0000
0000
0000
,
0020
0000
0000
0000
,
0030
0000
0000
0000
,
0001
0000
0100
0000
,
0010
0000
0000
0000
,
1000
0000
0100
0000
,
0010
0000
0000
0000
,
0001
0000
1000
0000
,
0001
0000
0000
0000
,
1000
0000
0001
0000
,
2000
0000
0000
0000
,
3000
0000
0000
0000
,
0001
0000
0100
0000
,
0010
0000
1000
0000
,
0200
0000
0000
0300
,
0000
0100
0100
0000
,
1000
0000
0100
0000
,
0010
0000
0001
0000
,
0200
0000
0000
0300
,
0000
0100
0100
0000
,
0001
0000
0010
0000
,
0100
0000
1000
0000
,
0020
0000
0000
0030
,
0000
0010
0010
0000
,
1000
0000
0010
0000
,
0100
0000
0001
0000
,
0020
0000
0000
0000
,
0030
0000
0000
0000
,
0010
0000
0010
0010
,
0010
0000
0000
0000
,
0000
0000
0000
0000
,
0000
0000
0000
0000
,
0000
0000
0000
0000
,
0001
0001
0000
0000
,
1000
1000
0000
0000
,
0100
0100
0000
0000
,
0010
0010
0000
0000
,
0001
1000
0001
0000
,
0002
0000
1003
0000
,
1000
0001
1000
0000
,
2000
0000
3001
0000
,
0001
0001
0001
0000
,
1000
1000
1000
0000
,
0002
0000
0023
0000
,
0230
0000
2300
0000
,
3000
0000
0000
0000
,
1000
0001
1000
0000
,
0001
0000
0100
0000
,
0010
0010
0020
0030
,
1000
0000
0100
0000
,
0010
0010
0020
0030
,
0001
0000
0100
0000
,
0010
0010
0020
0030
,
2000
3000
0002
0003
,
1000
0001
2002
0000
,
3003
0000
0000
0000
;

//--------------- dance-single - kaya ----------------
#NOTEDATA:;
#STEPSTYPE:dance-single;
#DESCRIPTION:kaya;
#DIFFICULTY:Easy;
#METER:6;
#RADARVALUES:0,0,0,0,0;
#CHARTNAME:;
#CHARTSTYLE:;
#CREDIT:kaya;
#METERF:6;
#NOTES:
0000
0000
0000
0000
,
0000
0000
0000
0000
,
0000
0000
0000
0000
,
0000
0000
0000
0000
,
0000
0000
0000
0000
,
0000
0000
0000
0000
,
0000
0000
0000
0000
,
0000
0000
0000
0000
,
1000
0100
0010
0001
,
1000
1000
2000
0000
,
3001
0100
0010
1000
,
0001
0001
0002
0000
,
0013
0100
1000
0001
,
0100
0100
0200
0000
,
0310
1000
0001
0100
,
0020
0000
0000
0030
0000
0000
0000
0000
,
1000
0100
1000
0000
,
0001
0100
0001
0000
,
1000
0100
0001
0100
,
2000
3000
2000
3000
2000
3000
0000
0000
,
0001
0010
0001
0000
,
1000
0010
1000
0000
,
0001
0010
1000
0010
,
0002
0000
0000
0003
,
1000
0001
0100
0100
,
0010
1000
0002
0003
,
0001
1000
0100
0100
,
1000
0000
0001
0000
0020
0000
0000
0030
,
0100
0100
2200
3300
,
0010
0010
0022
0033
,
1001
1001
1001
1001
,
2002
0000
0000
0000
,
0000
3003
0110
0000
,
1000
0100
0001
0100
,
1000
1000
0001
0001
,
0002
0000
0000
0003
,
0001
0010
0100
1000
,
0001
0100
1000
0100
,
0001
0001
1000
1000
,
2010
3000
0000
0000
2100
3000
0000
0000
,
0001
0001
1000
1000
,
0000
2002
3003
0000
,
0001
0010
1000
0010
,
0002
0013
0002
1003
,
0001
0010
0100
1000
,
0000
0220
0000
0330
,
1000
0010
0001
0010
,
2000
0000
0000
0000
,
3001
0000
0000
0000
,
0001
0010
0100
1000
,
1001
0000
0000
0000
,
0000
0000
0000
0000
0000
0000
0000
1000
,
0000
0000
0000
0002
0000
0000
0000
0003
,
0100
0010
0100
0010
,
0000
1000
1000
0000
0100
0000
0010
0000
,
0001
0100
0010
1000
,
0001
1000
0100
0010
,
0001
0000
0100
0000
0010
0020
0000
0030
,
0000
1000
0001
1000
,
0100
0100
0010
0001
,
0002
0203
0320
2030
,
3002
0000
0000
0003
0100
0200
0000
0300
,
0000
0010
1000
0100
,
0010
0100
1000
0001
,
2020
3030
0022
0033
,
2200
3300
0202
0303
,
2002
0000
0000
3003
,
0010
0010
0010
1001
,
1000
0100
0010
0001
,
1000
0000
1000
1000
2000
0000
3000
0000
,
0001
0100
0010
1000
,
0001
0000
0001
0001
0002
0000
0003
0000
,
1000
0010
0100
0001
,
0100
0000
0100
0100
0200
0000
0300
0000
,
0010
1000
0001
0010
,
0220
0330
0220
0330
0220
0330
1001
0000
;

//--------------- dance-single - kaya ----------------
#NOTEDATA:;
#STEPSTYPE:dance-single;
#DESCRIPTION:kaya;
#DIFFICULTY:Medium;
#METER:14;
#RADARVALUES:0,0,0,0,0;
#CHARTNAME:;
#CHARTSTYLE:;
#CREDIT:kaya;
#METERF:14;
#NOTES:
0000
0000
0000
0000
,
0000
0000
0000
0000
,
0000
0000
0000
0000
,
0000
0000
0000
0000
,
0000
0000
0000
0000
,
0000
0000
0000
0000
,
0000
0000
0000
0000
,
1100
1100
1100
0002
,
1003
0000
0100
0000
0010
0000
0100
0000
1000
0000
0000
0010
0100
0000
0001
0000
,
0010
0000
0001
0000
1000
0000
0001
0000
0100
0001
0100
0001
0100
0000
0000
0000
,
0001
0000
0010
0000
0100
0000
0010
0000
0001
0000
0000
0100
0010
0000
1000
0000
,
0001
0000
1000
0000
0100
0010
0000
0002
0000
0000
0003
0000
1000
0000
1000
0000
,
0001
0000
0100
0000
0010
0000
0100
0000
0001
0000
0000
0010
0100
0000
0010
0000
,
0001
0000
1000
0000
0001
0000
0100
0001
0100
0000
0010
1000
0010
0000
0000
0000
,
1000
0000
0010
0000
0100
0000
0010
0000
1000
0000
0000
0100
0010
0000
0002
0000
,
1000
0000
0000
1000
0000
0000
1003
0000
0000
0000
0001
0000
0010
0000
0100
0000
,
1000
0000
0000
0100
0010
0000
0001
0000
0000
0000
0001
0000
0010
0000
0100
0000
,
2000
0000
0000
0000
0000
0000
0000
3001
0000
0000
1000
0000
0010
0000
0100
0000
,
0001
0000
0000
1000
0000
0000
0001
0000
0100
0001
0100
0000
0010
1000
0010
0000
,
1010
1001
0011
1001
,
0001
0000
0000
0100
0010
0000
1000
0000
0000
0000
1000
0000
0100
0000
0010
0000
,
0002
0000
0000
0000
0003
0000
1000
0000
0001
0100
0010
0000
1000
0000
0000
1001
,
0000
0000
0001
0000
0010
0000
0100
0000
1000
0000
0000
0000
0001
1000
0001
1000
,
0001
0000
0110
1001
,
1000
0000
0000
0001
1000
0000
0010
0000
0100
0000
1000
0000
0100
0000
0010
0000
,
1000
0000
0001
0000
0010
0000
0000
1100
0000
0000
0000
0000
0101
0000
0000
0000
,
0110
0000
0100
0010
0001
1000
0100
0010
,
0001
0000
0010
0000
0100
0000
0010
0000
0001
0000
0000
0010
0000
0000
1000
0000
,
0001
1000
0000
1000
0000
0001
0000
0010
0000
0100
0000
2000
0000
0000
3000
0000
,
1000
0001
0000
0001
0000
1000
0000
0100
0000
0010
0000
0002
0000
0000
0003
0000
,
0101
0011
1100
1010
,
1000
0000
0000
0001
0000
0000
0000
0000
0000
1000
0000
0000
0000
0000
0000
0001
0000
0000
0000
0000
0000
1000
0000
0000
0000
0000
0000
0001
0000
0000
0000
0000
0000
1000
0000
0000
0000
0000
0000
0000
0010
0000
0000
0000
0100
0000
0000
0000
,
0001
1000
0100
0000
0010
0002
2000
0000
0000
3003
0000
0000
,
0001
0000
0010
0000
1000
0000
0010
0000
0100
1000
0000
0001
0000
0000
0100
0000
,
0010
1000
0010
0100
0010
0001
1000
0100
,
0010
0010
0010
0010
0010
0010
0010
0010
,
0010
1000
0100
0001
1000
0010
0001
0000
,
0001
0000
0100
0000
1000
0000
0100
0000
0010
1000
0000
0001
0000
0000
0100
0000
,
1000
0100
0010
0100
0001
0100
0010
1000
,
0200
0000
0000
1000
0000
0000
1000
0000
0320
0000
0000
0001
0000
0000
0001
0000
,
0130
1000
0001
0100
0010
1000
0001
1000
,
0000
0000
0000
0000
0110
0000
0000
0000
1000
0000
0000
0001
0000
0000
1000
0000
,
0010
0000
0100
0000
0001
0000
0100
0000
0010
0000
0000
1000
0000
0000
0001
0000
,
0000
0010
1000
0001
0100
1000
0001
0010
,
0100
0010
0100
0010
0100
0000
1000
0000
1001
0000
0000
0000
0110
0000
0000
0000
,
0000
0000
0000
0000
1001
0000
0000
0000
0001
0000
0000
1000
0000
0000
0001
0000
,
0100
0010
0001
0010
1000
0100
0001
0100
,
0110
0000
0000
0110
0000
0000
1001
0000
0000
1001
0000
0000
0110
0000
0110
0000
,
2002
0000
0000
3003
,
0001
0000
0010
0000
0100
1000
0010
0100
,
0202
0000
0000
0000
,
0303
0000
0000
0000
0000
0000
0000
0001
,
0000
0000
0000
0000
0000
0000
0000
0000
0000
2000
0000
0000
0000
0000
0000
0000
0000
0000
3000
0000
0000
0010
0000
0001
,
0000
0000
1000
0001
0000
0000
1000
0000
0000
0010
0000
1000
0000
0000
0001
1000
0000
0000
0002
0000
0000
0000
0000
0000
,
0003
1000
0100
0001
1000
0010
0100
1000
,
0010
0100
0010
0001
1000
0100
0010
0100
,
0001
0000
0010
0000
1000
0000
0000
0001
0000
0001
1000
0000
0010
0000
0001
0000
,
0100
1000
0100
0010
0001
0010
0100
0001
,
0000
0000
0010
0001
0010
0000
0100
0000
0001
0000
0100
0000
0010
0000
0001
0000
,
1000
0010
0001
0010
1000
0100
0001
0100
,
1100
1000
1100
0000
0011
0001
0011
0000
,
0001
1000
0001
1000
0001
1000
0001
0000
0010
0100
0010
0100
0010
0100
0010
0000
,
0100
0001
1000
0010
0100
1000
0010
0100
,
1000
0000
0001
0000
0010
0100
0010
0100
0010
0100
0010
0100
0010
0000
0000
0000
,
1000
0100
0010
1000
0001
0100
0010
0001
,
1000
0010
0100
1000
0001
0010
0100
0001
,
2000
0000
0000
0000
,
0001
0001
3001
1001
,
1000
0000
0100
0000
0010
0000
0100
0000
1000
0000
0000
0001
0010
0000
0100
0000
,
1000
0000
0010
0000
0100
0000
0001
0000
1000
0001
1000
0001
1000
0000
0000
0000
,
0001
0000
0010
0000
0100
0000
0010
0000
0001
0000
0000
1000
0100
0000
1000
0000
,
0000
0000
0010
0000
1000
0001
0000
0100
0000
0100
0001
0000
0010
0000
0100
0000
,
1000
0000
0010
0000
0100
0000
0010
0000
1000
0000
0000
0001
0100
0000
0010
0000
,
1000
0000
0100
1000
0100
1000
0100
1000
0100
0000
0010
0001
0010
0001
0010
0001
,
0010
0100
0001
0100
0010
0100
1000
0010
,
0100
0001
0010
0010
0010
0010
0010
0000
,
1001
0000
0000
0000
;

//--------------- dance-single - kaya ----------------
#NOTEDATA:;
#STEPSTYPE:dance-single;
#DESCRIPTION:kaya;
#DIFFICULTY:Hard;
#METER:17;
#RADARVALUES:0,0,0,0,0;
#CHARTNAME:;
#CHARTSTYLE:;
#CREDIT:kaya;
#METERF:17;
#NOTES:
0000
0000
0000
0000
,
0000
0000
0000
0000
,
0000
0000
0000
0000
,
0000
0000
0000
0000
,
0000
0000
0000
0000
,
0000
0000
0000
0000
,
0000
0000
0000
0000
,
1100
0000
1100
0000
1100
0000
0002
0003
,
2000
0000
0001
0000
3200
0000
0010
0000
0301
0000
0000
0100
0010
0000
0002
0000
,
0000
0000
1003
0010
0100
0001
0100
0010
1000
0001
1000
0001
1000
0001
1000
0000
,
0002
0000
1000
0000
0203
0000
0010
0000
1300
0000
0000
0100
0010
0000
2000
0000
,
0000
0000
3001
0000
0010
0100
0000
2000
0000
0000
3001
0010
0001
0000
1000
0010
,
2000
0000
0001
0000
3020
0000
0100
0000
0031
0000
0000
0010
0100
0000
0002
1000
,
0000
0000
0013
0100
0010
0001
0010
0100
1000
0001
1000
0000
0010
0000
0100
0000
,
0002
0000
1000
0000
0023
0000
0100
0000
1030
0000
0000
0010
0100
0000
2000
0000
,
0001
0000
0000
0001
0000
0000
3001
0000
0000
0000
1001
0000
0010
0000
0100
0000
,
1001
0000
0000
0000
0000
0000
0001
0000
0010
0000
0000
0000
0100
0000
0000
0000
0000
0000
0000
1000
0100
0000
0000
0000
0010
0000
0000
0000
0001
0000
0000
0000
,
2000
0000
0000
0000
0000
0000
0000
3010
0000
0000
0100
0000
0001
0000
1000
0000
,
1001
0000
0000
1000
0001
0000
0100
0010
1000
0100
1000
0100
0010
0001
0010
0001
,
2000
3000
0020
0030
0200
0300
0002
0003
,
1001
0000
0000
1000
0100
0000
0010
0000
0001
0000
1000
0000
0001
0000
0100
0000
,
0020
0000
0000
0000
0030
0100
0001
1000
0100
1000
0001
1000
0100
0010
0000
0200
,
0000
0310
0001
0000
0010
0000
0100
0000
1000
0000
0000
0000
0001
1000
0010
2000
,
0200
0000
0000
0000
0000
0000
0000
0000
3300
0000
0000
0000
0000
0000
0000
1000
0100
0000
0000
0000
0000
0000
0000
0000
1000
0000
0000
0000
0000
0000
0000
0000
,
0001
0000
0000
0100
0010
0000
1000
0000
1010
0000
0001
0000
0101
0000
0100
0000
,
0010
0000
1000
0001
0000
0010
0000
0200
0000
0000
0300
0000
0011
0000
0000
0000
,
1100
0000
0000
1000
0100
0010
0001
0100
0001
0010
0100
1000
0010
1000
0100
0010
,
0001
1000
0000
1000
0000
1000
0000
1000
0020
0000
0000
0230
0000
0000
0302
0000
,
1003
0010
0000
1000
0000
0010
0000
0100
0000
1000
0000
0200
0000
0000
0010
0000
,
0301
0010
0000
0001
0000
0010
0000
0100
0000
0001
0000
0200
0000
0000
0010
0000
,
1300
0000
0000
0001
1000
0000
0010
0000
1000
0000
0100
0000
1000
0000
0001
0000
,
0010
0000
0000
0001
0000
0000
0000
0000
0000
0010
0000
0000
0000
0000
0000
0001
0000
0000
0000
0000
0000
0010
0000
0000
0000
0000
0000
0001
0000
0000
0000
0000
0000
0010
0000
0000
0000
0000
0000
0000
0001
0000
0000
0000
0010
0000
0000
0000
,
0001
0000
0010
0000
0001
0000
0000
0000
0010
0000
0001
0000
0022
0000
0000
0000
0000
0000
0000
0000
0000
0033
0000
0000
,
2000
0000
0100
0000
3020
0000
0100
0000
1030
0010
0000
0100
0000
0000
1000
0100
,
0010
0000
1000
0100
0010
0000
0010
0100
1000
0000
0010
0100
1000
0000
1000
0100
,
0010
0100
0010
0100
0010
0100
0010
0100
0010
0100
0010
0100
0010
0100
0010
0100
,
0002
0003
0110
0000
0002
0003
1010
0000
0002
0003
0110
0000
0002
0003
1010
0000
,
0002
0000
0100
0000
0023
0000
0100
0000
0031
0100
0000
0010
0000
0000
0001
0010
,
0100
0000
0001
0010
0100
0000
0100
0010
0001
0000
0100
0010
0001
0000
0001
0010
,
1000
0000
0000
0002
0003
0000
1000
0100
0001
0000
0000
2000
3000
0010
0100
0010
,
0002
0003
0110
0000
0002
0003
1100
0000
0002
0003
0110
0000
0002
0003
1100
0000
,
0000
0000
0000
0000
0201
0000
0000
0000
0010
0000
0000
1300
0000
0000
0100
0000
,
1010
0000
0100
0000
0011
0000
0100
0000
1001
0000
0000
0001
0010
0000
0100
0000
,
1000
0000
0001
1000
0001
1000
0100
0010
0100
0010
0001
0010
0001
0010
0100
1000
,
0002
0003
1010
0000
0002
0003
0110
0000
0002
0003
1010
0000
0002
0003
0110
0000
,
1001
0000
0000
0000
1200
0000
0000
0000
0010
0000
0000
0301
0000
0000
0100
0000
,
0011
0000
0001
0000
1001
0000
0001
0000
0100
0001
0000
0010
0000
0100
0000
2000
,
0001
0000
0000
0001
0000
0000
0001
0000
0000
3001
0000
1000
0010
1000
0001
1000
,
0200
0000
0000
0000
0000
0000
0000
0000
0000
0000
0000
0000
0000
0000
0000
0000
0000
0000
0000
0000
0000
0000
0000
0000
0300
0000
0000
0000
0000
0000
1000
0001
,
1000
0000
0010
0000
0100
0001
0010
0100
,
2002
0000
0000
0000
,
3003
0000
0000
0000
0000
0000
0000
0000
0000
0000
0000
0000
0000
0000
0000
0000
0000
0000
0000
0000
0001
1000
0000
0000
,
0000
0000
0000
0000
0000
0000
0000
0000
0100
0020
0000
0000
0000
0000
0000
0000
0000
0000
0030
0000
0000
0001
0000
0001
,
0000
0000
0000
0000
1000
0000
0100
0000
0000
0000
0000
0000
0010
0000
0000
0000
0000
0000
0001
0000
0000
0000
0001
0000
0000
0000
0000
0000
1000
0000
0000
0000
0000
0000
0010
0000
0100
0000
0000
0000
0000
0000
0001
0000
0000
1000
0000
0000
,
0001
0000
0100
0001
0100
0010
0000
0010
0100
0001
0000
0001
0100
0010
0100
0001
,
0010
0001
1000
0001
0010
0100
1000
0001
1000
0010
0100
0001
0100
0010
1000
0001
,
1000
0100
0010
0001
0100
0010
0000
1000
0000
1000
0001
0100
0001
0010
0100
1000
,
0001
0010
0100
1000
0001
0100
0010
1000
0001
0100
0010
1000
0002
0000
0000
0000
,
0000
0000
1003
0010
1000
0000
0100
1000
0100
0010
0000
0001
0000
0010
0000
0100
,
0000
0000
1000
0100
1000
0001
1000
0100
0010
0001
1000
0001
0100
0010
0100
0001
,
1000
0000
1001
0000
1000
0000
1100
0000
0100
0010
0000
0001
0000
1000
0000
0010
,
0100
1000
0100
0010
0100
1000
0100
0001
1000
0100
0010
0001
1000
0100
0010
0001
,
0000
1000
0000
0010
0100
0000
0001
0000
0100
0010
0000
1000
0000
0001
0000
0010
,
0100
0010
0000
0100
0001
0100
0010
0100
0001
0100
0010
0001
1000
0010
0000
0100
,
0001
0010
0100
1000
0001
0100
0010
1000
0100
1000
0010
0100
0001
1000
0100
0010
,
0001
0000
0000
0100
0000
0000
0001
0000
0000
0010
0000
0000
0100
0000
0000
1000
0000
0000
0010
0000
0000
1000
0000
0000
0001
0000
0000
0100
0000
0000
0010
0000
0000
1000
0000
0000
0001
0000
0010
0000
0100
0000
1000
0000
0100
0000
0010
0000
,
0002
0000
0000
0000
,
1000
0000
0000
0000
1000
0000
0000
0000
1003
0000
0010
0100
0001
0000
0000
0000
,
0002
0000
1000
0000
0203
0000
0010
0000
1300
0000
0000
0100
0010
0000
2000
0000
,
0000
0000
3001
0010
0100
1000
0100
0010
0001
1000
0010
1000
0100
1000
0010
0000
,
2000
0000
0001
0000
3200
0000
0010
0000
0301
0000
0000
0100
0010
0000
0002
0000
,
0000
0000
1003
0000
0010
0100
0000
0002
0000
0000
1003
0100
1000
0000
0001
0100
,
0002
0000
1000
0000
0023
0000
0100
0000
1030
0000
0000
0010
0100
0000
2000
0001
,
0000
0000
3010
0100
1000
0100
1000
0100
0010
1000
0100
0010
0001
0100
0010
1000
,
0002
0000
1003
0100
0020
0000
0130
1000
0002
0000
1003
0010
0100
1000
0100
0010
,
0002
0013
1000
0010
2000
3100
0001
0100
0002
0003
0000
0000
1001
0000
0000
0000
;

//--------------- dance-double - kaya ----------------
#NOTEDATA:;
#STEPSTYPE:dance-double;
#DESCRIPTION:kaya;
#DIFFICULTY:Easy;
#METER:7;
#RADARVALUES:0,0,0,0,0;
#CHARTNAME:;
#CHARTSTYLE:;
#CREDIT:kaya;
#METERF:7;
#NOTES:
00000000
00000000
00000000
00000000
,
00000000
00000000
00000000
00000000
,
00000000
00000000
00000000
00000000
,
00000000
00000000
00000000
00000000
,
00000000
00000000
00000000
00000000
,
00000000
00000000
00000000
00000000
,
00000000
00000000
00000000
00000000
,
00011000
00011000
00011000
00000000
,
00010000
01000000
10000000
00100000
,
00010000
00000000
00001000
00000000
00010000
00001000
00010000
00000000
,
00001000
00000100
00000001
00000010
,
00001000
00000000
00010000
00000000
00001000
00010000
00001000
00000000
,
00010000
00100000
10000000
01000000
,
00010000
00000000
00001000
00000000
00010000
00001000
00010000
00000000
,
00001000
00000010
00000001
00000100
,
00001000
00000000
00000000
00010000
00000000
00000000
00001000
00000000
00000000
00000000
00011000
00000000
00000000
00000000
00000000
00000000
,
01000000
00000000
00010000
00000000
10000000
00000000
01000000
10000000
,
01000000
00000000
00100000
00000000
00010000
00000000
00100000
00001000
,
00100000
00001000
00010000
00000010
,
00002000
00003200
00000320
00000032
,
00001003
00000000
00000001
00000000
00000100
00000000
00000010
00001000
,
00000010
00010000
00001000
00010000
,
00000010
00000000
00010000
00000000
00000100
00000000
00010000
00001000
,
00100000
00000000
01100000
00000000
,
00010000
01000000
00100000
10000000
,
01000000
00000000
00100000
00010000
01000000
00000000
00000000
00000000
,
00010000
00100000
00001000
00010000
,
00000010
00000010
00000010
00000000
00000110
00000000
00000000
00000000
,
00001000
00000000
00000001
00000000
00000100
00001000
00000100
00000000
,
00001000
00000000
00010000
00000000
01000000
00010000
01000000
00000000
,
00100000
00001000
00010000
00001000
,
00022000
00000000
00000000
00000000
,
00000000
00033000
00011000
00000000
,
00010000
00001000
01000000
00010000
,
10000000
00100000
01000000
00010000
,
00100000
00001000
00100000
00001000
00100000
00001000
00100000
00001000
,
00000000
00011000
00011000
00011000
,
00001000
00000010
00000001
00000100
,
00000010
00000010
00001000
00001000
,
00000200
00000300
00000020
00000030
,
00000011
00000011
00001100
00001100
,
00000000
00001000
00010000
01000000
,
10000000
01000000
00100000
10000000
,
01000000
00100000
01000000
00000000
00100000
01000000
00100000
00000000
,
00000000
00011000
00011000
00011000
,
00000000
00001000
00000100
00000001
,
00000100
00000100
00000010
00000010
,
00002000
00000000
00000000
00003000
,
00000110
00000000
00000000
00000000
,
00000000
00000000
00000000
00000000
,
00022000
00000000
00000000
00000000
,
00033000
00000000
00000000
00000000
00000000
00000000
00000000
00010000
,
00000000
00000000
00000000
00002000
00000000
00000000
00000000
00000000
,
01003000
01000000
00100000
00100000
,
10000000
00100000
10000000
00000000
00100000
00000000
01000000
00000000
,
00010000
00010000
00100000
00001000
,
00010000
00001000
00010000
00000000
00000100
00000000
00000100
00000000
,
00000010
00000001
00001000
00000010
,
00000000
00000000
00000100
00000000
00000100
00000001
00000100
00000000
,
00000000
00000010
00001000
00000100
,
00001100
00001100
00011000
00011000
,
00110000
00110000
11000000
11000000
,
00000000
10000000
00010000
01000000
,
00100000
00000000
10000000
00010000
10000000
00010000
10000000
00000000
,
20020000
30030000
00022000
00033000
,
00002002
00003003
00022000
00033000
,
20020000
00000000
00000000
30030000
,
00100000
00100000
00100000
10010000
,
10000000
01000000
00100000
01000000
,
10000000
00000000
00010000
00000000
01000000
00001000
01000000
00001000
,
00010000
00000010
00001000
00000001
,
00000100
00000000
00000020
00000000
00000030
00000000
00001000
00000001
,
00001000
00000010
00000100
00000001
,
00001000
00000000
00000001
00000000
00000100
00000001
00000100
00000000
,
00001000
00000000
00010000
00000000
00100000
10000000
00100000
00000000
,
10100000
10010000
11000000
01100000
;

//--------------- dance-double - kaya ----------------
#NOTEDATA:;
#STEPSTYPE:dance-double;
#DESCRIPTION:kaya;
#DIFFICULTY:Medium;
#METER:14;
#RADARVALUES:0,0,0,0,0;
#CHARTNAME:;
#CHARTSTYLE:;
#CREDIT:kaya;
#METERF:14;
#NOTES:
00000000
00000000
00000000
00000000
,
00000000
00000000
00000000
00000000
,
00000000
00000000
00000000
00000000
,
00000000
00000000
00000000
00000000
,
00000000
00000000
00000000
00000000
,
00000000
00000000
00000000
00000000
,
00000000
00000000
00000000
00000000
,
11000000
11000000
11000000
00020000
,
10030000
00000000
00000000
00000000
00010000
00000000
00000000
00000000
00100000
00000000
00000000
00001000
00000000
00000000
00010000
00000000
,
00000010
00000000
00001000
00000000
00000001
00000000
00000010
00000000
00000100
00000010
00000100
00000000
00001000
00000000
00000000
00000000
,
00000001
00000000
00000000
00000000
00001000
00000000
00000000
00000000
00000100
00000000
00000000
00010000
00000000
00000000
00001000
00000000
,
00100000
00000000
00010000
00000000
00100000
01000000
00000000
20000000
00000000
00000000
30000000
00000000
00010000
00000000
10000000
00000000
,
00100000
00000000
00000000
00000000
10000000
00000000
00000000
00000000
00010000
00000000
00000000
01000000
00000000
00000000
00001000
00000000
,
00010000
00000010
00001000
00000001
00000100
00000010
00000100
00000001
,
00000010
00000000
00000000
00000000
00000001
00000000
00000000
00000000
00001000
00000000
00000000
00000100
00000000
00000000
00010000
00000000
,
00001000
00000000
00000000
00001000
00000000
00000000
00001000
00000000
00000000
00000000
00010000
00000000
01000000
00000000
00100000
00000000
,
00010000
00000000
00000000
10000000
00000000
00000000
00100000
00000000
00000000
00000000
01000000
00000000
00001000
00000000
00010000
00000000
,
00100000
00000000
00000000
00000000
00000000
00000000
00000000
01100000
00000000
00000000
00100000
00000000
00010000
00000000
00001000
00000000
,
00000010
00000000
00000000
00000100
00000000
00000000
00001000
00000000
00000001
00001000
00000001
00000000
00001000
00000001
00001000
00000000
,
00000020
00002030
00023000
02030000
,
03100000
00000000
00000000
01000000
00000000
00000000
10000000
00000000
00000000
00000000
10000000
00000000
01000000
00000000
00010000
00000000
,
10000000
00000000
00000000
00000000
00000000
00000000
01000000
00000000
00100000
00000000
01000000
00000000
00010000
00000000
00000000
00001000
,
00000000
00010000
00100000
00010000
00001000
00000000
00010000
01000000
,
20000000
30000000
11000000
00110000
,
00100000
00010000
01000000
00001000
00010000
00000010
00001000
00000010
,
00000100
00000000
00000001
00000100
00000000
00000010
00000000
00001000
00000000
00000000
00000000
00000000
00000001
00000000
00000000
00000000
,
00001000
00000010
00001000
00010000
01000000
00100000
10000000
00010000
,
10000000
00000000
01000000
00000000
00010000
00000000
01000000
00000000
00100000
00000000
00000000
00001000
00000000
00000000
00010000
00000000
,
00000010
00001000
00000000
00000010
00000000
00000100
00000000
00000001
00000000
00000001
00000000
00000001
00000000
00000000
00001000
00000000
,
00000100
00001000
00000000
00000100
00000000
00010000
00000000
00001000
00000000
00001000
00000000
00001000
00000000
00000000
00100000
00000000
,
00010000
10000000
01000000
10000000
01000000
00100000
00010000
00100000
,
00001000
00000000
00000000
00010000
00000000
00000000
00000000
00000000
00000000
00001000
00000000
00000000
00000000
00000000
00000000
00010000
00000000
00000000
00000000
00000000
00000000
00001000
00000000
00000000
00000000
00000000
00000000
00010000
00000000
00000000
00000000
00000000
00000000
00001000
00000000
00000000
00000000
00000000
00000000
00000000
00010000
00000000
00000000
00000000
00001000
00000000
00000000
00000000
,
00010000
00001000
00010000
00000000
00001000
00020000
00002000
00000000
00000000
00033000
00000000
00000000
,
00010000
00000000
00001000
00000000
00010000
00000000
01000000
00000000
00100000
00010000
00000000
00100000
00000000
00000000
01000000
00000000
,
20000000
31000000
00200000
00310000
00002000
00003100
00000020
00000031
,
00001000
00001000
00001000
00001000
00001000
00001000
00001000
00001000
,
00000001
00000100
00001000
00000100
00000001
00000100
00001000
00000000
,
00001000
00000000
00010000
00000000
00001000
00000000
00000100
00000000
00000010
00001000
00000000
00000010
00000000
00000000
00000100
00000000
,
00000002
00000103
00000020
00001030
00020000
01030000
00200000
10300000
,
02000000
00000000
00000000
00000000
10000000
00000000
00000000
00000000
03200000
00000000
00000000
00000000
00010000
00000000
00000000
00300000
,
01100000
10010000
11000000
00110000
,
00000000
00000000
00000000
00000000
20000000
00000000
00000000
00000000
30010000
00000000
00000000
01000000
00000000
00000000
00100000
00000000
,
00010000
00000000
00001000
00000000
00010000
00000000
01000000
00000000
00100000
00000000
00000000
00001000
00000000
00000000
00010000
00000000
,
00000010
00001000
00000010
00001000
00000001
00000100
00000001
00000100
,
00000010
00000100
00001000
00000100
00000001
00000010
00001000
00000010
,
00000001
00000000
00000000
00000000
00001002
00000000
00000000
00000000
00001003
00000000
00000000
00000100
00000000
00000000
00000010
00000000
,
00001000
00000000
00010000
00000000
00001000
00000000
00000100
00000000
00000010
00000000
00010000
00001000
00000000
00020000
00000000
00002000
,
00000000
00000000
00000000
00000000
00000000
00000000
00000000
00000000
00000000
00000000
00000000
00033000
00011000
00000000
00011000
00000000
,
00011000
00000000
00000000
00000000
,
00010000
00000000
01000000
00000000
10000000
00100000
01000000
00010000
,
20000000
00000000
00000000
00000000
,
00000000
00000000
00000000
00000000
00000000
00000000
00000000
30010000
,
00000000
00000000
00000000
20020000
00000000
00000000
30030000
00000000
,
10000000
00000000
01000000
00000000
00010000
00000000
00001000
00000000
00000100
00000000
00000001
00000000
00000010
00000000
00001000
00010000
,
00001000
00000010
00000010
00000000
00000001
00000000
00000100
00001000
,
00010000
01000000
00010000
01000000
00100000
00001000
00100000
00001000
,
00010000
00000000
00001000
00000000
00000100
00000000
00000000
00000010
00000000
00000000
00001000
00000000
00000100
00000000
00010000
00000000
,
00001000
00100000
00010000
10000000
00100000
01000000
00020000
00000000
,
00030000
10000000
10000000
00000000
00100000
00000000
10000000
01000000
,
00100000
00001000
00010000
01000000
00100000
01000000
10000000
00100000
,
10100000
01010000
00001010
00000101
,
00000001
00000001
00000001
00000000
00001000
00001000
00001000
00000000
,
00000010
00010000
00000100
00001000
00000010
00010000
00001000
00100000
,
00010000
00100000
01000000
01000000
01000000
10000000
10000000
00000000
,
00100000
10000000
00010000
01000000
00001000
00010000
00000010
00001000
,
00000001
00001000
00000100
00010000
00001000
00100000
00010000
10000000
,
00200000
00000000
00000000
00300000
,
01100000
01100000
01100000
10010000
,
10000000
00000000
00000000
00000000
00010000
00000000
00000000
00000000
01000000
00000000
00000000
00001000
00000000
00000000
00010000
00000000
,
00000100
00000000
00001000
00000000
00000001
00000000
00000100
00000000
00000010
00000100
00000010
00000000
00001000
00000000
00000000
00000000
,
00000001
00000000
00000000
00000000
00001000
00000000
00000000
00000000
00000100
00000000
00000000
00010000
00000000
00000000
00001000
00000000
,
01000000
00000000
00010000
00000000
01000000
00100000
00000000
20000000
00000000
00000000
30000000
00000000
00010000
00000000
10000000
00000000
,
01000000
00000000
01000000
00000000
10000000
00000000
00000000
00000000
00010000
00000000
00000000
00100000
00000000
00000000
00001000
00000000
,
00010000
00000100
00001000
00000001
00000010
00000100
00000010
00000001
,
00000100
00001000
00010000
00001000
00000010
00001000
00010000
01000000
,
10000000
10000000
10000000
10000000
10000000
00010000
10010000
00000000
;

//--------------- dance-double - kaya ----------------
#NOTEDATA:;
#STEPSTYPE:dance-double;
#DESCRIPTION:kaya;
#DIFFICULTY:Hard;
#METER:17;
#RADARVALUES:0,0,0,0,0;
#CHARTNAME:;
#CHARTSTYLE:;
#CREDIT:kaya;
#METERF:17;
#NOTES:
00000000
00000000
00000000
00000000
,
00000000
00000000
00000000
00000000
,
00000000
00000000
00000000
00000000
,
00000000
00000000
00000000
00000000
,
00000000
00000000
00000000
00000000
,
00000000
00000000
00000000
00000000
,
00000000
00000000
00000000
00000000
,
00011000
00011000
00022000
00033000
,
00001000
00000000
00000100
00000000
00000001
00000000
00000010
00000000
00001000
00000000
00000000
00000010
00000100
00000000
00001000
00000000
,
00000001
00000000
00000100
00000000
00000010
00000000
00001000
00000000
00000010
00010000
00000010
00010000
00001000
00000000
00000000
00000000
,
00010000
00000000
01000000
00000000
10000000
00000000
00100000
00000000
00010000
00000000
00000000
00100000
01000000
00000000
00010000
00000000
,
00000000
00000000
10000000
00000000
01000000
00100000
00000000
00001000
00000000
00000000
00000000
00000000
00010000
00000000
00010000
00000000
,
00001000
00000000
00000100
00000000
00000001
00000000
00000010
00000000
00001000
00000000
00000000
00000010
00000100
00000000
00001000
00000000
,
00000010
00000100
00010000
00000100
00000010
00000100
00001000
00000000
,
00010000
00000000
01000000
00000000
10000000
00000000
00100000
00000000
00010000
00000000
00000000
00100000
01000000
00000000
00010000
00000000
,
00110000
00000000
00000000
00011000
00000000
00000000
00110000
00000000
00000000
00000000
00100000
00000000
00001000
00000000
00010000
00000000
,
00010020
00000000
00000000
00000130
00000000
00000000
00000001
00000000
00000000
00000000
00000010
00000000
00000100
00000000
00001000
00000000
,
00000002
00000000
00000000
00000000
00000000
00000000
00000000
00010003
00000000
00000000
00001000
00000000
00000100
00000000
00000010
00000000
,
00010000
00000000
00000000
00011000
00000000
00000000
00001000
00000000
00100000
00010000
00100000
00010000
01000000
00100000
10000000
00000000
,
11000000
00110000
00001100
00000011
,
00000010
00000000
00000000
00000001
00001000
00000000
00000001
00000000
00000000
00000000
00000100
00000000
00000010
00000000
00010000
00000000
,
00002000
00000000
00000000
00000000
00003000
00000100
00000010
00000000
00010000
00001000
00010000
00001000
00100000
01000000
00000000
10000000
,
00000000
00010000
10000000
00000000
00100000
00000000
01000000
00000000
00010000
00000000
00000000
00000000
01000000
00010000
01000000
00001000
,
00020000
00030000
11000000
00110000
,
00010000
00000000
00000000
10000000
00010000
00000000
01000000
00000000
00100000
00000000
00010000
00000000
00001000
00000000
00000100
00000000
,
00000010
00000000
00001000
00000010
00000000
00010000
00000000
00001000
00000000
00000000
00000000
00000000
00001010
00000000
00000000
00000000
,
00000101
00000000
00000000
00000000
00000100
00000010
00000100
00000000
00001000
00010000
00001000
00000000
01000000
00100000
01000000
00100000
,
20000000
00010000
00000000
00010000
00000000
00010000
00000000
30010000
00100000
00000000
00000000
01000000
00000000
00000000
10000000
00000000
,
00100000
01000000
00000000
00100000
00000000
01000000
00000000
00100000
00000000
00010000
00000000
00001000
00000000
00000000
00000100
00000000
,
00000010
00000100
00000000
00000010
00000000
00000100
00000000
00000010
00000000
00010000
00000000
00001000
00000000
00000000
00100000
00000000
,
01000000
00000000
00000000
00010000
00000000
00000000
00001000
00000000
00000010
00000000
00000001
00000000
00000100
00000000
00001000
00000000
,
00002000
00000000
00000000
00023000
00000000
00000000
00030000
00000000
00000000
00002000
00000000
00000000
00003000
00000000
00000000
00020000
00000000
00000000
00030000
00000000
00000000
00002000
00000000
00000000
00003000
00000000
00000000
00020000
00000000
00000000
00030000
00000000
00000000
00002000
00000000
00000000
00003000
00000000
00000000
00000000
00010000
00000000
00000000
00000000
00001000
00000000
00000000
00000000
,
00010000
00001000
00010000
00000000
00001000
00010000
00022000
00000000
00000000
00033000
00000000
00000000
,
00010000
00000000
01000000
00000000
10000000
00000000
01000000
00000000
00100000
10000000
00000000
00100000
00000000
00000000
01000000
10000000
,
01000000
00000000
01000000
00100000
01000000
00000000
00010000
01000000
00010000
00000000
00010000
00001000
00010000
00000000
00001000
00000100
,
00000001
00000100
00000001
00000100
00000001
00000100
00000001
00000100
00000001
00000100
00000001
00000100
00000001
00000100
00000001
00000100
,
00000020
00001030
00000200
00010300
00000020
00001030
00000200
00010300
,
00001000
00000000
00000100
00000000
00000001
00000000
00000100
00000000
00000010
00000001
00000000
00000010
00000000
00000000
00000100
00000001
,
00000100
00000000
00000100
00000010
00000100
00000000
00001000
00000100
00001000
00000000
00001000
00010000
00001000
00000000
00010000
01000000
,
10000000
00000000
00000000
00010000
00000000
00000000
10000000
00000000
01000000
00000000
00000000
01000000
00010000
01000000
00010000
01000000
,
00200000
00310000
02000000
03001000
00200000
00310000
02000000
03001000
,
00000000
00000000
00000000
00000000
00011000
00000000
00000000
00000000
00010010
00000000
00000000
00000110
00000000
00000000
00000100
00000000
,
00000001
00000000
00000100
00000000
00001000
00000000
00000100
00000000
00000010
00000000
00000000
00010000
00000000
00000000
00001000
00000000
,
00000000
00000000
00010000
00001000
00010000
00000000
00010000
01000000
00100000
00000000
00001000
00010000
00001000
00000000
00001000
00000100
,
00000010
00010000
00000010
00001000
00000200
00000000
00010300
00000000
00000020
00000000
00001030
00000000
00000200
00000000
00010300
00000000
,
00001000
00000000
00000000
00000000
00011000
00000000
00000000
00000000
00101000
00000000
00000000
01100000
00000000
00000000
01000000
00000000
,
00010000
00000000
01000000
00000000
10000000
00000000
01000000
00000000
00100000
00010000
00000000
10000000
00000000
00100000
00000000
01000000
,
00100000
00000000
00100000
00010000
00000000
00010000
00001000
00000000
00001000
00000100
00000000
00000100
00000010
00000000
00000010
00000000
,
00000200
00000000
00000000
00000000
,
00000301
00000000
00001000
00000000
00000001
00000010
00000100
00001000
,
00002002
00000000
00000000
00000000
,
00003003
00000000
00000000
00000000
00000000
00000000
00000000
00000000
00000000
00000000
00000000
00000000
00000000
00000000
00000000
00000000
00000000
00000000
00000000
00000000
00000001
00001000
00000000
00000000
,
00000000
00000000
00000000
00000000
00000000
00000000
00000000
00000000
00010000
20000000
00000000
00000000
00000000
00000000
00000000
00000000
00000000
00000000
30000000
00000000
00000000
01000000
00000000
01000000
,
00000000
00000000
00000000
00000000
10000000
00000000
00100000
00000000
00000000
00000000
00000000
00000000
10000000
00000000
00000000
00000000
00000000
00000000
01000000
00000000
00000000
00000000
00100000
00000000
00000000
00000000
00000000
00000000
00001000
00000000
00010000
00000000
00000000
00000000
00001000
00000000
00000100
00000000
00000000
00000010
00000000
00000000
00000100
00000000
00000000
00000001
00000000
00000000
,
00000100
00000010
00001000
00010000
00000100
00001000
00010000
01000000
,
00100000
00001000
00000010
00010000
00100000
00001000
00000100
00000010
,
00010000
00000000
00001000
00000000
00000010
00000000
00000000
00000100
00000000
00000100
00001000
00000000
00000010
00000000
00010000
00000000
,
00000100
00000000
00010000
00000000
00001000
00000000
00010000
00000000
01000000
00000000
00010000
00000000
00001000
00010000
00001000
00010000
,
00000000
00000000
00010000
00100000
00010000
00000000
00010000
00100000
00010000
00100000
00000000
01000000
00000000
00010000
00000000
00001000
,
00000000
00000000
00001000
00000100
00001000
00000000
00001000
00000100
00000010
00000000
00001000
00000000
00010000
00000000
00001000
00000000
,
00100000
00000000
00100000
00000000
01000000
00000000
01000000
00000000
00010000
00001000
00000000
00010000
00000000
01000000
00000000
00100000
,
00001000
00100000
00001000
00100000
00001000
00100000
00001000
00000000
00010000
00000010
00010000
00000010
00010000
00000010
00010000
00000010
,
00000000
00001000
00000000
00000010
00000100
00000000
00000010
00000000
00001000
00000100
00000000
00000010
00000000
00000100
00000000
00010000
,
00001000
00010000
00000000
00001000
00010000
00001000
00010000
00001000
00010000
00001000
00010000
00001000
00000100
00000010
00000000
00001000
,
00000020
00000230
00020300
02030000
03002000
00203000
00302000
00003020
,
00000230
00000320
00020030
00230000
00302000
02003000
03002000
00003200
,
00000302
00000000
00000000
00000000
,
00001003
00000000
00000000
00000000
00001001
00000000
00000000
00000000
00001001
00000000
00000001
00000010
00000100
00000000
00000000
00000000
,
00010000
00000000
01000000
00000000
10000000
00000000
00100000
00000000
00010000
00000000
00000000
00100000
01000000
00000000
00002000
00000000
,
00000000
00000000
00013000
00000000
00000100
00000000
00000010
00000000
00000100
00001000
00000100
00000010
00000100
00001000
00000100
00000000
,
00010000
00000000
01000000
00000000
10000000
00000000
00100000
00000000
00010000
00000000
00000000
00100000
01000000
00000000
00002000
00000000
,
00000000
00000000
00013000
00000000
00000010
00001000
00000000
00000100
00000000
00000100
00000010
00000000
00000110
00000000
00000010
00000000
,
00001000
00000000
00000010
00000000
00000001
00000000
00000100
00000000
00001000
00000000
00000000
00000100
00000010
00000000
00020000
00000000
,
00000000
00000000
00030100
00000010
00000100
00000010
00000100
00000010
00000001
00000000
00000010
00000100
00001000
00000000
00000010
00010000
,
00001000
00000000
00010000
00001000
00100000
00000000
00010000
00100000
01000000
00000000
00010000
01000000
10000000
00000000
10000000
00100000
,
00010000
00001000
00010000
00001000
00010000
00001000
00010000
00001000
00010000
00000000
00001000
00000000
00022000
00033000
00000000
00000000
;
