#VERSION:0.83;
#TITLE:Another Texture;
#SUBTITLE:;
#ARTIST:Sota Fujimori;
#TITLETRANSLIT:;
#SUBTITLETRANSLIT:;
#ARTISTTRANSLIT:;
#GENRE:;
#CREDIT:chronon;
#MUSIC:Another Texture.ogg;
#BANNER:another_texture-bn.png;
#BACKGROUND:b4u-bg.png;
#CDTITLE:;
#SAMPLESTART:17.345;
#SAMPLELENGTH:15.000;
#SELECTABLE:YES;
#OFFSET:1.602;
#BPMS:0.000=228.000
,264.000=114.000
,280.000=228.000
;
#STOPS:;
#SPEEDS:0.000=1.000=0.000=0;
#SCROLLS:0.000=1.000;
#TICKCOUNTS:0.000=4;
#TIMESIGNATURES:0.000=4=4;
#LABELS:0.000=Song Start;
#COMBOS:0.000=1;
#DISPLAYBPM:114.000:228.000;
#ORIGIN:;
#PREVIEWVID:;
#JACKET:another_texture.jpg;
#CDIMAGE:;
#DISCIMAGE:;
#BGCHANGES:;
#FGCHANGES:;

//--------------- dance-single - chronon ----------------
#NOTEDATA:;
#STEPSTYPE:dance-single;
#DESCRIPTION:chronon;
#DIFFICULTY:Beginner;
#METER:3;
#RADARVALUES:0.09837,0.170246,0,0,0,86,86,0,0,0,0,0,0,0,0.09837,0.170246,0,0,0,86,86,0,0,0,0,0,0,0;
#DISPLAYBPM:114.000:228.000;
#CHARTNAME:;
#CHARTSTYLE:;
#CREDIT:;
#NOTES:
0000
0000
0000
0000
,
0000
0000
0000
0000
,
0000
0000
0000
0000
,
0000
0000
0000
0000
,
0000
0000
0000
0000
,
0001
0000
0000
0000
,
0010
0000
0000
0000
,
0001
0000
0000
0000
,
1000
0000
0001
0000
,
1000
0010
0000
0010
,
0000
0100
0000
0100
,
0000
0001
0000
0001
,
0000
1000
0000
0000
,
0001
0010
0000
0010
,
0000
0100
0000
0000
,
0100
0000
0000
1000
,
0000
0001
0000
1000
,
0100
0000
0100
0000
,
0010
0000
0010
0000
,
0001
0000
0001
0000
,
1000
0000
0000
0100
,
0000
0100
0000
0010
,
0000
0000
0000
0010
,
0000
0001
0000
0000
,
0001
0001
0001
0000
,
1000
1000
1000
0000
,
0010
0010
0010
0000
,
0100
0100
0100
0000
,
0001
1000
0001
0000
,
1000
0001
1000
0000
,
0001
1000
0001
0000
,
0000
0000
0000
0000
,
0000
0000
0000
0000
,
0000
0000
0000
0000
,
0000
0000
1000
0000
,
0001
0000
0100
0000
,
1000
0000
0100
0000
,
0001
0000
1000
0000
,
0001
0000
0000
0000
,
1000
0000
0100
0000
,
0001
0000
0100
0000
,
1000
0000
0001
0000
,
1000
0000
0000
0000
,
0001
0000
0000
0001
,
0000
1000
0000
0000
,
0000
0100
0000
0000
,
0000
0001
0000
0000
,
0000
0100
0000
0000
,
0000
1000
0000
0000
,
0000
0001
0000
0000
,
0000
1000
0000
0000
,
0000
0000
0000
0000
,
0000
0001
0000
0000
,
0000
0100
0000
0000
,
0000
0001
0000
0000
,
0000
0001
0000
0000
,
0000
1000
0000
0000
,
0000
0001
0000
0000
,
0000
0000
0000
0000
,
0000
1000
0000
0000
,
0000
0000
0000
1000
;

//--------------- dance-single - chronon ----------------
#NOTEDATA:;
#STEPSTYPE:dance-single;
#DESCRIPTION:chronon;
#DIFFICULTY:Easy;
#METER:8;
#RADARVALUES:0.26537,0.351501,0.032027,0.136117,0,232,228,4,17,0,0,0,0,0,0.26537,0.351501,0.032027,0.136117,0,232,228,4,17,0,0,0,0,0;
#DISPLAYBPM:114.000:228.000;
#CHARTNAME:;
#CHARTSTYLE:;
#CREDIT:;
#NOTES:
0000
0000
0000
0000
,
0000
0000
0000
0000
,
0000
0000
0000
0000
,
0000
0000
0000
0000
,
0000
0000
0000
0000
,
0000
0000
0000
0000
,
0000
0000
0000
0000
,
0000
0000
0000
0000
,
0000
0000
0000
0000
,
0000
0000
0000
0000
,
2000
0000
0000
0000
0000
3100
0000
1000
,
0000
0100
0000
0000
0000
0000
0010
0000
,
0002
0000
0000
0000
0000
0013
0000
0001
,
0000
0010
0000
0000
0000
0000
0000
0000
,
0002
0000
0000
0000
0000
0103
0000
0001
,
0000
0100
0000
0000
0000
0000
0010
0000
,
2000
0000
0000
0000
0000
3010
0000
1000
,
0000
0010
0000
0000
0100
0000
0001
0000
,
1000
0000
0000
0100
0000
0010
0000
0100
,
0000
0000
1000
0001
,
2000
0000
3020
0000
,
0230
0000
0301
1000
,
0001
0000
0000
0010
0000
0100
0000
0010
,
0000
0000
0000
0001
0000
0000
1000
0000
,
0001
0000
0100
0000
,
1000
0000
0100
0000
,
0001
0000
0000
0100
0000
0010
0000
0100
,
0000
0000
0001
1000
,
0001
0000
0000
0000
2000
0000
0000
3000
,
0000
0000
0000
0000
,
0100
0000
0000
0000
0010
0000
0000
0001
,
0000
1000
0000
0000
0010
0000
0000
0000
,
0100
0000
1000
0000
,
0001
0000
0010
0000
,
1000
0000
0000
0010
0000
0100
0000
0010
,
0000
0000
1000
0001
,
2000
0000
3200
0000
,
0320
0000
0031
1000
,
0001
0000
0000
0100
0000
0010
0000
0100
,
0000
0000
0000
0001
0000
0000
1000
0000
,
0001
0000
0010
0000
,
0110
0000
0000
0000
,
0001
0000
0000
0010
0000
0100
0000
0010
,
0000
0000
0001
1000
,
0001
0000
0000
0000
0100
0000
0000
0100
,
0000
0000
0110
0000
,
1000
0000
0000
0000
0200
0000
0000
0300
,
0000
0000
0011
0000
,
0001
0000
1000
0000
,
0001
0000
0010
0000
,
0000
0000
0000
0000
,
0000
0000
0000
0000
,
0100
0000
1000
0000
,
0010
0000
0000
0100
0000
0000
0000
0000
,
0100
0000
0001
0000
,
0010
0000
0000
0100
0000
0000
0000
0000
,
0100
0000
1000
0000
,
0010
0000
0000
0100
0000
0000
0000
0000
,
0100
0000
0001
0100
,
0001
0000
0001
0100
,
0001
0000
1000
0100
,
1000
0000
1000
0100
,
1000
0000
0001
0010
,
0001
0000
0001
0010
,
0001
0000
0000
1001
,
0000
0000
0000
0000
,
1000
0000
1000
0000
,
0001
0000
0001
0000
,
1000
0000
1000
0000
,
0002
0000
0013
0000
,
0001
0000
0010
0000
,
0001
0000
0010
0000
,
0100
0000
0100
0000
,
1000
0000
0100
0000
,
0001
0000
0100
0000
,
1000
0000
0001
0000
,
1000
0000
0010
0000
,
0100
0010
0100
0000
,
0001
0000
1000
0000
,
0001
1000
0001
0000
,
0010
0000
0100
0010
,
0001
0000
0010
0000
,
1000
0000
0010
0000
,
0001
0000
1000
0000
,
0001
0000
0100
0000
,
0010
0100
0010
0000
,
1000
0000
0001
0000
,
1000
0001
1000
0000
,
0100
0000
0000
0010
0000
0100
0000
1000
,
0000
0002
0003
0000
,
1000
0001
1000
0000
,
0001
0000
0100
0000
,
1000
0000
0100
0000
,
0010
0100
0001
0000
,
0001
0000
0010
0000
,
0100
0010
0100
0000
,
1000
0000
0001
0000
,
1000
0001
1000
0000
,
0010
0000
0100
0010
,
1000
0000
0010
0000
,
0001
0000
0010
0000
,
1000
0000
0000
0000
,
0001
0000
0010
0000
,
0001
0000
1000
0000
,
0001
1000
0001
0000
,
0100
0000
0010
0100
,
0001
0000
0000
1000
0000
0000
0001
0000
,
0000
0000
2000
0000
,
3001
0000
0000
0100
0000
0010
0000
2000
,
0000
0002
0000
3003
;

//--------------- dance-single - chronon ----------------
#NOTEDATA:;
#STEPSTYPE:dance-single;
#DESCRIPTION:chronon;
#DIFFICULTY:Medium;
#METER:13;
#RADARVALUES:0.43237,0.528452,0.15213,0.28024,0.004003,378,359,19,35,0,0,0,0,0,0.43237,0.528452,0.15213,0.28024,0.004003,378,359,19,35,0,0,0,0,0;
#DISPLAYBPM:114.000:228.000;
#CHARTNAME:;
#CHARTSTYLE:;
#CREDIT:;
#NOTES:
0000
0000
0000
0000
,
0000
0000
0000
0000
,
0000
0000
0000
0000
,
0000
0000
0000
0000
,
0000
0000
0000
0000
,
0000
0000
0000
0000
,
0000
0000
0000
0000
,
0000
0000
0000
0000
,
0000
0000
0000
0000
,
0000
0000
0000
0000
,
0002
0000
0000
0000
0103
0010
0000
1000
,
0000
0001
0000
0000
0000
0000
1000
0001
,
2000
0000
0000
0000
3100
0010
0000
0001
,
0000
1000
0000
0000
0000
0000
0001
1000
,
0002
0000
0000
0000
0013
0100
0000
1000
,
0000
0001
0000
0000
0000
0000
1000
0001
,
2000
0000
0000
0000
3010
0100
0000
0001
,
0000
1000
0000
0001
0010
0000
0100
0000
,
1000
0100
0000
0010
0000
0100
0000
1000
,
0000
0100
0010
0000
0001
0000
0100
0000
,
0020
0000
0000
0000
1030
0100
0000
0020
,
0000
0000
0000
0031
0100
0000
0010
0000
,
2000
0000
0000
3010
0000
0100
0000
0001
,
0000
1000
0000
0200
0000
0000
0310
0000
,
0001
0001
1000
0100
,
1000
1000
0001
0100
,
0001
0100
0000
0010
0000
0100
0000
0001
,
0000
0100
0010
0000
1000
0000
0100
0000
,
0020
0000
0000
0000
0031
0100
0000
0010
,
0000
0010
0000
0000
0000
0000
0000
0000
,
0200
0000
0000
0000
0301
0010
0000
0100
,
0000
0100
0000
0000
1000
0000
0100
0000
,
0001
0100
1000
0001
,
0100
1000
0100
0001
,
1000
0010
0000
0100
0000
0010
0000
1000
,
0000
0010
0100
0000
1000
0000
0100
0000
,
0002
0000
0000
0000
1003
0100
0000
0002
,
0000
0000
0000
0103
0010
0000
0100
0000
,
2000
0000
0000
3100
0000
0010
0000
0001
,
0000
1000
0000
0020
0000
0000
0130
0000
,
0001
0001
1000
0010
,
1000
0001
1001
0000
,
0001
0010
0000
0100
0000
0010
0000
0001
,
0000
0010
0100
0000
0001
0000
0100
0000
,
2000
0000
0000
0000
3001
0100
0000
1000
,
0000
1000
0000
0000
0000
0000
0000
0000
,
0200
0000
0300
0000
1001
0000
0000
1000
,
0000
1000
0000
0000
0001
0000
0010
0000
,
1000
0010
0001
1000
,
0010
0001
0010
1000
,
0010
0000
0000
0100
0000
0001
0000
0010
,
0000
0100
0000
0010
0000
0000
0001
0000
,
0010
0000
0000
0100
0000
1000
0000
0010
,
0000
0100
0000
1000
0000
0000
0100
0000
,
0010
0000
0000
0100
0000
0001
0000
0010
,
0000
0100
0000
0010
0000
0000
0001
0000
,
0010
0000
0000
0100
0000
1000
0000
0010
,
0000
0100
0000
1000
0000
0000
0100
0000
,
0001
0100
0001
0100
,
0001
0100
0001
0001
,
1000
0100
1000
0001
,
1000
0100
1000
1000
,
0001
0010
0001
1000
,
0001
0010
0001
0001
,
1000
1000
0000
0000
0000
0000
0001
0001
,
0000
0000
0000
0000
,
2000
3000
0020
0030
0200
0300
0002
0003
,
0002
0003
0020
0030
0200
0300
2000
3000
,
2000
3000
0020
0030
0200
0300
0002
0003
,
1000
0000
0000
0001
0000
0000
1000
0000
0001
0000
0100
0000
0110
0000
0000
0000
,
0001
0100
1000
0100
,
0001
0100
1000
0100
,
0010
0100
0001
1000
,
0100
0000
0010
0000
0001
1000
0001
0000
,
0001
0010
0010
0000
,
0100
1000
1000
0000
,
0001
1000
0010
0100
,
0001
1000
0001
1000
0001
0000
0000
0000
,
1000
0010
0001
0010
,
1000
0010
0001
0010
,
0100
0010
1000
0001
,
0010
0100
1000
0001
,
1000
0100
0100
0000
,
0010
0001
0001
0000
,
1000
0001
0100
0010
,
1000
0001
1000
0001
1000
0000
0000
0000
,
1010
0000
0000
0101
0000
0000
0022
0000
,
0000
0033
0000
1000
,
0010
0000
0000
1000
0000
0001
0000
1000
,
0000
0200
0300
0000
,
1000
0100
0001
0100
,
1000
0100
0001
0100
,
0010
0100
1000
0001
,
0100
0010
1000
0001
,
1000
0010
0110
0000
,
0100
0001
0101
0000
,
1000
0001
0010
0100
,
1000
0001
1000
0000
,
0001
0010
1000
0010
,
0001
0010
1000
0010
,
0100
0000
0000
0110
0000
0001
0000
1001
,
0000
1000
0001
1000
,
0001
0100
0110
0000
,
0010
1000
1010
0000
,
0001
1000
0100
0010
,
0001
1000
0001
0000
,
0011
0000
0000
1100
0000
0000
0220
0000
,
0330
0000
0000
0001
,
0010
0000
0000
0110
0000
0110
0000
0110
,
0000
2002
0000
0000
,
3003
0000
0000
0000
;

//--------------- dance-single - chronon ----------------
#NOTEDATA:;
#STEPSTYPE:dance-single;
#DESCRIPTION:chronon;
#DIFFICULTY:Hard;
#METER:16;
#RADARVALUES:0.607377,0.878752,0.264226,0.248212,0.060051,531,498,33,31,0,0,0,0,0,0.607377,0.878752,0.264226,0.248212,0.060051,531,498,33,31,0,0,0,0,0;
#DISPLAYBPM:114.000:228.000;
#CHARTNAME:;
#CHARTSTYLE:;
#CREDIT:;
#NOTES:
0000
0000
0000
0000
,
0000
0000
0000
0000
,
0000
0000
0000
0000
,
0000
0000
0000
0000
,
0000
0000
0000
0000
,
0000
0000
0000
0000
,
0000
0000
0000
0000
,
0000
0000
0000
0000
,
0000
0000
0000
0000
,
0000
0000
0000
0000
,
1000
0000
0010
0000
1000
0010
0000
0100
,
0000
0001
0000
0000
1000
0000
0001
1000
,
0001
0000
0010
0000
0001
0010
0000
0100
,
0000
0000
1000
0000
0000
0000
0000
0000
0001
1000
0001
0000
1000
0000
0001
0000
,
1000
0000
0100
0000
1000
0100
0000
0010
,
0000
0001
0000
0000
1000
0000
0001
1000
,
0001
0100
0001
0100
0010
1000
0010
1000
,
0001
1000
0001
1000
0001
0000
0010
0000
0100
0000
1000
0100
0010
0000
0000
0000
,
0001
0010
0000
0100
0000
1000
0000
0001
,
0000
1000
0010
0100
1000
0000
0100
0000
,
0020
0000
0000
0000
1030
0001
0010
0100
,
0000
0010
0100
2000
0000
0000
3100
0000
,
2000
0000
0000
3100
0000
1000
0001
0100
,
0000
0010
0000
0002
0000
0000
0013
0000
,
0100
0001
0010
0100
,
1000
0010
0100
0001
,
1000
0010
0000
0100
0000
0001
0000
1000
,
0000
0001
0010
0100
0001
0000
0100
0000
,
0020
0000
0000
0000
0130
1000
0000
1100
,
0000
2002
0000
0000
0000
3003
0000
0000
,
0201
0000
0000
0000
0301
0100
0001
0101
,
0000
1001
0000
1000
0100
0000
0010
0100
,
0010
0001
0100
0010
,
1000
0100
0010
0001
,
1000
0010
0000
0100
0000
0001
0000
1000
,
0000
0001
1000
0100
0001
0000
1000
0000
,
0020
0000
0000
0000
0130
0010
0001
0100
,
0000
0010
1000
0200
0000
0000
0310
0000
,
0002
0000
0000
0103
0000
0001
1000
0001
,
0000
0010
0000
2000
0000
0000
3001
0000
,
0100
0000
1000
0000
0010
0000
1000
0001
,
0100
0010
1001
0000
,
0001
0010
0000
0100
0000
1000
0000
0001
,
0000
1000
0001
0100
1000
0000
0001
0000
,
0020
0000
0000
0000
0130
0001
0000
0101
,
0000
1001
0000
0000
0000
0000
0000
0000
,
1100
0000
0000
0000
1001
0000
0000
0011
,
0000
1001
0000
0000
1000
0000
0010
0100
,
0010
0000
1000
0000
0100
0000
0010
0100
,
0010
0000
0001
1000
0100
0000
1000
0001
0100
0000
0010
0000
1001
0000
0000
0000
,
1000
0000
0010
0100
0000
0001
0000
0010
,
0000
0100
1000
0010
0000
0100
0001
1000
,
0001
0000
0010
0100
0000
1000
0000
0010
,
0000
0100
0010
0001
0000
0010
0100
0001
,
1000
0000
0100
0010
0000
0001
0000
0100
,
0000
0010
1000
0100
0000
0010
0001
1000
,
0001
0000
0100
0010
0000
1000
0000
0100
,
0000
0010
0100
0001
0000
0100
0010
0001
,
1000
0100
0010
0100
,
1000
0000
0100
0000
0010
0000
0001
1000
,
0001
0100
0010
0100
,
0001
0000
0000
0000
0100
0000
0000
0000
0010
0100
0010
0000
1000
0000
0001
0000
,
1000
0100
0010
0100
,
1000
0000
0100
0000
0010
0000
0001
1000
,
0010
0020
0000
0030
0000
0000
0100
0200
,
0000
0300
0000
0000
1002
0000
0000
0000
,
0103
0000
0000
0010
0000
0000
0010
0000
1000
0000
0001
0000
1000
0000
0000
0000
,
0100
0000
0000
0010
0000
0000
0010
0000
0001
0000
1000
0000
0001
0000
0000
0000
,
0100
0000
0000
0010
0000
0000
0010
0000
1000
0000
0001
0000
1000
0000
0100
0000
,
1100
0000
0000
1001
0000
0000
1010
0000
0010
0000
0100
0000
0002
0000
0003
0000
,
0001
1000
0100
0000
0001
0000
0100
0000
,
1000
0000
0100
0000
0001
0100
0010
0001
,
1000
0001
0000
0100
0000
1000
0000
0001
,
0000
0010
0100
0001
0010
0100
1000
0001
,
1000
0100
0010
0001
,
1000
0000
0010
0000
0100
0001
1000
0001
,
0010
1000
0001
0100
,
1000
0001
1000
0010
0000
0000
0100
0000
,
0001
0000
0100
0010
0100
0000
0000
0000
1000
0000
0000
0000
0100
0000
0000
0000
,
0001
0000
0100
0000
1000
0100
0010
1000
,
0001
1000
0000
0100
0000
0001
0000
1000
,
0000
0010
0100
1000
0010
0100
0001
1000
,
0001
0000
0000
0000
0100
0000
0000
0000
0010
0000
0000
0000
1000
0000
0001
1000
,
0001
1000
0100
0010
0001
0100
0010
1000
,
0010
0001
1000
0100
,
0001
1000
0001
0010
0100
0000
1000
0000
,
0001
1000
0100
1000
0001
0100
0202
0000
,
0303
0000
0000
1001
,
0001
1000
0010
1010
0000
1001
0000
0011
,
0000
0220
0000
0330
,
1000
0001
0010
0000
1000
0000
0010
0000
,
0001
0000
0010
0000
1000
0010
0100
1000
,
0001
1000
0000
0010
0000
0001
0000
1000
,
0000
0100
0010
1000
0100
0010
0001
1000
,
0001
0010
0100
1000
,
0001
0000
0100
0000
0010
1000
0001
1000
,
0100
0001
1000
0010
,
0001
1000
0001
0100
0000
0000
0010
0000
,
1000
0000
0010
0100
0010
0000
0000
0000
0001
0000
0000
0000
0010
0000
0000
0000
,
1000
0000
0010
0000
0001
0010
0100
0001
,
1000
0000
0000
0000
0000
0000
1001
0000
0000
0000
0000
0000
0000
0000
0000
0000
0000
0000
0202
0303
0000
0000
0000
0000
0000
0000
0000
0000
0000
0000
2002
3003
0000
0000
0000
0000
0000
0000
0000
0000
0000
0000
2200
3300
0000
0000
0000
0000
,
0000
1000
0100
1000
0010
0100
0001
0000
,
1000
0000
0000
0000
0010
0000
0000
0000
0100
0000
0000
0000
0001
0000
1000
0001
,
1000
0001
0010
0100
1000
0010
0100
0001
,
0100
1000
0001
0010
,
1000
0001
1000
0100
0010
0000
0001
0000
,
1000
0001
0010
0001
1000
0010
2020
0000
,
3030
0000
0000
1001
,
1000
0001
0100
0101
0000
1100
0000
1010
,
0000
0022
0000
0033
;

//--------------- dance-single - chronon ----------------
#NOTEDATA:;
#STEPSTYPE:dance-single;
#DESCRIPTION:chronon;
#DIFFICULTY:Challenge;
#METER:16;
#RADARVALUES:0.601658,0.744637,0.272233,0.480411,0.680583,526,492,34,60,0,0,0,0,0,0.601658,0.744637,0.272233,0.480411,0.680583,526,492,34,60,0,0,0,0,0;
#OFFSET:1.602;
#BPMS:0.000=114.000
,89.000=57.000
,89.125=28.500
,89.250=114.000
,177.000=228.000
,246.000=456.000
,248.000=228.000
;
#STOPS:57.750=0.131
,58.000=0.395
,81.000=0.132
,81.250=0.132
,81.500=0.263
,87.750=0.131
,88.000=0.395
,89.500=0.263
,124.000=0.066
,124.125=0.461
,124.500=0.066
,124.625=0.461
,138.000=0.263
,138.250=0.263
,138.500=0.526
,173.500=0.526
,175.750=0.132
,176.000=0.132
,176.250=0.263
,176.500=0.526
,217.500=0.131
,218.000=0.132
,218.500=0.131
,219.000=0.132
,219.500=0.066
,219.750=0.066
,220.000=0.066
,220.250=0.066
,220.500=0.262
,240.000=0.526
,244.500=0.132
,245.000=0.132
,245.500=0.263
;
#SPEEDS:0.000=1.000=0.000=0;
#SCROLLS:0.000=1.000;
#TICKCOUNTS:0.000=4;
#TIMESIGNATURES:0.000=4=4;
#LABELS:0.000=Song Start;
#COMBOS:0.000=1;
#DISPLAYBPM:114.000:228.000;
#CHARTNAME:;
#CHARTSTYLE:;
#CREDIT:;
#NOTES:
0000
0000
0000
0000
,
0000
0000
0000
0000
,
0000
0000
0000
0000
,
0000
0000
0000
0000
,
0000
0000
0000
0000
,
1000
0000
0010
0000
1000
0010
0000
0100
0000
0001
0000
0000
1000
0000
0001
1000
,
0001
0000
0000
0000
0010
0000
0000
0000
0001
0000
0010
0000
0000
0000
0100
0000
0000
0000
1000
0000
0000
0000
0000
0000
0001
1000
0001
0000
1000
0000
0001
0000
,
1000
0000
0100
0000
1000
0100
0000
0010
0000
0001
0000
0000
1000
0000
0001
1000
,
0001
0000
0100
0000
0001
0000
0100
0000
0010
0000
1000
0000
0010
0000
1000
0000
0001
1000
0001
1000
0001
0000
0010
0000
0100
0000
1000
0100
0010
0000
0000
0000
,
0001
0010
0000
0100
0000
1000
0000
0001
0000
1000
0010
0100
1000
0000
0100
0000
,
0010
0000
0000
0000
1000
0001
0010
0100
0000
0010
0100
1000
0000
0000
0100
0000
,
1000
0000
0000
0100
0000
1000
0001
0100
0000
0010
0000
0001
0000
0000
0010
0000
,
0100
0001
0010
0100
1000
0010
0100
0001
,
1000
0010
0000
0100
0000
0001
0000
1000
0000
0001
0010
0100
0001
0000
0100
0000
,
0010
0000
0000
0000
0000
0000
0000
0000
0000
0000
0000
0000
0010
0000
0000
1000
0000
0000
0000
0000
0000
2200
3300
0000
2002
3003
0000
0000
0000
0000
0000
0000
0000
0000
0000
0000
0101
0000
0000
0000
0000
0000
0000
0000
0000
0000
0000
0000
,
0001
0100
0001
0101
0000
1001
0000
1000
0100
0000
0010
0100
0010
0000
0001
0000
,
0100
0000
0010
0000
1000
0000
0100
0000
0010
0000
0001
0000
1000
0010
0000
0100
,
0000
0001
0000
1000
0000
0001
1000
0100
0001
0000
1000
0000
0010
0000
0000
0000
,
0100
0010
0001
0100
0000
0010
1000
0100
0000
0000
0010
0000
0001
0000
0000
0100
,
0000
0001
1000
0001
0000
0010
0000
1000
0000
0000
0001
0000
0100
0000
1000
0000
,
0010
0000
0000
0000
0000
0000
1000
0000
0000
0001
0000
0000
0200
0300
0000
0020
0030
0000
2002
3003
0000
0000
0000
0000
0001
0000
0000
0010
0000
0000
0000
0000
0000
0100
0000
0000
0000
0000
0000
1000
0000
0000
0000
0000
0000
0001
0000
0000
,
0000
0000
0000
1000
0000
0000
0001
0000
0000
0100
0000
0000
1000
0000
0000
0000
0000
0000
0001
0000
0000
0000
0000
0000
0010
0000
0000
0000
0000
0000
0000
0000
0000
0000
0000
0000
0100
0000
0000
0001
0000
0000
0000
0000
0000
0202
0303
0000
,
2002
3003
0000
0000
0000
0000
0000
0000
0000
0000
0000
0000
2200
3300
0000
0000
0000
0000
2002
3003
0000
0011
0000
0000
0000
0000
0000
1001
0000
0000
0000
0000
0000
0000
0000
0000
1000
0000
0000
0000
0000
0000
0010
0000
0000
0100
0000
0000
,
0010
0000
0000
0000
1000
0000
0000
0000
0100
0000
0000
0000
0010
0000
0100
0000
0010
0000
0001
1000
0100
0000
1000
0001
0100
0000
0010
0000
1001
0000
0000
0000
,
1000
0000
0010
0100
0000
0001
0000
0010
0000
0100
1000
0010
0000
0100
0001
1000
,
0001
0000
0010
0100
0000
1000
0000
0010
0000
0100
0010
0001
0000
0010
0100
0001
,
1000
0000
0100
0010
0000
0001
0000
0100
0000
0010
1000
0100
0000
0010
0001
1000
,
0001
0000
0100
0010
0000
1000
0000
0100
0000
0010
0100
0001
0000
0100
0010
0001
,
1000
0000
0100
0000
0010
0000
0100
0000
1000
0000
0100
0000
0010
0000
0001
1000
,
0001
0000
0000
0000
0100
0000
0000
0000
0010
0000
0000
0000
0100
0000
0000
0000
0001
0000
0000
0000
0100
0000
0000
0000
0010
0100
0010
0000
1000
0000
0001
0000
,
1000
0000
0100
0000
0010
0000
0100
0000
1000
0000
0100
0000
0010
0000
0001
1000
,
0020
0030
0020
0030
0000
0000
0000
0000
0200
0300
0200
0300
0000
0000
0000
0000
0000
0000
0000
0000
0000
0000
0000
0000
0000
0000
0000
0000
0000
0000
0000
0000
1002
0000
0000
0000
0000
0000
0000
0000
0000
0000
0000
0000
0000
0000
0000
0000
0103
0000
0000
0000
0000
0000
0000
0000
0000
0000
0000
0000
0010
0000
0000
0000
,
0000
0000
0010
0000
1000
0000
0001
0000
1000
0000
0000
0000
0100
0000
0000
0010
,
0000
0000
0010
0000
0001
0000
1000
0000
0001
0000
0000
0000
0100
0000
0000
0010
,
0000
0000
0000
0000
0000
0000
0010
0000
0000
0000
0000
0000
1000
0000
0000
0000
0000
0000
0010
0000
0000
0000
0000
0000
2020
3030
0000
0202
0303
0000
2002
3003
0000
0000
0000
0000
0000
0000
0000
0000
0000
0000
0000
0000
0000
0000
0000
0000
,
0001
1000
0100
0000
0001
0000
0100
0000
1000
0000
0100
0000
0001
0100
0010
0001
,
1000
0001
0000
0100
0000
1000
0000
0001
0000
0010
0100
0001
0010
0100
1000
0001
,
1000
0000
0100
0000
0010
0000
0001
0000
1000
0000
0010
0000
0100
0001
1000
0001
,
0010
0000
1000
0000
0001
0000
0100
0000
1000
0001
1000
0010
0000
0000
0100
0000
,
0001
0000
0100
0010
0100
0000
0000
0000
1000
0000
0000
0000
0100
0000
0000
0000
0001
0000
0000
0000
0100
0000
0000
0000
1000
0000
0100
0000
0010
0000
1000
0000
,
0001
1000
0000
0100
0000
0001
0000
1000
0000
0010
0100
1000
0010
0100
0001
1000
,
0001
0000
0000
0000
0100
0000
0000
0000
0010
0000
0000
0000
1000
0000
0001
1000
0001
0000
1000
0000
0100
0000
0010
0000
0001
0000
0100
0000
0010
0000
1000
0000
,
0010
0000
0001
0000
1000
0000
0100
0000
0001
1000
0001
0010
0100
0000
1000
0000
,
0001
0000
0000
1000
0000
0000
0100
0000
0000
1000
0000
0000
0001
0000
0000
0100
0000
0000
0202
0303
0000
0000
0000
0000
0000
0000
0000
0000
0000
0000
1001
0000
0000
0000
0000
0000
0001
0000
0000
1000
0000
0000
0010
0000
0000
2020
3030
0000
,
2002
3003
0000
0022
0033
0000
2200
3300
0000
0000
0000
0000
1000
0000
0000
0000
0000
0000
0001
0000
0000
0000
0000
0000
0010
0000
0000
0000
0000
0000
0000
0000
0000
0000
0000
0000
1000
0000
0000
0000
0000
0000
0000
0000
0000
0000
0000
0000
,
0010
0000
0001
0000
0010
0000
1000
0010
,
0100
1000
0001
1000
0000
0010
0000
0001
,
0000
1000
0000
0100
0010
1000
0100
0010
,
0001
1000
0001
0000
0010
0000
0100
0000
,
1000
0000
0001
0000
0100
0000
0010
1000
,
0001
1000
0100
0000
0001
0000
1000
0000
,
0010
0000
0001
1000
0001
0100
0000
0000
,
0010
0000
0000
0000
1000
0000
0010
0100
0010
0000
0000
0000
0001
0000
0000
0000
,
0010
0000
1000
0000
0010
0000
0001
0010
,
0100
0000
0000
0000
0000
0000
0001
0000
0000
0000
0000
0000
1000
0000
0000
0000
0000
0000
2002
3003
0000
0000
0000
0000
0202
0303
0000
0000
0000
0000
2002
3003
0000
0000
0000
0000
2200
3300
0000
0000
0000
0000
0200
0300
0000
2000
3000
0000
,
0020
0030
0000
0200
0300
0000
0002
0003
0000
0000
0000
0000
1000
0000
0000
0000
0000
0000
0000
0000
0000
0000
0000
0000
0010
0000
0000
0000
0000
0000
0000
0000
0000
0000
0000
0000
0100
0000
0000
0000
0000
0000
0000
0000
0000
0000
0000
0000
,
0001
0000
1000
0001
1000
0000
0001
0000
0010
0000
0100
0000
1000
0000
0010
0000
,
0100
0001
0100
0000
1000
0000
0001
0000
,
0010
0000
1000
0001
1000
0100
0010
0000
,
0001
0000
1000
0001
0010
0001
1000
0010
,
2020
3030
0000
0000
0000
0000
0000
0000
0000
0000
0000
0000
0000
0000
0000
0000
0000
0000
0000
0000
0000
0000
0000
0000
1001
0000
0000
0000
0000
0000
0000
0000
0000
0000
0000
0000
1000
0000
0000
0000
0000
0000
0001
0000
0000
0000
0000
0000
,
0100
0000
0000
0000
0000
0000
0202
0303
0000
0000
0000
0000
2002
3003
0000
0000
0000
0000
2200
3300
0000
0000
0000
0000
0022
0000
0000
0000
0000
0000
0000
0000
0000
0000
0000
0000
0000
0000
0000
0000
0000
0000
0000
0000
0000
0000
0000
0000
,
0033
0000
0000
0000
;

//--------------- dance-double - kaya ----------------
#NOTEDATA:;
#STEPSTYPE:dance-double;
#DESCRIPTION:kaya;
#DIFFICULTY:Easy;
#METER:8;
#RADARVALUES:0.209322,0.308264,0.112096,0.200171,0,183,169,14,25,0,0,0,0,0,0.209322,0.308264,0.112096,0.200171,0,183,169,14,25,0,0,0,0,0;
#DISPLAYBPM:114.000:228.000;
#CHARTNAME:;
#CHARTSTYLE:;
#CREDIT:;
#NOTES:
00000000
00000000
00000000
00000000
,
00000000
00000000
00000000
00000000
,
00000000
00000000
00000000
00000000
,
00000000
00000000
00000000
00000000
,
00000000
00000000
00000000
00000000
,
00000000
00000000
00000000
00000000
,
00000000
00000000
00000000
00000000
,
00000000
00000000
00000000
00000000
,
00000000
00000000
00000000
00000000
,
00000000
00000000
00000000
00000000
,
00022000
00000000
00000000
00000000
,
00033000
00000000
00000000
00000000
,
02020000
00000000
00000000
00000000
,
03030000
00000000
00000000
00000000
,
20200000
00000000
00000000
00000000
,
30300000
00000000
00000000
00000000
,
00220000
00000000
00330000
00000000
,
00022000
00000000
00033000
00000000
,
00001000
00000000
00000100
00000000
,
00000001
00000000
00000010
00000000
,
00002000
00000000
00003000
00000000
,
00020000
00000000
00030000
00000000
,
00010000
00000000
01000000
00000000
,
10000000
00000000
00100000
00000000
,
00020000
00000000
00030000
00000000
,
00002000
00000000
00003000
00000000
,
00000100
00000000
00000010
00000000
,
00001000
00000000
00000001
00000000
,
00000020
00000000
00000000
00000000
,
00000030
00000000
00000000
00000000
,
10010000
00000000
10000000
00000000
,
00100000
00000000
01000000
00000000
,
00010000
00000000
00100000
00000000
,
00001000
00001000
00001000
00000000
,
00010000
00000000
00000010
00000000
,
00000100
00000000
00000001
00000000
,
00000010
00000000
00001000
00000000
,
00000010
00000000
00000001
00000000
,
00000100
00000000
00000001
00000000
,
00001000
00000000
00000001
00000000
,
00000010
00000000
00000100
00000000
,
00001000
00000000
00000000
00000000
,
10010000
00000000
00010000
00000000
,
01000000
00000000
10000000
00000000
,
01000000
00000000
00100000
00000000
,
00100000
00000000
00000000
00000000
,
00001001
00000000
00000001
00000000
,
00001000
00000000
00000100
00000000
,
00000010
00000000
00000001
00000000
,
00001000
00000000
00000010
00000000
,
00000100
00000000
00000100
00000000
,
00001000
00000000
00001000
00000000
,
00010000
00000000
00010000
00000000
,
01000000
00000000
01000000
00000000
,
00100000
00000000
00100000
00000000
,
00001000
00000000
00001000
00000000
,
00010000
00000000
00010000
00000000
,
00000010
00000000
00000010
00000000
,
00000001
00000000
00000001
00000000
,
00000010
00000000
00000010
00000000
,
00001000
00000000
00001000
00000000
,
00010000
00000000
00100000
00000000
,
10000000
00000000
10000000
00000000
,
01000000
00000000
01000000
00000000
,
00010000
00000000
00000000
00001001
,
00000000
00000000
00000000
00000000
,
00000002
00000000
00000003
00000000
,
00002000
00000000
00003000
00000000
,
00000020
00000000
00000030
00000000
,
00020000
00000000
00030000
00000000
,
11000000
00000000
01000000
00000000
,
00100000
00000000
00100000
00000000
,
00010000
00000000
10000000
00000000
,
00100000
00000000
01000000
00000000
,
00001000
00000000
00001000
00000000
,
00010000
00000000
00010000
00000000
,
00000100
00000000
00000010
00000000
,
00000001
00000000
00001000
00000000
,
00000001
00000000
00000010
00000000
,
00000100
00000000
00001000
00000000
,
00000010
00000000
00010000
00000000
,
00001000
00000000
00001000
00000000
,
00000100
00000000
00000010
00000000
,
00010000
00000000
00001000
00000000
,
00100000
00000000
01000000
00000000
,
00010000
00000000
01000000
00000000
,
20000000
00000000
00000000
00000000
,
30000000
00000000
00000000
00000000
,
00020000
00000000
00000000
00000000
,
00030000
00000000
00000000
00000000
,
00001001
00000000
00000001
00000000
,
00000100
00000100
00000100
00000000
,
00000010
00000000
00001000
00000000
,
00000100
00000000
00010000
00000000
,
00001000
00000000
01000000
00000000
,
00100000
00100000
00100000
00000000
,
10000000
00000000
00010000
00000000
,
10000000
00000000
01000000
00000000
,
00100000
00000000
01000000
00000000
,
00010000
00010000
00010000
00000000
,
00001000
00000000
00000010
00000000
,
00000100
00000000
00001000
00000000
,
00000001
00000000
00000100
00000000
,
00000010
00000010
00000010
00000000
,
00001000
00000000
00000001
00000000
,
00001000
00000001
00001000
00000000
,
00002002
00000000
00000000
00000000
,
00003003
00000000
00000000
00000000
,
00011000
00000000
00000000
00000000
,
00000000
20020000
00000000
00000000
,
30030000
00000000
00000000
00000000
;

//--------------- dance-double - kaya ----------------
#NOTEDATA:;
#STEPSTYPE:dance-double;
#DESCRIPTION:kaya;
#DIFFICULTY:Medium;
#METER:13;
#RADARVALUES:0.448384,0.703002,0.192164,0.320274,0.016014,392,368,24,40,0,0,0,0,0,0.448384,0.703002,0.192164,0.320274,0.016014,392,368,24,40,0,0,0,0,0;
#DISPLAYBPM:114.000:228.000;
#CHARTNAME:;
#CHARTSTYLE:;
#CREDIT:;
#NOTES:
00000000
00000000
00000000
00000000
,
00000000
00000000
00000000
00000000
,
00000000
00000000
00000000
00000000
,
00000000
00000000
00000000
00000000
,
00000000
00000000
00000000
00000000
,
00000000
00000000
00000000
00000000
,
00000000
00000000
00000000
00000000
,
00000000
00000000
00000000
00000000
,
00000000
00000000
00000000
00000000
,
00000000
00000000
00000000
00000000
,
00002000
00000000
00000000
00000000
00000000
00103000
00000000
00010000
,
00000000
00100000
00000000
00000000
00000000
00000000
00000000
00000000
,
00020000
00000000
00000000
00000000
00000000
10030000
00000000
01000000
,
00000000
10000000
00000000
00000000
00000000
00000000
00000000
00000000
,
00200000
00000000
00000000
00000000
00000000
01300000
00000000
00010000
,
00000000
01000000
00000000
00000000
00000000
00000000
00000000
00002000
,
00020000
00000000
00000000
00033000
,
00001000
00010000
00001000
00010000
00001000
00000000
00000010
00000000
,
00000001
00000000
00000000
00001000
00000000
00000001
00000000
00001000
,
00000000
00000000
00000001
00000100
00000010
00000000
00010000
00000000
,
00002000
00000000
00003000
00000000
00010000
00000000
00001000
00010000
,
00000000
00000000
00010000
01000000
00000000
00000000
10000000
00000000
,
00100000
00000000
00000000
10000000
00000000
00010000
00000000
10000000
,
00000000
01000000
00000000
02000000
00000000
00000000
03100000
00000000
,
00100000
00010000
01000000
00100000
,
00010000
00001000
00000100
00000010
,
00001000
00000000
00000001
00000000
00000000
00001000
00000000
00000001
,
00000000
00001000
00000000
00000000
00000010
00000000
00000100
00000000
,
00002000
00000000
00000000
00000000
00013000
00000000
00000000
00011000
,
00000000
00011000
00000000
00000000
00000000
00000000
00000000
00000000
,
00020000
00000000
00000000
00000000
01030000
00000000
00000000
10000000
,
00000000
10000000
00000000
00100000
10000000
00000000
01000000
00000000
,
00100000
00001000
00010000
00000010
,
00000100
00001000
00010000
01000000
,
00100000
00000000
00000000
00001000
00000000
00010000
00000000
00001000
,
00000000
00000010
00000001
00001000
,
00000001
00000000
00000000
00000000
00000010
00000000
00001000
00010000
,
00000000
00000000
00010000
00100000
00000000
00000000
10000000
00000000
,
01000000
00000000
00000000
00010000
00000000
00001000
00000000
00010000
,
00000000
00100000
00000000
00010000
00000000
00000000
00001000
00000000
,
00000100
00000010
00001000
00000001
,
00000010
00000010
00000220
00000330
,
00000001
00000010
00000000
00001000
00000000
00010000
00000000
00001000
,
00000000
00000010
00000000
00000100
00010000
00000000
00001000
00000000
,
00200000
00000000
00000000
00000000
00301000
00000000
00000000
00011000
,
00000000
00011000
00000000
00000000
00000000
00000000
00000000
00000000
,
00002000
00000000
00000000
00000000
00003100
00000010
00000000
00000110
,
00000000
00000001
00000000
00000000
00000010
00000000
00000001
00001000
,
00000001
00000100
00001000
00010000
,
01000000
00100000
00001000
00010000
,
00000020
00000000
00000000
00000130
00000000
00000100
00000000
00001000
,
00000000
00001000
00000000
00010000
00000000
00010000
01000000
00000000
,
00200000
00000000
00300000
01000000
00000000
01000000
00000000
00010000
,
00000000
00010000
00000000
00001000
00000000
00001000
00000100
00000000
,
00000200
00000000
00000000
00000310
00000000
00000010
00000000
00001000
,
00000000
00001000
00000000
00010000
00000000
00010000
00100000
00000000
,
02000000
00000000
00000000
03100000
00000000
00100000
00000000
00010000
,
00000000
00010000
00000000
00001000
00000000
00001000
00000010
00000000
,
00000002
00000000
00000000
00000013
00000000
00000010
00000000
00001000
,
00000000
00001000
00000000
00010000
00000000
00010000
00100000
00000000
,
20000000
00000000
30000000
00100000
00000000
00100000
00000000
00010000
,
00000000
00010000
00000000
00001000
00000000
00001000
00000010
00000000
,
00000001
00000010
00001000
00010000
,
00100000
10000000
01000000
00010000
,
00002000
00023000
00030000
00000000
00000000
00000000
00020000
00032000
,
00003000
00000000
00000000
00000000
,
00000001
00000000
00000000
00000000
00000100
00000000
00000000
00001000
00000000
00000000
00010000
00000000
01000000
00000000
00000000
00000000
,
10000000
00000000
00000000
00000000
00100000
00000000
00000000
00010000
00000000
00000000
00001000
00000000
00000010
00000000
00000000
00000000
,
00000001
00000000
00000000
00000000
00000100
00000000
00000000
00001000
00000000
00000000
00010000
00000000
01000000
00000000
00000000
00000000
,
20000000
30000000
00000000
20000000
30000000
00000000
20000000
30000000
00100000
00000000
01000000
00000000
00001000
00000000
00000000
00000000
,
00010000
00001000
00000010
00000001
,
00000100
00001000
00000100
00000001
,
00000010
00000001
00000000
00001000
00000000
00000010
00000000
00010000
,
00000000
00001000
00000000
00000000
00010000
00001000
00010000
00000000
,
00001000
00010000
00200000
00000000
,
00301000
00010000
02000000
00000000
,
03100000
00100000
00100000
00100000
,
10000000
00010000
10000000
00010000
10000000
00000000
00000000
00000000
,
01000000
10000000
00100000
00010000
,
00001000
00010000
01000000
10000000
,
01000000
10000000
00000000
00010000
00000000
01000000
00000000
00001000
,
00000000
00000000
00010000
00000000
00001000
00010000
00001000
00000000
,
00010000
00001000
00000020
00000000
,
00010030
00001000
00000200
00000000
,
00000310
00000010
00000001
00000001
,
00001000
00000001
00001000
00000001
00001000
00000000
00000000
00000000
,
00000011
00000000
00000000
00000110
00000000
00000000
00001100
00000000
,
00000000
00000000
00000000
00010000
,
00001000
00000000
00000000
00011000
00000000
00011000
00000000
00011000
,
00000000
20020000
00000000
30030000
,
10000000
00100000
00010000
00001000
,
00010000
01000000
10000000
00100000
,
00010000
00001000
00000000
00010000
00000000
00001000
00000000
00010000
,
00000000
00001000
00010000
00001000
00010000
00001000
00010000
00000000
,
00000010
00001000
00020000
00000000
,
00030100
00001000
00020000
00000000
,
00030100
00000100
00000100
00000100
,
00000010
00000100
00000010
00000100
00000010
00000000
00001001
00000000
,
00000001
00000010
00001000
00010000
,
00001000
00000100
00000001
00000010
,
00001000
00010000
00000000
00001000
00000000
00010000
00000000
00001000
,
00000000
00010000
00001000
00010000
00001000
00010000
00001000
00000000
,
00100000
00010000
00002000
00000000
,
01003000
00010000
00002000
00000000
,
01003000
01100000
01100000
01100000
,
00100000
01000000
00100000
01000000
00100000
00000000
10010000
00000000
,
10000000
01000000
00100000
00010000
00000000
00000000
20020000
00000000
,
30030000
00000000
00000000
00001000
,
00011000
00000000
00000000
00011000
00000000
00011000
00000000
00011000
,
00000000
00002002
00000000
00003003
;

//--------------- dance-double - chronon ----------------
#NOTEDATA:;
#STEPSTYPE:dance-double;
#DESCRIPTION:chronon;
#DIFFICULTY:Hard;
#METER:16;
#RADARVALUES:0.589076,0.880754,0.240206,0.200171,0.040034,515,485,30,25,0,0,0,0,0,0.589076,0.880754,0.240206,0.200171,0.040034,515,485,30,25,0,0,0,0,0;
#DISPLAYBPM:114.000:228.000;
#CHARTNAME:;
#CHARTSTYLE:;
#CREDIT:;
#NOTES:
00000000
00000000
00000000
00000000
,
00000000
00000000
00000000
00000000
,
00000000
00000000
00000000
00000000
,
00000000
00000000
00000000
00000000
,
00000000
00000000
00000000
00000000
,
00000000
00000000
00000000
00000000
,
00000000
00000000
00000000
00000000
,
00000000
00000000
00000000
00000000
,
00000000
00000000
00000000
00000000
,
00000000
00000000
00000000
00000000
,
10000000
00000000
01000000
00000000
10000000
01000000
00000000
00100000
,
00000000
00001000
00000000
00000000
00010000
00000000
00001000
00010000
,
00000010
00000000
00001000
00000000
00000010
00000100
00000000
00000001
,
00000000
00000000
00001000
00000000
00000000
00000000
00000000
00000000
00001000
00000001
00001000
00000000
00000001
00000000
00001000
00000000
,
00000001
00000000
00000010
00000000
00000001
00000010
00000000
00000100
,
00000000
00010000
00000000
00000000
00001000
00000000
00010000
00001000
,
01000000
00010000
01000000
00010000
10000000
00100000
10000000
00100000
,
10000000
00010000
10000000
00010000
10000000
00000000
01000000
00000000
00100000
00000000
00010000
10000000
00100000
00000000
00000000
00000000
,
10000000
00100000
00000000
01000000
00000000
00010000
00000000
10000000
,
00000000
01000000
00100000
00001000
00010000
00000000
00000100
00000000
,
00000020
00000000
00000000
00000000
00000031
00001000
00000010
00000100
,
00000000
00000001
00000010
00000200
00000000
00000000
00001300
00000000
,
00000002
00000000
00000000
00000103
00000000
00000001
00000100
00000010
,
00000000
00010000
00000000
00002000
00000000
00000000
01003000
00000000
,
00100000
10000000
01000000
00100000
,
00010000
00000000
01000000
00000000
00100000
00000000
10000000
00010000
,
10000000
01000000
00000000
00100000
00000000
00010000
00000000
10000000
,
00000000
00100000
01000000
00001000
00010000
00000000
00000010
00000000
,
00000200
00000000
00000000
00000000
00000310
00001000
00000000
00001010
,
00000000
00010010
00000000
00000000
00000000
00000000
00000000
00000000
,
00021000
00000000
00000000
00000000
00031000
00100000
00010000
00110000
,
00000000
00101000
00000000
00001000
00010000
00000000
00000100
00001000
,
00000100
00001000
00000010
00000100
,
00000001
00000010
00000100
00001000
,
00000001
00000100
00000000
00000010
00000000
00001000
00000000
00000001
,
00000000
00000010
00000100
00001000
00010000
00000000
00100000
00000000
,
02000000
00000000
00000000
00000000
13000000
00010000
01000000
00100000
,
00000000
10000000
01000000
00200000
00000000
00000000
00310000
00000000
,
20000000
00000000
00000000
30100000
00000000
10000000
00100000
01000000
,
00000000
00010000
00000000
00002000
00000000
00000000
00003010
00000000
,
00000100
00000000
00000001
00000000
00000010
00000000
00000100
00001000
,
00000001
00001000
00001001
00000000
,
00000001
00000010
00000000
00000100
00000000
00001000
00000000
00000001
,
00000000
00000100
00000010
00001000
00010000
00000000
01000000
00000000
,
00200000
00000000
00000000
00000000
01300000
00010000
00000000
01010000
,
00000000
01001000
00000000
00000000
00000000
00000000
00000000
00000000
,
00011000
00000000
00000000
00000000
00010100
00000000
00000000
00001100
,
00000000
00020100
00000000
00000000
00031000
00000000
00100000
00010000
,
00100000
00000000
00010000
00000000
01000000
00000000
00100000
10000000
,
00100000
00000000
10000000
00010000
01000000
00000000
00010000
10000000
01000000
00000000
00100000
00000000
10010000
00000000
00000000
00000000
,
10000000
00000000
01000000
00100000
00000000
01000000
00000000
00010000
,
00000000
01000000
00100000
00001000
00000000
00010000
00000010
00000100
,
00000001
00000000
00000100
00000010
00000000
00000100
00000000
00001000
,
00000000
00000100
00000010
00010000
00000000
01000000
00100000
00010000
,
10000000
00000000
00100000
01000000
00000000
00100000
00000000
00010000
,
00000000
00100000
01000000
00001000
00000000
00010000
00000100
00000010
,
00000001
00000000
00000010
00000100
00000000
00000010
00000000
00001000
,
00000000
00000010
00000100
00010000
00000000
00100000
01000000
00010000
,
10000000
01000000
00100000
01000000
,
10000000
00000000
01000000
00000000
00100000
00000000
00001000
00010000
,
00001000
01000000
00001000
00010000
,
00001000
00000000
00100000
00000000
00001000
00010000
00000010
00001000
,
00000001
00000100
00000010
00000100
,
00000001
00000000
00000100
00000000
00000010
00000000
00010000
00001000
,
01000000
01000000
00000000
00000000
00000000
00000000
00000100
00000100
,
00000000
00000000
00012000
00000000
,
00103000
00000000
00000000
01000000
00000000
00000000
01000000
00000000
10000000
00000000
00010000
00000000
10000000
00000000
00000000
00000000
,
00100000
00000000
00000000
01000000
00000000
00000000
01000000
00000000
00010000
00000000
00100000
00000000
00001000
00000000
00000000
00000000
,
00100000
00000000
00000000
00001000
00000000
00000000
00001000
00000000
00100000
00000000
00001000
00000000
00010000
00000000
00000000
00000000
,
00011000
00000000
00000000
00010010
00000000
00000000
00001001
00000000
00001010
00000000
00000010
00000000
00000202
00000000
00000303
00000000
,
00000001
00000100
00000010
00000000
00000001
00000000
00000010
00000000
,
00001000
00100000
00001000
00000010
,
00010000
00001000
00000000
00100000
00000000
10000000
00000000
00100000
,
00000000
01000000
00100000
00010000
10000000
00100000
01000000
00010000
,
10000000
01000000
00100000
00010000
,
00001000
00000000
00000100
00000000
00000010
00000001
00001000
00000001
,
00000100
00000010
00001000
00010000
,
01000000
00010000
10000000
00010000
00000000
00100000
01000000
00000000
,
10000000
01000000
00100000
00000000
10000000
00000000
00100000
00000000
,
00010000
00000010
00010000
00100000
,
00001000
00010000
00000000
00000010
00000000
00000001
00000000
00000010
,
00000000
00000100
00000010
00001000
00000001
00000010
00000100
00001000
,
00000001
00000100
00000010
00001000
,
00010000
01000000
00010000
10000000
00100000
10000000
00010000
10000000
,
01000000
00010000
10000000
00100000
,
00001000
00010000
00000100
00001000
00000010
00000000
00000100
00000000
,
00000001
00000100
00000010
00001000
00000010
00010000
00010010
00000000
,
00000000
00000000
00020000
00031000
,
00001000
00100000
00010000
00110000
00000000
01100000
00000000
11000000
,
00000000
20020000
00000000
30030000
,
10000000
00100000
01000000
00000000
10000000
00000000
01000000
00000000
,
00010000
00000100
00010000
01000000
,
00001000
00010000
00000000
00000100
00000000
00000001
00000000
00000100
,
00000000
00000010
00000100
00001000
00000001
00000100
00000010
00001000
,
00000001
00000010
00000100
00001000
,
00010000
00000000
00100000
00000000
01000000
10000000
00010000
10000000
,
00100000
01000000
00010000
00001000
,
00000010
00001000
00000001
00001000
00000000
00000100
00000010
00000000
,
00000001
00000010
00000100
00000000
00000001
00000000
00000100
00000000
,
00001000
01000000
00001000
00000100
,
00010000
00001000
00000000
02000000
00000000
23000000
00000000
32000000
,
00000000
03000000
00100000
01000000
00010000
10000000
00100000
00000000
,
10000000
00100000
01000000
00010000
,
00001000
00000010
00001000
00000001
00000100
00000001
00001000
00000001
,
00000010
00001000
00000001
00000100
,
00010000
00001000
00100000
00010000
01000000
00000000
00100000
00000000
,
10000000
00100000
01000000
00010000
01000000
00001000
02002000
00000000
,
00000000
00000000
03003000
00011000
,
00010000
00000100
00001000
00001100
00000000
00000110
00000000
00000011
,
00000000
00002002
00000000
00000000
,
00003003
00000000
00000000
00000000
;

//--------------- dance-double - chronon ----------------
#NOTEDATA:;
#STEPSTYPE:dance-double;
#DESCRIPTION:chronon;
#DIFFICULTY:Challenge;
#METER:16;
#RADARVALUES:0.583356,0.744637,0.240206,0.456391,0.648555,510,480,30,57,0,0,0,0,0,0.583356,0.744637,0.240206,0.456391,0.648555,510,480,30,57,0,0,0,0,0;
#OFFSET:1.602;
#BPMS:0.000=114.000
,92.000=57.000
,92.125=28.500
,92.250=114.000
,177.000=228.000
,246.000=456.000
,248.000=228.000
;
#STOPS:57.750=0.131
,58.000=0.395
,81.000=0.132
,81.250=0.132
,81.500=0.263
,87.750=0.131
,88.000=0.395
,89.500=0.263
,124.000=0.066
,124.125=0.461
,124.500=0.066
,124.625=0.461
,138.000=0.263
,138.250=0.263
,138.500=0.526
,173.500=0.526
,175.750=0.132
,176.000=0.132
,176.250=0.263
,176.500=0.526
,217.500=0.131
,218.000=0.132
,218.500=0.131
,219.000=0.132
,219.500=0.066
,219.750=0.066
,220.000=0.066
,220.250=0.066
,220.500=0.262
,240.000=0.526
,244.500=0.132
,245.000=0.132
,245.500=0.263
;
#SPEEDS:0.000=1.000=0.000=0;
#SCROLLS:0.000=1.000;
#TICKCOUNTS:0.000=4;
#TIMESIGNATURES:0.000=4=4;
#LABELS:0.000=Song Start;
#COMBOS:0.000=1;
#DISPLAYBPM:114.000:228.000;
#CHARTNAME:;
#CHARTSTYLE:;
#CREDIT:;
#NOTES:
00000000
00000000
00000000
00000000
,
00000000
00000000
00000000
00000000
,
00000000
00000000
00000000
00000000
,
00000000
00000000
00000000
00000000
,
00000000
00000000
00000000
00000000
,
10000000
00000000
01000000
00000000
10000000
01000000
00000000
00100000
00000000
00001000
00000000
00000000
00010000
00000000
00001000
00010000
,
00000010
00000000
00000000
00000000
00001000
00000000
00000000
00000000
00000010
00000000
00000100
00000000
00000000
00000000
00000001
00000000
00000000
00000000
00001000
00000000
00000000
00000000
00000000
00000000
00001000
00000001
00001000
00000000
00000001
00000000
00001000
00000000
,
00000001
00000000
00000010
00000000
00000001
00000010
00000000
00000100
00000000
00010000
00000000
00000000
00001000
00000000
00010000
00001000
,
01000000
00000000
00010000
00000000
01000000
00000000
00010000
00000000
10000000
00000000
00100000
00000000
10000000
00000000
00100000
00000000
10000000
00010000
10000000
00010000
10000000
00000000
01000000
00000000
00100000
00000000
00010000
10000000
00100000
00000000
00000000
00000000
,
10000000
00100000
00000000
01000000
00000000
00010000
00000000
10000000
00000000
01000000
00100000
00001000
00010000
00000000
00000100
00000000
,
00000010
00000000
00000000
00000000
00000001
00001000
00000010
00000100
00000000
00000001
00000010
00000100
00000000
00000000
00001000
00000000
,
00000001
00000000
00000000
00000100
00000000
00000001
00000100
00000010
00000000
00010000
00000000
00001000
00000000
00000000
01000000
00000000
,
00100000
00000000
10000000
00000000
01000000
00000000
00100000
00000000
00010000
00000000
01000000
00000000
00100000
00000000
10000000
00010000
,
10000000
01000000
00000000
00100000
00000000
00010000
00000000
10000000
00000000
00100000
01000000
00001000
00010000
00000000
00000010
00000000
,
00000100
00000000
00000000
00000000
00000000
00000000
00000000
00000000
00000000
00000000
00000000
00000000
00000010
00000000
00000000
00001000
00000000
00000000
00000000
00000000
00000000
00002020
00003030
00000000
00020020
00030030
00000000
00000000
00000000
00000000
00000000
00000000
00000000
00000000
00000000
00000000
00011000
00000000
00000000
00000000
00000000
00000000
00000000
00000000
00000000
00000000
00000000
00000000
,
00001000
00100000
00010000
00110000
00000000
00101000
00000000
00001000
00010000
00000000
00000100
00001000
00000100
00000000
00001000
00000000
,
00000010
00000000
00000100
00000000
00000001
00000000
00000010
00000000
00000100
00000000
00001000
00000000
00000001
00000100
00000000
00000010
,
00000000
00001000
00000000
00000001
00000000
00000010
00000100
00001000
00010000
00000000
00100000
00000000
01000000
00000000
00000000
00000000
,
10000000
00010000
01000000
00100000
00000000
10000000
01000000
00100000
00000000
00000000
00010000
00000000
10000000
00000000
00000000
00100000
,
00000000
10000000
00100000
01000000
00000000
00010000
00000000
00001000
00000000
00000000
00000010
00000000
00000100
00000000
00000001
00000000
,
00000010
00000000
00000000
00000000
00000000
00000000
00000100
00000000
00000000
00001000
00000000
00000000
00000002
00000003
00000000
00002000
00003000
00000000
00002002
00003003
00000000
00000000
00000000
00000000
00000001
00000000
00000000
00000010
00000000
00000000
00000000
00000000
00000000
00000100
00000000
00000000
00000000
00000000
00000000
00001000
00000000
00000000
00000000
00000000
00000000
00000001
00000000
00000000
,
00000000
00000000
00000000
00000100
00000000
00000000
00000010
00000000
00000000
00001000
00000000
00000000
00010000
00000000
00000000
00000000
00000000
00000000
01000000
00000000
00000000
00000000
00000000
00000000
00100000
00000000
00000000
00000000
00000000
00000000
00000000
00000000
00000000
00000000
00000000
00000000
01000000
00000000
00000000
00010000
00000000
00000000
00000000
00000000
00000000
02020000
03030000
00000000
,
02002000
03003000
00000000
00000000
00000000
00000000
00000000
00000000
00000000
00000000
00000000
00000000
00022000
00033000
00000000
00000000
00000000
00000000
00020200
00030300
00000000
00001100
00000000
00000000
00000000
00000000
00000000
00020100
00000000
00000000
00000000
00000000
00000000
00000000
00000000
00000000
00031000
00000000
00000000
00000000
00000000
00000000
00100000
00000000
00000000
00010000
00000000
00000000
,
00100000
00000000
00000000
00000000
00010000
00000000
00000000
00000000
01000000
00000000
00000000
00000000
00100000
00000000
10000000
00000000
00100000
00000000
10000000
00010000
01000000
00000000
00010000
10000000
01000000
00000000
00100000
00000000
10010000
00000000
00000000
00000000
,
10000000
00000000
01000000
00100000
00000000
01000000
00000000
00010000
00000000
01000000
00100000
00001000
00000000
00010000
00000010
00000100
,
00000001
00000000
00000100
00000010
00000000
00000100
00000000
00001000
00000000
00000100
00000010
00010000
00000000
01000000
10000000
00010000
,
10000000
00000000
00100000
01000000
00000000
00100000
00000000
00010000
00000000
00100000
01000000
00001000
00000000
00010000
00000100
00000010
,
00000001
00000000
00000010
00000100
00000000
00000010
00000000
00001000
00000000
00000010
00000100
00010000
00000000
00100000
10000000
00010000
,
10000000
00000000
01000000
00000000
00100000
00000000
01000000
00000000
10000000
00000000
01000000
00000000
00100000
00000000
00001000
00010000
,
00001000
00000000
01000000
00000000
00001000
00000000
00010000
00000000
00001000
00000000
00100000
00000000
00001000
00010000
00000010
00001000
,
00000001
00000000
00000100
00000000
00000010
00000000
00000100
00000000
00000001
00000000
00000100
00000000
00000010
00000000
00010000
00001000
,
02000000
03000000
02000000
03000000
00000000
00000000
00000000
00000000
00000200
00000300
00000200
00000300
00000000
00000000
00000000
00000000
00000000
00000000
00000000
00000000
00000000
00000000
00000000
00000000
00000000
00000000
00000000
00000000
00000000
00000000
00000000
00000000
00012000
00000000
00000000
00000000
00000000
00000000
00000000
00000000
00000000
00000000
00000000
00000000
00000000
00000000
00000000
00000000
00103000
00000000
00000000
00000000
00000000
00000000
00000000
00000000
00000000
00000000
00000000
00000000
01000000
00000000
00000000
00000000
,
00000000
00000000
01000000
00000000
10000000
00000000
00010000
00000000
10000000
00000000
00000000
00000000
00100000
00000000
00000000
01000000
,
00000000
00000000
01000000
00000000
00010000
00000000
00100000
00000000
00001000
00000000
00000000
00000000
00100000
00000000
00000000
00100000
,
00000000
00000000
00000000
00000000
00000000
00000000
00001000
00000000
00000000
00000000
00000000
00000000
00010000
00000000
00000000
00000000
00000000
00000000
00001000
00000000
00000000
00000000
00000000
00000000
00022000
00033000
00000000
00020020
00030030
00000000
00002002
00003003
00000000
00000000
00000000
00000000
00000000
00000000
00000000
00000000
00000000
00000000
00000000
00000000
00000000
00000000
00000000
00000000
,
00000001
00000100
00000010
00000000
00000001
00000000
00000010
00000000
00001000
00000000
00100000
00000000
00001000
00000000
00000010
00000000
,
00010000
00001000
00000000
00100000
00000000
10000000
00000000
00100000
00000000
01000000
00100000
00010000
10000000
00100000
01000000
00010000
,
10000000
00000000
01000000
00000000
00100000
00000000
00010000
00000000
00001000
00000000
00000100
00000000
00000010
00000001
00001000
00000001
,
00000100
00000000
00000010
00000000
00001000
00000000
00010000
00000000
01000000
00010000
10000000
00010000
00000000
00100000
01000000
00000000
,
10000000
01000000
00100000
00000000
10000000
00000000
00100000
00000000
00010000
00000000
00000010
00000000
00010000
00000000
00100000
00000000
,
00001000
00010000
00000000
00000010
00000000
00000001
00000000
00000010
00000000
00000100
00000010
00001000
00000001
00000010
00000100
00001000
,
00000001
00000000
00000100
00000000
00000010
00000000
00001000
00000000
00010000
01000000
00010000
10000000
00100000
10000000
00010000
10000000
,
01000000
00000000
00010000
00000000
10000000
00000000
00100000
00000000
00001000
00010000
00000100
00001000
00000010
00000000
00000100
00000000
,
00000001
00000000
00000000
00000100
00000000
00000000
00000010
00000000
00000000
00001000
00000000
00000000
00000010
00000000
00000000
00010000
00000000
00000000
00020020
00030030
00000000
00000000
00000000
00000000
00000000
00000000
00000000
00000000
00000000
00000000
00011000
00000000
00000000
00000000
00000000
00000000
00001000
00000000
00000000
00100000
00000000
00000000
00010000
00000000
00000000
00220000
00330000
00000000
,
02200000
03300000
00000000
22000000
33000000
00000000
20020000
30030000
00000000
00000000
00000000
00000000
10000000
00000000
00000000
00000000
00000000
00000000
00100000
00000000
00000000
00000000
00000000
00000000
01000000
00000000
00000000
00000000
00000000
00000000
00000000
00000000
00000000
00000000
00000000
00000000
10000000
00000000
00000000
00000000
00000000
00000000
00000000
00000000
00000000
00000000
00000000
00000000
,
01000000
00010000
00000100
00010000
,
01000000
00000000
00001000
00010000
00000000
00000100
00000000
00000001
,
00000000
00000100
00000000
00000010
00000100
00001000
00000001
00000100
,
00000010
00001000
00000001
00000000
00000010
00000000
00000100
00000000
,
00001000
00000000
00010000
00000000
00100000
00000000
01000000
10000000
,
00010000
10000000
00100000
00000000
01000000
00000000
00010000
00000000
,
00001000
00000000
00000010
00001000
00000001
00001000
00000000
00000100
,
00000010
00000000
00000001
00000010
00000100
00000000
00000001
00000000
,
00000100
00001000
01000000
00001000
,
00000100
00000000
00000000
00000000
00000000
00000000
00000000
00000000
00000000
00000000
00000000
00000000
00010000
00000000
00000000
00000000
00000000
00000000
00002000
00003000
00000000
00000000
00000000
00000000
02000000
03000000
00000000
00000000
00000000
00000000
20000000
30000000
00000000
00000000
00000000
00000000
02000000
03000000
00000000
00000000
00000000
00000000
00200000
00300000
00000000
02000000
03000000
00000000
,
00020000
00030000
00000000
20000000
30000000
00000000
00200000
00300000
00000000
00000000
00000000
00000000
10000000
00000000
00000000
00000000
00000000
00000000
00000000
00000000
00000000
00000000
00000000
00000000
00100000
00000000
00000000
00000000
00000000
00000000
00000000
00000000
00000000
00000000
00000000
00000000
01000000
00000000
00000000
00000000
00000000
00000000
00000000
00000000
00000000
00000000
00000000
00000000
,
00010000
00000000
00001000
00000010
00001000
00000001
00000100
00000001
,
00001000
00000001
00000010
00000000
00001000
00000000
00000001
00000000
,
00000100
00000000
00010000
00001000
00100000
00010000
01000000
00000000
,
00100000
00000000
10000000
00100000
01000000
00010000
01000000
00001000
,
02002000
03003000
00000000
00000000
00000000
00000000
00000000
00000000
00000000
00000000
00000000
00000000
00000000
00000000
00000000
00000000
00000000
00000000
00000000
00000000
00000000
00000000
00000000
00000000
00011000
00000000
00000000
00000000
00000000
00000000
00000000
00000000
00000000
00000000
00000000
00000000
00010000
00000000
00000000
00000000
00000000
00000000
00000100
00000000
00000000
00000000
00000000
00000000
,
00001000
00000000
00000000
00000000
00000000
00000000
00002200
00003300
00000000
00000000
00000000
00000000
00000220
00000330
00000000
00000000
00000000
00000000
00000022
00000033
00000000
00000000
00000000
00000000
00002002
00000000
00000000
00000000
00000000
00000000
00000000
00000000
00000000
00000000
00000000
00000000
00000000
00000000
00000000
00000000
00000000
00000000
00000000
00000000
00000000
00000000
00000000
00000000
,
00003003
00000000
00000000
00000000
;
